  0
SECTION
  2
HEADER
  9
$ACADVER
  1
AC1015
  9
$ACADMAINTVER
 70
    20
  9
$DWGCODEPAGE
  3
ANSI_936
  9
$INSBASE
 10
0.0
 20
0.0
 30
0.0
  9
$EXTMIN
 10
102486.3154301957
 20
-169082.4467087144
 30
-0.0000000349181948
  9
$EXTMAX
 10
103317.503659614
 20
-168552.282387775
 30
0.0000000814935747
  9
$LIMMIN
 10
0.0
 20
0.0
  9
$LIMMAX
 10
12.0
 20
9.0
  9
$ORTHOMODE
 70
     0
  9
$REGENMODE
 70
     1
  9
$FILLMODE
 70
     1
  9
$QTEXTMODE
 70
     0
  9
$MIRRTEXT
 70
     0
  9
$LTSCALE
 40
1.0
  9
$ATTMODE
 70
     1
  9
$TEXTSIZE
 40
0.2
  9
$TRACEWID
 40
0.05
  9
$TEXTSTYLE
  7
Standard
  9
$CLAYER
  8
标注
  9
$CELTYPE
  6
ByLayer
  9
$CECOLOR
 62
   256
  9
$CELTSCALE
 40
5.0
  9
$DISPSILH
 70
     0
  9
$DIMSCALE
 40
1.0
  9
$DIMASZ
 40
10.0
  9
$DIMEXO
 40
7.0
  9
$DIMDLI
 40
0.38
  9
$DIMRND
 40
0.0
  9
$DIMDLE
 40
0.0
  9
$DIMEXE
 40
7.0
  9
$DIMTP
 40
0.0
  9
$DIMTM
 40
0.0
  9
$DIMTXT
 40
12.0
  9
$DIMCEN
 40
2.5
  9
$DIMTSZ
 40
0.0
  9
$DIMTOL
 70
     0
  9
$DIMLIM
 70
     0
  9
$DIMTIH
 70
     0
  9
$DIMTOH
 70
     0
  9
$DIMSE1
 70
     0
  9
$DIMSE2
 70
     0
  9
$DIMTAD
 70
     0
  9
$DIMZIN
 70
     8
  9
$DIMBLK
  1

  9
$DIMASO
 70
     1
  9
$DIMSHO
 70
     1
  9
$DIMPOST
  1

  9
$DIMAPOST
  1
"
  9
$DIMALT
 70
     0
  9
$DIMALTD
 70
     3
  9
$DIMALTF
 40
0.03937
  9
$DIMLFAC
 40
1.0
  9
$DIMTOFL
 70
     1
  9
$DIMTVP
 40
0.0
  9
$DIMTIX
 70
     0
  9
$DIMSOXD
 70
     0
  9
$DIMSAH
 70
     0
  9
$DIMBLK1
  1

  9
$DIMBLK2
  1

  9
$DIMSTYLE
  2
副本Standard
  9
$DIMCLRD
 70
   256
  9
$DIMCLRE
 70
   256
  9
$DIMCLRT
 70
   256
  9
$DIMTFAC
 40
1.0
  9
$DIMGAP
 40
0.5
  9
$DIMJUST
 70
     0
  9
$DIMSD1
 70
     0
  9
$DIMSD2
 70
     0
  9
$DIMTOLJ
 70
     1
  9
$DIMTZIN
 70
     0
  9
$DIMALTZ
 70
     0
  9
$DIMALTTZ
 70
     0
  9
$DIMUPT
 70
     0
  9
$DIMDEC
 70
     1
  9
$DIMTDEC
 70
     1
  9
$DIMALTU
 70
     7
  9
$DIMALTTD
 70
     3
  9
$DIMTXSTY
  7
Standard
  9
$DIMAUNIT
 70
     0
  9
$DIMADEC
 70
     0
  9
$DIMALTRND
 40
0.0
  9
$DIMAZIN
 70
     2
  9
$DIMDSEP
 70
    44
  9
$DIMATFIT
 70
     3
  9
$DIMFRAC
 70
     0
  9
$DIMLDRBLK
  1

  9
$DIMLUNIT
 70
     2
  9
$DIMLWD
 70
    -2
  9
$DIMLWE
 70
    -2
  9
$DIMTMOVE
 70
     0
  9
$LUNITS
 70
     2
  9
$LUPREC
 70
     4
  9
$SKETCHINC
 40
0.1
  9
$FILLETRAD
 40
104.0
  9
$AUNITS
 70
     0
  9
$AUPREC
 70
     0
  9
$MENU
  1
.
  9
$ELEVATION
 40
0.0
  9
$PELEVATION
 40
0.0
  9
$THICKNESS
 40
0.0
  9
$LIMCHECK
 70
     0
  9
$CHAMFERA
 40
26.6
  9
$CHAMFERB
 40
26.6
  9
$CHAMFERC
 40
0.0
  9
$CHAMFERD
 40
0.0
  9
$SKPOLY
 70
     0
  9
$TDCREATE
 40
2454355.343801713
  9
$TDUCREATE
 40
2454355.010468380
  9
$TDUPDATE
 40
2457938.599126725
  9
$TDUUPDATE
 40
2457938.265793391
  9
$TDINDWG
 40
8.7285246991
  9
$TDUSRTIMER
 40
8.7285246065
  9
$USRTIMER
 70
     1
  9
$ANGBASE
 50
0.0
  9
$ANGDIR
 70
     0
  9
$PDMODE
 70
     0
  9
$PDSIZE
 40
0.0
  9
$PLINEWID
 40
0.0
  9
$SPLFRAME
 70
     0
  9
$SPLINETYPE
 70
     6
  9
$SPLINESEGS
 70
     8
  9
$HANDSEED
  5
D5B70
  9
$SURFTAB1
 70
     6
  9
$SURFTAB2
 70
     6
  9
$SURFTYPE
 70
     6
  9
$SURFU
 70
     6
  9
$SURFV
 70
     6
  9
$UCSBASE
  2

  9
$UCSNAME
  2

  9
$UCSORG
 10
0.0
 20
0.0
 30
0.0
  9
$UCSXDIR
 10
1.0
 20
0.0
 30
0.0
  9
$UCSYDIR
 10
0.0
 20
1.0
 30
0.0
  9
$UCSORTHOREF
  2

  9
$UCSORTHOVIEW
 70
     0
  9
$UCSORGTOP
 10
0.0
 20
0.0
 30
0.0
  9
$UCSORGBOTTOM
 10
0.0
 20
0.0
 30
0.0
  9
$UCSORGLEFT
 10
0.0
 20
0.0
 30
0.0
  9
$UCSORGRIGHT
 10
0.0
 20
0.0
 30
0.0
  9
$UCSORGFRONT
 10
0.0
 20
0.0
 30
0.0
  9
$UCSORGBACK
 10
0.0
 20
0.0
 30
0.0
  9
$PUCSBASE
  2

  9
$PUCSNAME
  2

  9
$PUCSORG
 10
0.0
 20
0.0
 30
0.0
  9
$PUCSXDIR
 10
1.0
 20
0.0
 30
0.0
  9
$PUCSYDIR
 10
0.0
 20
1.0
 30
0.0
  9
$PUCSORTHOREF
  2

  9
$PUCSORTHOVIEW
 70
     0
  9
$PUCSORGTOP
 10
0.0
 20
0.0
 30
0.0
  9
$PUCSORGBOTTOM
 10
0.0
 20
0.0
 30
0.0
  9
$PUCSORGLEFT
 10
0.0
 20
0.0
 30
0.0
  9
$PUCSORGRIGHT
 10
0.0
 20
0.0
 30
0.0
  9
$PUCSORGFRONT
 10
0.0
 20
0.0
 30
0.0
  9
$PUCSORGBACK
 10
0.0
 20
0.0
 30
0.0
  9
$USERI1
 70
     0
  9
$USERI2
 70
     0
  9
$USERI3
 70
     0
  9
$USERI4
 70
     0
  9
$USERI5
 70
     0
  9
$USERR1
 40
0.0
  9
$USERR2
 40
0.0
  9
$USERR3
 40
0.0
  9
$USERR4
 40
0.0
  9
$USERR5
 40
2.5
  9
$WORLDVIEW
 70
     1
  9
$SHADEDGE
 70
     3
  9
$SHADEDIF
 70
    70
  9
$TILEMODE
 70
     1
  9
$MAXACTVP
 70
    64
  9
$PINSBASE
 10
0.0
 20
0.0
 30
0.0
  9
$PLIMCHECK
 70
     0
  9
$PEXTMIN
 10
0.0
 20
0.0
 30
0.0
  9
$PEXTMAX
 10
0.0
 20
0.0
 30
0.0
  9
$PLIMMIN
 10
0.0
 20
0.0
  9
$PLIMMAX
 10
12.0
 20
9.0
  9
$UNITMODE
 70
     0
  9
$VISRETAIN
 70
     1
  9
$PLINEGEN
 70
     0
  9
$PSLTSCALE
 70
     1
  9
$TREEDEPTH
 70
  3020
  9
$CMLSTYLE
  2
Standard
  9
$CMLJUST
 70
     0
  9
$CMLSCALE
 40
1.0
  9
$PROXYGRAPHICS
 70
     1
  9
$MEASUREMENT
 70
     0
  9
$CELWEIGHT
370
    -1
  9
$ENDCAPS
280
     0
  9
$JOINSTYLE
280
     0
  9
$LWDISPLAY
290
     0
  9
$INSUNITS
 70
     4
  9
$HYPERLINKBASE
  1

  9
$STYLESHEET
  1
MONOCHROME.CTB
  9
$XEDIT
290
     1
  9
$CEPSNTYPE
380
     0
  9
$PSTYLEMODE
290
     1
  9
$FINGERPRINTGUID
  2
{35BD88C0-9548-11D2-9A29-0060089B3A3F}
  9
$VERSIONGUID
  2
{A33FEA65-703B-4ED0-B32D-9445FFD08A95}
  9
$EXTNAMES
290
     1
  9
$PSVPSCALE
 40
0.0
  9
$OLESTARTUP
290
     0
  0
ENDSEC
  0
SECTION
  2
CLASSES
  0
CLASS
  1
ACDBDICTIONARYWDFLT
  2
AcDbDictionaryWithDefault
  3
ObjectDBX Classes
 90
        0
280
     0
281
     0
  0
CLASS
  1
ACDBPLACEHOLDER
  2
AcDbPlaceHolder
  3
ObjectDBX Classes
 90
        0
280
     0
281
     0
  0
CLASS
  1
LAYOUT
  2
AcDbLayout
  3
ObjectDBX Classes
 90
        0
280
     0
281
     0
  0
CLASS
  1
DICTIONARYVAR
  2
AcDbDictionaryVar
  3
ObjectDBX Classes
 90
        0
280
     0
281
     0
  0
CLASS
  1
SORTENTSTABLE
  2
AcDbSortentsTable
  3
ObjectDBX Classes
 90
        0
280
     0
281
     0
  0
CLASS
  1
DIMASSOC
  2
AcDbDimAssoc
  3
"AcDbDimAssoc|Product Desc:     AcDim ARX App For Dimension|Company:          Autodesk, Inc.|WEB Address:      www.autodesk.com"
 90
        0
280
     0
281
     0
  0
CLASS
  1
TABLESTYLE
  2
AcDbTableStyle
  3
ObjectDBX Classes
 90
     4095
280
     0
281
     0
  0
CLASS
  1
VLO-VL
  2
vlo_VL
  3
VL|AutoLISP based application
 90
      129
280
     0
281
     0
  0
CLASS
  1
MATERIAL
  2
AcDbMaterial
  3
ObjectDBX Classes
 90
     1153
280
     0
281
     0
  0
CLASS
  1
VISUALSTYLE
  2
AcDbVisualStyle
  3
ObjectDBX Classes
 90
     4095
280
     0
281
     0
  0
CLASS
  1
SCALE
  2
AcDbScale
  3
ObjectDBX Classes
 90
     1153
280
     0
281
     0
  0
CLASS
  1
MLEADERSTYLE
  2
AcDbMLeaderStyle
  3
ACDB_MLEADERSTYLE_CLASS
 90
     4095
280
     0
281
     0
  0
CLASS
  1
CELLSTYLEMAP
  2
AcDbCellStyleMap
  3
ObjectDBX Classes
 90
     1152
280
     0
281
     0
  0
ENDSEC
  0
SECTION
  2
TABLES
  0
TABLE
  2
VPORT
  5
8
330
0
100
AcDbSymbolTable
 70
     1
  0
VPORT
  5
CED6D
330
8
100
AcDbSymbolTableRecord
100
AcDbViewportTableRecord
  2
*Active
 70
     0
 10
0.0
 20
0.0
 11
1.0
 21
1.0
 12
102901.9095449049
 22
-168817.3645482447
 13
0.0
 23
0.0
 14
0.5
 24
0.5
 15
0.5
 25
0.5
 16
0.0
 26
0.0
 36
1.0
 17
0.0
 27
0.0
 37
0.0
 40
534.0817912911879
 41
2.241676942046855
 42
50.0
 43
0.0
 44
0.0
 50
0.0
 51
0.0
 71
     0
 72
  1000
 73
     1
 74
     3
 75
     0
 76
     0
 77
     0
 78
     0
281
     0
 65
     1
110
0.0
120
0.0
130
0.0
111
1.0
121
0.0
131
0.0
112
0.0
122
1.0
132
0.0
 79
     0
146
0.0
  0
ENDTAB
  0
TABLE
  2
LTYPE
  5
5
330
0
100
AcDbSymbolTable
 70
     2
  0
LTYPE
  5
14
330
5
100
AcDbSymbolTableRecord
100
AcDbLinetypeTableRecord
  2
ByBlock
 70
     0
  3

 72
    65
 73
     0
 40
0.0
  0
LTYPE
  5
15
330
5
100
AcDbSymbolTableRecord
100
AcDbLinetypeTableRecord
  2
ByLayer
 70
     0
  3

 72
    65
 73
     0
 40
0.0
  0
LTYPE
  5
16
330
5
100
AcDbSymbolTableRecord
100
AcDbLinetypeTableRecord
  2
Continuous
 70
     0
  3
Solid line
 72
    65
 73
     0
 40
0.0
  0
LTYPE
  5
98
330
5
100
AcDbSymbolTableRecord
100
AcDbLinetypeTableRecord
  2
HIDDEN2
 70
     0
  3
Hidden (.5x) _ _ _ _ _ _ _ _ _ _ _ _ _ _ _ _ _
 72
    65
 73
     2
 40
4.762499999999998
 49
3.174999999999998
 74
     0
 49
-1.587499999999999
 74
     0
  0
ENDTAB
  0
TABLE
  2
LAYER
  5
2
102
{ACAD_XDICTIONARY
360
AB
102
}
330
0
100
AcDbSymbolTable
 70
     5
  0
LAYER
  5
10
102
{ACAD_XDICTIONARY
360
CF251
102
}
330
2
100
AcDbSymbolTableRecord
100
AcDbLayerTableRecord
  2
0
 70
     0
 62
     7
  6
Continuous
370
    18
390
F
  0
LAYER
  5
9D
102
{ACAD_XDICTIONARY
360
CF259
102
}
330
2
100
AcDbSymbolTableRecord
100
AcDbLayerTableRecord
  2
虚线
 70
     0
 62
     4
  6
HIDDEN2
370
     9
390
F
  0
LAYER
  5
9E
102
{ACAD_XDICTIONARY
360
CF25B
102
}
330
2
100
AcDbSymbolTableRecord
100
AcDbLayerTableRecord
  2
细实线
 70
     0
 62
     7
  6
Continuous
370
     9
390
F
  0
LAYER
  5
582
330
2
100
AcDbSymbolTableRecord
100
AcDbLayerTableRecord
  2
Defpoints
 70
     0
 62
     7
  6
Continuous
290
     0
370
     9
390
F
  0
LAYER
  5
16DF9
102
{ACAD_XDICTIONARY
360
CF25D
102
}
330
2
100
AcDbSymbolTableRecord
100
AcDbLayerTableRecord
  2
标注
 70
     0
 62
    80
  6
Continuous
370
     5
390
F
1001
AcAecLayerStandard
1000

1000

  0
ENDTAB
  0
TABLE
  2
STYLE
  5
3
330
0
100
AcDbSymbolTable
 70
     2
  0
STYLE
  5
11
330
3
100
AcDbSymbolTableRecord
100
AcDbTextStyleTableRecord
  2
Standard
 70
     0
 40
0.0
 41
1.0
 50
0.0
 71
     0
 42
0.2
  3
SimSun.ttf
  4

1001
ACAD
1000
SimSun
1071
    34306
  0
STYLE
  5
9D6ED
330
3
100
AcDbSymbolTableRecord
100
AcDbTextStyleTableRecord
  2
A301
 70
     0
 40
3.5
 41
0.75
 50
0.0
 71
     0
 42
0.0
  3
SimSun.ttf
  4

1001
ACAD
1000
SimSun
1071
    34306
  0
ENDTAB
  0
TABLE
  2
VIEW
  5
6
330
0
100
AcDbSymbolTable
 70
     0
  0
ENDTAB
  0
TABLE
  2
UCS
  5
7
330
0
100
AcDbSymbolTable
 70
     0
  0
ENDTAB
  0
TABLE
  2
APPID
  5
9
330
0
100
AcDbSymbolTable
 70
    17
  0
APPID
  5
12
330
9
100
AcDbSymbolTableRecord
100
AcDbRegAppTableRecord
  2
ACAD
 70
     0
  0
APPID
  5
A5
330
9
100
AcDbSymbolTableRecord
100
AcDbRegAppTableRecord
  2
AcAecLayerStandard
 70
     0
  0
APPID
  5
A6
330
9
100
AcDbSymbolTableRecord
100
AcDbRegAppTableRecord
  2
ACAD_DSTYLE_DIMEXT_LENGTH
 70
     0
  0
APPID
  5
A7
330
9
100
AcDbSymbolTableRecord
100
AcDbRegAppTableRecord
  2
ACAD_DSTYLE_DIMEXT_ENABLED
 70
     0
  0
APPID
  5
A8
330
9
100
AcDbSymbolTableRecord
100
AcDbRegAppTableRecord
  2
ACAD_DSTYLE_DIMJOGGED_JOGANGLE_SYMBOL
 70
     0
  0
APPID
  5
A9
330
9
100
AcDbSymbolTableRecord
100
AcDbRegAppTableRecord
  2
ACAD_DSTYLE_DIMARC_LENGTH_SYMBOL
 70
     0
  0
APPID
  5
AA
330
9
100
AcDbSymbolTableRecord
100
AcDbRegAppTableRecord
  2
ACAD_PSEXT
 70
     0
  0
APPID
  5
173
330
9
100
AcDbSymbolTableRecord
100
AcDbRegAppTableRecord
  2
DCO15
 70
     0
  0
APPID
  5
11D5
330
9
100
AcDbSymbolTableRecord
100
AcDbRegAppTableRecord
  2
ACAD_EXEMPT_FROM_CAD_STANDARDS
 70
     0
  0
APPID
  5
B456
330
9
100
AcDbSymbolTableRecord
100
AcDbRegAppTableRecord
  2
ACAD_DSTYLE_DIMTEXT_FILL
 70
     0
  0
APPID
  5
B459
330
9
100
AcDbSymbolTableRecord
100
AcDbRegAppTableRecord
  2
ACAD_DSTYLE_DIM_LINETYPE
 70
     0
  0
APPID
  5
B45A
330
9
100
AcDbSymbolTableRecord
100
AcDbRegAppTableRecord
  2
ACAD_DSTYLE_DIM_EXT1_LINETYPE
 70
     0
  0
APPID
  5
B45B
330
9
100
AcDbSymbolTableRecord
100
AcDbRegAppTableRecord
  2
ACAD_DSTYLE_DIM_EXT2_LINETYPE
 70
     0
  0
APPID
  5
CEDBC
330
9
100
AcDbSymbolTableRecord
100
AcDbRegAppTableRecord
  2
ACAD_MLEADERVER
 70
     0
  0
APPID
  5
CF35C
330
9
100
AcDbSymbolTableRecord
100
AcDbRegAppTableRecord
  2
ACAD_DSTYLE_DIMRADIAL_EXTENSION
 70
     0
  0
APPID
  5
CF43A
330
9
100
AcDbSymbolTableRecord
100
AcDbRegAppTableRecord
  2
ACAD_DSTYLE_DIMJAG
 70
     0
  0
APPID
  5
CF43B
330
9
100
AcDbSymbolTableRecord
100
AcDbRegAppTableRecord
  2
ACAD_DSTYLE_DIMTALN
 70
     0
  0
ENDTAB
  0
TABLE
  2
DIMSTYLE
  5
A
330
0
100
AcDbSymbolTable
 70
     2
100
AcDbDimStyleTable
 71
     2
340
3BDB5
340
27
  0
DIMSTYLE
105
27
330
A
100
AcDbSymbolTableRecord
100
AcDbDimStyleTableRecord
  2
Standard
 70
     0
 41
20.0
 42
25.0
 44
8.0
 73
     0
 74
     0
 78
     8
 79
     2
140
20.0
147
5.0
172
     1
176
     3
177
     3
178
     3
179
     1
271
     1
272
     1
278
    44
340
11
1001
ACAD_DSTYLE_DIMJOGGED_JOGANGLE_SYMBOL
1070
   384
1040
0.7853981633974483
1001
ACAD_DSTYLE_DIMEXT_LENGTH
1070
   378
1040
8.0
  0
DIMSTYLE
105
3BDB5
102
{ACAD_REACTORS
330
D5775
330
D5778
330
D577B
330
D577E
330
D5792
330
D5795
330
D579B
330
D579C
330
D5999
330
D5A0E
330
D5A28
330
D5A6C
330
D5A7A
330
D5AE4
102
}
330
A
100
AcDbSymbolTableRecord
100
AcDbDimStyleTableRecord
  2
副本Standard
 70
     0
  4
"
 41
16.0
 42
7.0
 44
7.0
 73
     0
 74
     0
 78
     8
 79
     2
140
20.0
141
2.5
143
0.03937
147
1.0
171
     3
172
     1
176
   256
177
   256
178
   256
179
     1
271
     1
272
     1
273
     7
274
     3
278
    44
340
11
1001
ACAD_DSTYLE_DIMJAG
1070
   388
1040
1.5
1001
ACAD_DSTYLE_DIMTALN
1070
   392
1070
     0
  0
ENDTAB
  0
TABLE
  2
BLOCK_RECORD
  5
1
330
0
100
AcDbSymbolTable
 70
    15
  0
BLOCK_RECORD
  5
1F
102
{ACAD_XDICTIONARY
360
118B
102
}
330
1
100
AcDbSymbolTableRecord
100
AcDbBlockTableRecord
  2
*Model_Space
340
22
  0
BLOCK_RECORD
  5
73
330
1
100
AcDbSymbolTableRecord
100
AcDbBlockTableRecord
  2
*Paper_Space
340
74
  0
BLOCK_RECORD
  5
78
330
1
100
AcDbSymbolTableRecord
100
AcDbBlockTableRecord
  2
*Paper_Space0
340
79
  0
BLOCK_RECORD
  5
D57A9
330
1
100
AcDbSymbolTableRecord
100
AcDbBlockTableRecord
  2
*D1
340
0
  0
BLOCK_RECORD
  5
D57E2
330
1
100
AcDbSymbolTableRecord
100
AcDbBlockTableRecord
  2
*D2
340
0
  0
BLOCK_RECORD
  5
D57EF
330
1
100
AcDbSymbolTableRecord
100
AcDbBlockTableRecord
  2
*D3
340
0
  0
BLOCK_RECORD
  5
D57FC
330
1
100
AcDbSymbolTableRecord
100
AcDbBlockTableRecord
  2
*D4
340
0
  0
BLOCK_RECORD
  5
D5809
330
1
100
AcDbSymbolTableRecord
100
AcDbBlockTableRecord
  2
*D5
340
0
  0
BLOCK_RECORD
  5
D583E
330
1
100
AcDbSymbolTableRecord
100
AcDbBlockTableRecord
  2
*D6
340
0
  0
BLOCK_RECORD
  5
D584C
330
1
100
AcDbSymbolTableRecord
100
AcDbBlockTableRecord
  2
*D7
340
0
  0
BLOCK_RECORD
  5
D586D
330
1
100
AcDbSymbolTableRecord
100
AcDbBlockTableRecord
  2
*D8
340
0
  0
BLOCK_RECORD
  5
D599A
330
1
100
AcDbSymbolTableRecord
100
AcDbBlockTableRecord
  2
*D9
340
0
  0
BLOCK_RECORD
  5
D5A0F
330
1
100
AcDbSymbolTableRecord
100
AcDbBlockTableRecord
  2
*D10
340
0
  0
BLOCK_RECORD
  5
D5A29
330
1
100
AcDbSymbolTableRecord
100
AcDbBlockTableRecord
  2
*D11
340
0
  0
BLOCK_RECORD
  5
D5A6D
330
1
100
AcDbSymbolTableRecord
100
AcDbBlockTableRecord
  2
*D12
340
0
  0
BLOCK_RECORD
  5
D5A7B
330
1
100
AcDbSymbolTableRecord
100
AcDbBlockTableRecord
  2
*D13
340
0
  0
BLOCK_RECORD
  5
D5AE5
330
1
100
AcDbSymbolTableRecord
100
AcDbBlockTableRecord
  2
*D14
340
0
  0
ENDTAB
  0
ENDSEC
  0
SECTION
  2
BLOCKS
  0
BLOCK
  5
20
330
1F
100
AcDbEntity
  8
0
100
AcDbBlockBegin
  2
*Model_Space
 70
     0
 10
0.0
 20
0.0
 30
0.0
  3
*Model_Space
  1

  0
ENDBLK
  5
21
330
1F
100
AcDbEntity
  8
0
100
AcDbBlockEnd
  0
BLOCK
  5
75
330
73
100
AcDbEntity
 67
     1
  8
0
100
AcDbBlockBegin
  2
*Paper_Space
 70
     0
 10
0.0
 20
0.0
 30
0.0
  3
*Paper_Space
  1

  0
ENDBLK
  5
76
330
73
100
AcDbEntity
 67
     1
  8
0
100
AcDbBlockEnd
  0
BLOCK
  5
7A
330
78
100
AcDbEntity
 67
     1
  8
0
100
AcDbBlockBegin
  2
*Paper_Space0
 70
     0
 10
0.0
 20
0.0
 30
0.0
  3
*Paper_Space0
  1

  0
ENDBLK
  5
7B
330
78
100
AcDbEntity
 67
     1
  8
0
100
AcDbBlockEnd
  0
BLOCK
  5
D57AA
330
D57A9
100
AcDbEntity
  8
0
 48
5.0
100
AcDbBlockBegin
  2
*D1
 70
     1
 10
0.0
 20
0.0
 30
0.0
  3
*D1
  1

  0
LINE
  5
D58D5
330
D57A9
100
AcDbEntity
  8
标注
 48
5.0
370
    -2
100
AcDbLine
 10
102553.0939146939
 20
-168633.7114793023
 30
0.0
 11
102545.6921232143
 21
-168626.9873821218
 31
0.0
  0
MTEXT
  5
D58D6
330
D57A9
100
AcDbEntity
  8
标注
 48
5.0
100
AcDbMText
 10
102571.8697924137
 20
-168650.7682724836
 30
0.0
 40
12.0
 41
0.0
 71
     5
 72
     1
  1
\A1;4-R100
 11
0.7401791479555772
 21
-0.6724097180527331
 31
0.0
 73
     1
 44
1.0
1001
ACAD
1000
MTEXTBEGIN
1070
    73
1070
     1
1070
    44
1040
1.0
1070
    74
1070
     0
1000
MTEXTEND
  0
SOLID
  5
D58D7
330
D57A9
100
AcDbEntity
  8
标注
 48
5.0
100
AcDbTrace
 10
102546.8128060777
 20
-168625.7537502085
 30
0.0
 11
102544.5714403509
 21
-168628.221014035
 31
0.0
 12
102538.2903317347
 22
-168620.2632849413
 32
0.0
 13
102538.2903317347
 23
-168620.2632849413
 33
0.0
  0
POINT
  5
D58D8
330
D57A9
100
AcDbEntity
  8
Defpoints
 62
     0
 48
5.0
100
AcDbPoint
 10
102538.2903317347
 20
-168620.2632849413
 30
0.0
  0
POINT
  5
D58D9
330
D57A9
100
AcDbEntity
  8
Defpoints
 62
     0
 48
5.0
100
AcDbPoint
 10
102612.3082465303
 20
-168687.5042567465
 30
0.0
  0
ENDBLK
  5
D57AB
330
D57A9
100
AcDbEntity
  8
0
 48
5.0
100
AcDbBlockEnd
  0
BLOCK
  5
D57E3
330
D57E2
100
AcDbEntity
  8
0
 48
5.0
100
AcDbBlockBegin
  2
*D2
 70
     1
 10
0.0
 20
0.0
 30
0.0
  3
*D2
  1

  0
LINE
  5
D5ABC
330
D57E2
100
AcDbEntity
  8
标注
 48
5.0
370
    -2
100
AcDbLine
 10
103227.3082465303
 20
-168904.5042567465
 30
0.0
 11
103227.3082465303
 21
-169077.3514029872
 31
0.0
  0
LINE
  5
D5ABD
330
D57E2
100
AcDbEntity
  8
标注
 48
5.0
370
    -2
100
AcDbLine
 10
102508.3082465303
 20
-168904.5042567465
 30
0.0
 11
102508.3082465303
 21
-169077.3514029872
 31
0.0
  0
LINE
  5
D5ABE
330
D57E2
100
AcDbEntity
  8
标注
 48
5.0
370
    -2
100
AcDbLine
 10
103217.3082465303
 20
-169070.3514029872
 30
0.0
 11
102880.3408527136
 21
-169070.3514029872
 31
0.0
  0
LINE
  5
D5ABF
330
D57E2
100
AcDbEntity
  8
标注
 48
5.0
370
    -2
100
AcDbLine
 10
102518.3082465303
 20
-169070.3514029872
 30
0.0
 11
102855.7408527136
 21
-169070.3514029872
 31
0.0
  0
SOLID
  5
D5AC0
330
D57E2
100
AcDbEntity
  8
标注
 48
5.0
100
AcDbTrace
 10
103217.3082465303
 20
-169068.6847363206
 30
0.0
 11
103217.3082465303
 21
-169072.0180696539
 31
0.0
 12
103227.3082465303
 22
-169070.3514029872
 32
0.0
 13
103227.3082465303
 23
-169070.3514029872
 33
0.0
  0
SOLID
  5
D5AC1
330
D57E2
100
AcDbEntity
  8
标注
 48
5.0
100
AcDbTrace
 10
102518.3082465303
 20
-169068.6847363206
 30
0.0
 11
102518.3082465303
 21
-169072.0180696539
 31
0.0
 12
102508.3082465303
 22
-169070.3514029872
 32
0.0
 13
102508.3082465303
 23
-169070.3514029872
 33
0.0
  0
MTEXT
  5
D5AC2
330
D57E2
100
AcDbEntity
  8
标注
 48
5.0
100
AcDbMText
 10
102868.0408527136
 20
-169070.3514029872
 30
0.0
 40
12.0
 41
0.0
 71
     5
 72
     1
  1
\A1;719
 73
     1
 44
1.0
1001
ACAD
1000
MTEXTBEGIN
1070
    73
1070
     1
1070
    44
1040
1.0
1070
    74
1070
     0
1000
MTEXTEND
  0
POINT
  5
D5AC3
330
D57E2
100
AcDbEntity
  8
Defpoints
 62
     0
 48
5.0
100
AcDbPoint
 10
103227.3082465303
 20
-168897.5042567465
 30
0.0
  0
POINT
  5
D5AC4
330
D57E2
100
AcDbEntity
  8
Defpoints
 62
     0
 48
5.0
100
AcDbPoint
 10
102508.3082465303
 20
-168897.5042567465
 30
0.0
  0
POINT
  5
D5AC5
330
D57E2
100
AcDbEntity
  8
Defpoints
 62
     0
 48
5.0
100
AcDbPoint
 10
102508.3082465303
 20
-169070.3514029872
 30
0.0
  0
ENDBLK
  5
D57E4
330
D57E2
100
AcDbEntity
  8
0
 48
5.0
100
AcDbBlockEnd
  0
BLOCK
  5
D57F0
330
D57EF
100
AcDbEntity
  8
0
 48
5.0
100
AcDbBlockBegin
  2
*D3
 70
     1
 10
0.0
 20
0.0
 30
0.0
  3
*D3
  1

  0
LINE
  5
D5ADA
330
D57EF
100
AcDbEntity
  8
标注
 48
5.0
370
    -2
100
AcDbLine
 10
103223.3082465303
 20
-168904.5042567465
 30
0.0
 11
103223.3082465303
 21
-169050.067129482
 31
0.0
  0
LINE
  5
D5ADB
330
D57EF
100
AcDbEntity
  8
标注
 48
5.0
370
    -2
100
AcDbLine
 10
102512.3082465303
 20
-168904.5042567465
 30
0.0
 11
102512.3082465303
 21
-169050.067129482
 31
0.0
  0
LINE
  5
D5ADC
330
D57EF
100
AcDbEntity
  8
标注
 48
5.0
370
    -2
100
AcDbLine
 10
103213.3082465303
 20
-169043.067129482
 30
0.0
 11
102880.2118968844
 21
-169043.067129482
 31
0.0
  0
LINE
  5
D5ADD
330
D57EF
100
AcDbEntity
  8
标注
 48
5.0
370
    -2
100
AcDbLine
 10
102522.3082465303
 20
-169043.067129482
 30
0.0
 11
102856.4118968844
 21
-169043.067129482
 31
0.0
  0
SOLID
  5
D5ADE
330
D57EF
100
AcDbEntity
  8
标注
 48
5.0
100
AcDbTrace
 10
103213.3082465303
 20
-169041.4004628153
 30
0.0
 11
103213.3082465303
 21
-169044.7337961487
 31
0.0
 12
103223.3082465303
 22
-169043.067129482
 32
0.0
 13
103223.3082465303
 23
-169043.067129482
 33
0.0
  0
SOLID
  5
D5ADF
330
D57EF
100
AcDbEntity
  8
标注
 48
5.0
100
AcDbTrace
 10
102522.3082465303
 20
-169041.4004628153
 30
0.0
 11
102522.3082465303
 21
-169044.7337961487
 31
0.0
 12
102512.3082465303
 22
-169043.067129482
 32
0.0
 13
102512.3082465303
 23
-169043.067129482
 33
0.0
  0
MTEXT
  5
D5AE0
330
D57EF
100
AcDbEntity
  8
标注
 48
5.0
100
AcDbMText
 10
102868.3118968844
 20
-169043.067129482
 30
0.0
 40
12.0
 41
0.0
 71
     5
 72
     1
  1
\A1;711
 73
     1
 44
1.0
1001
ACAD
1000
MTEXTBEGIN
1070
    73
1070
     1
1070
    44
1040
1.0
1070
    74
1070
     0
1000
MTEXTEND
  0
POINT
  5
D5AE1
330
D57EF
100
AcDbEntity
  8
Defpoints
 62
     0
 48
5.0
100
AcDbPoint
 10
103223.3082465303
 20
-168897.5042567465
 30
0.0
  0
POINT
  5
D5AE2
330
D57EF
100
AcDbEntity
  8
Defpoints
 62
     0
 48
5.0
100
AcDbPoint
 10
102512.3082465303
 20
-168897.5042567465
 30
0.0
  0
POINT
  5
D5AE3
330
D57EF
100
AcDbEntity
  8
Defpoints
 62
     0
 48
5.0
100
AcDbPoint
 10
102512.3082465303
 20
-169043.067129482
 30
0.0
  0
ENDBLK
  5
D57F1
330
D57EF
100
AcDbEntity
  8
0
 48
5.0
100
AcDbBlockEnd
  0
BLOCK
  5
D57FD
330
D57FC
100
AcDbEntity
  8
0
 48
5.0
100
AcDbBlockBegin
  2
*D4
 70
     1
 10
0.0
 20
0.0
 30
0.0
  3
*D4
  1

  0
LINE
  5
D5B58
330
D57FC
100
AcDbEntity
  8
标注
 48
5.0
370
    -2
100
AcDbLine
 10
103130.3082465303
 20
-168583.5042567465
 30
0.0
 11
103310.3758776822
 21
-168583.5042567465
 31
0.0
  0
LINE
  5
D5B59
330
D57FC
100
AcDbEntity
  8
标注
 48
5.0
370
    -2
100
AcDbLine
 10
103130.3082465303
 20
-169001.5042567465
 30
0.0
 11
103310.3758776822
 21
-169001.5042567465
 31
0.0
  0
LINE
  5
D5B5A
330
D57FC
100
AcDbEntity
  8
标注
 48
5.0
370
    -2
100
AcDbLine
 10
103303.3758776822
 20
-168593.5042567465
 30
0.0
 11
103303.3758776822
 21
-168780.0042567465
 31
0.0
  0
LINE
  5
D5B5B
330
D57FC
100
AcDbEntity
  8
标注
 48
5.0
370
    -2
100
AcDbLine
 10
103303.3758776822
 20
-168991.5042567465
 30
0.0
 11
103303.3758776822
 21
-168805.0042567465
 31
0.0
  0
SOLID
  5
D5B5C
330
D57FC
100
AcDbEntity
  8
标注
 48
5.0
100
AcDbTrace
 10
103301.7092110155
 20
-168593.5042567465
 30
0.0
 11
103305.0425443488
 21
-168593.5042567465
 31
0.0
 12
103303.3758776822
 22
-168583.5042567465
 32
0.0
 13
103303.3758776822
 23
-168583.5042567465
 33
0.0
  0
SOLID
  5
D5B5D
330
D57FC
100
AcDbEntity
  8
标注
 48
5.0
100
AcDbTrace
 10
103301.7092110155
 20
-168991.5042567465
 30
0.0
 11
103305.0425443488
 21
-168991.5042567465
 31
0.0
 12
103303.3758776822
 22
-169001.5042567465
 32
0.0
 13
103303.3758776822
 23
-169001.5042567465
 33
0.0
  0
MTEXT
  5
D5B5E
330
D57FC
100
AcDbEntity
  8
标注
 48
5.0
100
AcDbMText
 10
103303.3758776822
 20
-168792.5042567465
 30
0.0
 40
12.0
 41
0.0
 71
     5
 72
     1
  1
\A1;418
 11
0.0000000000000001
 21
1.0
 31
0.0
 73
     1
 44
1.0
1001
ACAD
1000
MTEXTBEGIN
1070
    73
1070
     1
1070
    44
1040
1.0
1070
    74
1070
     0
1000
MTEXTEND
  0
POINT
  5
D5B5F
330
D57FC
100
AcDbEntity
  8
Defpoints
 62
     0
 48
5.0
100
AcDbPoint
 10
103123.3082465303
 20
-168583.5042567465
 30
0.0
  0
POINT
  5
D5B60
330
D57FC
100
AcDbEntity
  8
Defpoints
 62
     0
 48
5.0
100
AcDbPoint
 10
103123.3082465303
 20
-169001.5042567465
 30
0.0
  0
POINT
  5
D5B61
330
D57FC
100
AcDbEntity
  8
Defpoints
 62
     0
 48
5.0
100
AcDbPoint
 10
103303.3758776822
 20
-169001.5042567465
 30
0.0
  0
ENDBLK
  5
D57FE
330
D57FC
100
AcDbEntity
  8
0
 48
5.0
100
AcDbBlockEnd
  0
BLOCK
  5
D580A
330
D5809
100
AcDbEntity
  8
0
 48
5.0
100
AcDbBlockBegin
  2
*D5
 70
     1
 10
0.0
 20
0.0
 30
0.0
  3
*D5
  1

  0
LINE
  5
D5B4E
330
D5809
100
AcDbEntity
  8
标注
 48
5.0
370
    -2
100
AcDbLine
 10
103130.3082465303
 20
-168587.5042567465
 30
0.0
 11
103271.7847452685
 21
-168587.5042567465
 31
0.0
  0
LINE
  5
D5B4F
330
D5809
100
AcDbEntity
  8
标注
 48
5.0
370
    -2
100
AcDbLine
 10
103130.3082465303
 20
-168997.5042567465
 30
0.0
 11
103271.7847452685
 21
-168997.5042567465
 31
0.0
  0
LINE
  5
D5B50
330
D5809
100
AcDbEntity
  8
标注
 48
5.0
370
    -2
100
AcDbLine
 10
103264.7847452685
 20
-168597.5042567465
 30
0.0
 11
103264.7847452685
 21
-168780.5808382368
 31
0.0
  0
LINE
  5
D5B51
330
D5809
100
AcDbEntity
  8
标注
 48
5.0
370
    -2
100
AcDbLine
 10
103264.7847452685
 20
-168987.5042567465
 30
0.0
 11
103264.7847452685
 21
-168805.7141715702
 31
0.0
  0
SOLID
  5
D5B52
330
D5809
100
AcDbEntity
  8
标注
 48
5.0
100
AcDbTrace
 10
103263.1180786019
 20
-168597.5042567465
 30
0.0
 11
103266.4514119352
 21
-168597.5042567465
 31
0.0
 12
103264.7847452685
 22
-168587.5042567465
 32
0.0
 13
103264.7847452685
 23
-168587.5042567465
 33
0.0
  0
SOLID
  5
D5B53
330
D5809
100
AcDbEntity
  8
标注
 48
5.0
100
AcDbTrace
 10
103263.1180786019
 20
-168987.5042567465
 30
0.0
 11
103266.4514119352
 21
-168987.5042567465
 31
0.0
 12
103264.7847452685
 22
-168997.5042567465
 32
0.0
 13
103264.7847452685
 23
-168997.5042567465
 33
0.0
  0
MTEXT
  5
D5B54
330
D5809
100
AcDbEntity
  8
标注
 48
5.0
100
AcDbMText
 10
103264.7847452686
 20
-168793.1475049035
 30
0.0
 40
12.0
 41
0.0
 71
     5
 72
     1
  1
\A1;410
 11
0.0000000000000001
 21
1.0
 31
0.0
 73
     1
 44
1.0
1001
ACAD
1000
MTEXTBEGIN
1070
    73
1070
     1
1070
    44
1040
1.0
1070
    74
1070
     0
1000
MTEXTEND
  0
POINT
  5
D5B55
330
D5809
100
AcDbEntity
  8
Defpoints
 62
     0
 48
5.0
100
AcDbPoint
 10
103123.3082465303
 20
-168587.5042567465
 30
0.0
  0
POINT
  5
D5B56
330
D5809
100
AcDbEntity
  8
Defpoints
 62
     0
 48
5.0
100
AcDbPoint
 10
103123.3082465303
 20
-168997.5042567465
 30
0.0
  0
POINT
  5
D5B57
330
D5809
100
AcDbEntity
  8
Defpoints
 62
     0
 48
5.0
100
AcDbPoint
 10
103264.7847452685
 20
-168997.5042567465
 30
0.0
  0
ENDBLK
  5
D580B
330
D5809
100
AcDbEntity
  8
0
 48
5.0
100
AcDbBlockEnd
  0
BLOCK
  5
D583F
330
D583E
100
AcDbEntity
  8
0
 48
5.0
100
AcDbBlockBegin
  2
*D6
 70
     1
 10
0.0
 20
0.0
 30
0.0
  3
*D6
  1

  0
LINE
  5
D5A02
330
D583E
100
AcDbEntity
  8
标注
 48
5.0
370
    -2
100
AcDbLine
 10
102508.3082465303
 20
-168785.5042567465
 30
0.0
 11
102508.3082465303
 21
-168755.6797053705
 31
0.0
  0
LINE
  5
D5A03
330
D583E
100
AcDbEntity
  8
标注
 48
5.0
370
    -2
100
AcDbLine
 10
102526.3082465303
 20
-168785.5042567465
 30
0.0
 11
102526.3082465303
 21
-168755.6797053705
 31
0.0
  0
LINE
  5
D5A04
330
D583E
100
AcDbEntity
  8
标注
 48
5.0
370
    -2
100
AcDbLine
 10
102498.3082465303
 20
-168762.6797053705
 30
0.0
 11
102488.3082465303
 21
-168762.6797053705
 31
0.0
  0
LINE
  5
D5A05
330
D583E
100
AcDbEntity
  8
标注
 48
5.0
370
    -2
100
AcDbLine
 10
102536.3082465303
 20
-168762.6797053705
 30
0.0
 11
102546.3082465303
 21
-168762.6797053705
 31
0.0
  0
LINE
  5
D5A06
330
D583E
100
AcDbEntity
  8
标注
 48
5.0
370
    -2
100
AcDbLine
 10
102508.3082465303
 20
-168762.6797053705
 30
0.0
 11
102509.7415798637
 21
-168762.6797053705
 31
0.0
  0
LINE
  5
D5A07
330
D583E
100
AcDbEntity
  8
标注
 48
5.0
370
    -2
100
AcDbLine
 10
102526.3082465303
 20
-168762.6797053705
 30
0.0
 11
102524.874913197
 21
-168762.6797053705
 31
0.0
  0
SOLID
  5
D5A08
330
D583E
100
AcDbEntity
  8
标注
 48
5.0
100
AcDbTrace
 10
102498.3082465303
 20
-168761.0130387038
 30
0.0
 11
102498.3082465303
 21
-168764.3463720372
 31
0.0
 12
102508.3082465303
 22
-168762.6797053705
 32
0.0
 13
102508.3082465303
 23
-168762.6797053705
 33
0.0
  0
SOLID
  5
D5A09
330
D583E
100
AcDbEntity
  8
标注
 48
5.0
100
AcDbTrace
 10
102536.3082465303
 20
-168761.0130387038
 30
0.0
 11
102536.3082465303
 21
-168764.3463720372
 31
0.0
 12
102526.3082465303
 22
-168762.6797053705
 32
0.0
 13
102526.3082465303
 23
-168762.6797053705
 33
0.0
  0
MTEXT
  5
D5A0A
330
D583E
100
AcDbEntity
  8
标注
 48
5.0
100
AcDbMText
 10
102517.3082465303
 20
-168762.6797053705
 30
0.0
 40
12.0
 41
0.0
 71
     5
 72
     1
  1
\A1;18
 73
     1
 44
1.0
1001
ACAD
1000
MTEXTBEGIN
1070
    73
1070
     1
1070
    44
1040
1.0
1070
    74
1070
     0
1000
MTEXTEND
  0
POINT
  5
D5A0B
330
D583E
100
AcDbEntity
  8
Defpoints
 62
     0
 48
5.0
100
AcDbPoint
 10
102508.3082465303
 20
-168792.5042567465
 30
0.0
  0
POINT
  5
D5A0C
330
D583E
100
AcDbEntity
  8
Defpoints
 62
     0
 48
5.0
100
AcDbPoint
 10
102526.3082465303
 20
-168792.5042567465
 30
0.0
  0
POINT
  5
D5A0D
330
D583E
100
AcDbEntity
  8
Defpoints
 62
     0
 48
5.0
100
AcDbPoint
 10
102526.3082465303
 20
-168762.6797053705
 30
0.0
  0
ENDBLK
  5
D5840
330
D583E
100
AcDbEntity
  8
0
 48
5.0
100
AcDbBlockEnd
  0
BLOCK
  5
D584D
330
D584C
100
AcDbEntity
  8
0
 48
5.0
100
AcDbBlockBegin
  2
*D7
 70
     1
 10
0.0
 20
0.0
 30
0.0
  3
*D7
  1

  0
LINE
  5
D5A60
330
D584C
100
AcDbEntity
  8
标注
 48
5.0
370
    -2
100
AcDbLine
 10
102874.8082465303
 20
-169001.5042567465
 30
0.0
 11
102894.8394344227
 21
-169001.5042567465
 31
0.0
  0
LINE
  5
D5A61
330
D584C
100
AcDbEntity
  8
标注
 48
5.0
370
    -2
100
AcDbLine
 10
102874.8082465303
 20
-168983.5042567465
 30
0.0
 11
102894.8394344227
 21
-168983.5042567465
 31
0.0
  0
LINE
  5
D5A62
330
D584C
100
AcDbEntity
  8
标注
 48
5.0
370
    -2
100
AcDbLine
 10
102887.8394344227
 20
-169011.5042567465
 30
0.0
 11
102887.8394344227
 21
-169021.5042567465
 31
0.0
  0
LINE
  5
D5A63
330
D584C
100
AcDbEntity
  8
标注
 48
5.0
370
    -2
100
AcDbLine
 10
102887.8394344227
 20
-168973.5042567465
 30
0.0
 11
102887.8394344227
 21
-168963.5042567465
 31
0.0
  0
LINE
  5
D5A64
330
D584C
100
AcDbEntity
  8
标注
 48
5.0
370
    -2
100
AcDbLine
 10
102887.8394344227
 20
-169001.5042567465
 30
0.0
 11
102887.8394344227
 21
-169000.0709234132
 31
0.0
  0
LINE
  5
D5A65
330
D584C
100
AcDbEntity
  8
标注
 48
5.0
370
    -2
100
AcDbLine
 10
102887.8394344227
 20
-168983.5042567465
 30
0.0
 11
102887.8394344227
 21
-168984.9375900798
 31
0.0
  0
SOLID
  5
D5A66
330
D584C
100
AcDbEntity
  8
标注
 48
5.0
100
AcDbTrace
 10
102886.172767756
 20
-169011.5042567465
 30
0.0
 11
102889.5061010894
 21
-169011.5042567465
 31
0.0
 12
102887.8394344227
 22
-169001.5042567465
 32
0.0
 13
102887.8394344227
 23
-169001.5042567465
 33
0.0
  0
SOLID
  5
D5A67
330
D584C
100
AcDbEntity
  8
标注
 48
5.0
100
AcDbTrace
 10
102886.172767756
 20
-168973.5042567465
 30
0.0
 11
102889.5061010894
 21
-168973.5042567465
 31
0.0
 12
102887.8394344227
 22
-168983.5042567465
 32
0.0
 13
102887.8394344227
 23
-168983.5042567465
 33
0.0
  0
MTEXT
  5
D5A68
330
D584C
100
AcDbEntity
  8
标注
 48
5.0
100
AcDbMText
 10
102887.8394344227
 20
-168992.5042567464
 30
0.0
 40
12.0
 41
0.0
 71
     5
 72
     1
  1
\A1;18
 11
0.0000000000000001
 21
1.0
 31
0.0
 73
     1
 44
1.0
1001
ACAD
1000
MTEXTBEGIN
1070
    73
1070
     1
1070
    44
1040
1.0
1070
    74
1070
     0
1000
MTEXTEND
  0
POINT
  5
D5A69
330
D584C
100
AcDbEntity
  8
Defpoints
 62
     0
 48
5.0
100
AcDbPoint
 10
102867.8082465303
 20
-169001.5042567465
 30
0.0
  0
POINT
  5
D5A6A
330
D584C
100
AcDbEntity
  8
Defpoints
 62
     0
 48
5.0
100
AcDbPoint
 10
102867.8082465303
 20
-168983.5042567465
 30
0.0
  0
POINT
  5
D5A6B
330
D584C
100
AcDbEntity
  8
Defpoints
 62
     0
 48
5.0
100
AcDbPoint
 10
102887.8394344227
 20
-168983.5042567465
 30
0.0
  0
ENDBLK
  5
D584E
330
D584C
100
AcDbEntity
  8
0
 48
5.0
100
AcDbBlockEnd
  0
BLOCK
  5
D586E
330
D586D
100
AcDbEntity
  8
0
 48
5.0
100
AcDbBlockBegin
  2
*D8
 70
     1
 10
0.0
 20
0.0
 30
0.0
  3
*D8
  1

  0
LINE
  5
D5A4C
330
D586D
100
AcDbEntity
  8
标注
 48
5.0
370
    -2
100
AcDbLine
 10
102851.2861658909
 20
-168776.5036051551
 30
0.0
 11
102858.4696792124
 21
-168783.4604101948
 31
0.0
  0
LINE
  5
D5A4D
330
D586D
100
AcDbEntity
  8
标注
 48
5.0
370
    -2
100
AcDbLine
 10
102877.1468138482
 20
-168801.5481032981
 30
0.0
 11
102884.3303271697
 21
-168808.5049083378
 31
0.0
  0
MTEXT
  5
D5A4E
102
{ACAD_XDICTIONARY
360
D5B6E
102
}
330
D586D
100
AcDbEntity
  8
标注
 48
5.0
100
AcDbMText
 10
102836.5274416841
 20
-168762.2106593016
 30
0.0
 40
12.0
 41
0.0
 71
     5
 72
     1
  1
\A1;{\fGulim|b0|i0|c129|p34;5-\U+22056}
 11
0.7183513321452906
 21
-0.6956805039708147
 31
0.0
 73
     1
 44
1.0
1001
ACAD
1000
MTEXTBEGIN
1070
    73
1070
     1
1070
    44
1040
1.0
1070
    74
1070
     0
1000
MTEXTEND
  0
LINE
  5
D5A4F
330
D586D
100
AcDbEntity
  8
标注
 48
5.0
370
    -2
100
AcDbLine
 10
102869.9633005268
 20
-168794.5912982584
 30
0.0
 11
102865.6531925339
 21
-168790.4172152346
 31
0.0
  0
SOLID
  5
D5A50
330
D586D
100
AcDbEntity
  8
标注
 48
5.0
100
AcDbTrace
 10
102878.3062813548
 20
-168800.3508510779
 30
0.0
 11
102875.9873463416
 21
-168802.7453555184
 31
0.0
 12
102869.9633005268
 22
-168794.5912982584
 32
0.0
 13
102869.9633005268
 23
-168794.5912982584
 33
0.0
  0
SOLID
  5
D5A51
330
D586D
100
AcDbEntity
  8
标注
 48
5.0
100
AcDbTrace
 10
102859.629146719
 20
-168782.2631579746
 30
0.0
 11
102857.3102117058
 21
-168784.6576624151
 31
0.0
 12
102865.6531925339
 22
-168790.4172152346
 32
0.0
 13
102865.6531925339
 23
-168790.4172152346
 33
0.0
  0
POINT
  5
D5A52
330
D586D
100
AcDbEntity
  8
Defpoints
 62
     0
 48
5.0
100
AcDbPoint
 10
102865.6531925339
 20
-168790.4172152346
 30
0.0
  0
POINT
  5
D5A53
330
D586D
100
AcDbEntity
  8
Defpoints
 62
     0
 48
5.0
100
AcDbPoint
 10
102869.9633005268
 20
-168794.5912982584
 30
0.0
  0
ENDBLK
  5
D586F
330
D586D
100
AcDbEntity
  8
0
 48
5.0
100
AcDbBlockEnd
  0
BLOCK
  5
D599B
330
D599A
100
AcDbEntity
  8
0
 48
5.0
100
AcDbBlockBegin
  2
*D9
 70
     1
 10
0.0
 20
0.0
 30
0.0
  3
*D9
  1

  0
LINE
  5
D5AF1
330
D599A
100
AcDbEntity
  8
标注
 48
5.0
370
    -2
100
AcDbLine
 10
103272.539407009
 20
-168583.5042567465
 30
0.0
 11
103257.7847452686
 21
-168583.5042567465
 31
0.0
  0
LINE
  5
D5AF2
330
D599A
100
AcDbEntity
  8
标注
 48
5.0
370
    -2
100
AcDbLine
 10
103264.7847452686
 20
-168597.5042567465
 30
0.0
 11
103264.7847452686
 21
-168607.5042567465
 31
0.0
  0
LINE
  5
D5AF3
330
D599A
100
AcDbEntity
  8
标注
 48
5.0
370
    -2
100
AcDbLine
 10
103264.7847452686
 20
-168573.5042567465
 30
0.0
 11
103264.7847452686
 21
-168563.5042567465
 31
0.0
  0
LINE
  5
D5AF4
330
D599A
100
AcDbEntity
  8
标注
 48
5.0
370
    -2
100
AcDbLine
 10
103264.7847452686
 20
-168587.5042567465
 30
0.0
 11
103264.7847452686
 21
-168583.5042567465
 31
0.0
  0
SOLID
  5
D5AF5
330
D599A
100
AcDbEntity
  8
标注
 48
5.0
100
AcDbTrace
 10
103263.1180786019
 20
-168597.5042567465
 30
0.0
 11
103266.4514119352
 21
-168597.5042567465
 31
0.0
 12
103264.7847452686
 22
-168587.5042567465
 32
0.0
 13
103264.7847452686
 23
-168587.5042567465
 33
0.0
  0
SOLID
  5
D5AF6
330
D599A
100
AcDbEntity
  8
标注
 48
5.0
100
AcDbTrace
 10
103263.1180786019
 20
-168573.5042567465
 30
0.0
 11
103266.4514119352
 21
-168573.5042567465
 31
0.0
 12
103264.7847452686
 22
-168583.5042567465
 32
0.0
 13
103264.7847452686
 23
-168583.5042567465
 33
0.0
  0
MTEXT
  5
D5AF7
330
D599A
100
AcDbEntity
  8
标注
 48
5.0
100
AcDbMText
 10
103264.7847452686
 20
-168559.3375900798
 30
0.0
 40
12.0
 41
0.0
 71
     5
 72
     1
  1
\A1;4
 11
0.0000000000000001
 21
1.0
 31
0.0
 73
     1
 44
1.0
1001
ACAD
1000
MTEXTBEGIN
1070
    73
1070
     1
1070
    44
1040
1.0
1070
    74
1070
     0
1000
MTEXTEND
  0
POINT
  5
D5AF8
330
D599A
100
AcDbEntity
  8
Defpoints
 62
     0
 48
5.0
100
AcDbPoint
 10
103264.7847452686
 20
-168587.5042567465
 30
0.0
  0
POINT
  5
D5AF9
330
D599A
100
AcDbEntity
  8
Defpoints
 62
     0
 48
5.0
100
AcDbPoint
 10
103279.539407009
 20
-168583.5042567465
 30
0.0
  0
POINT
  5
D5AFA
330
D599A
100
AcDbEntity
  8
Defpoints
 62
     0
 48
5.0
100
AcDbPoint
 10
103264.7847452686
 20
-168583.5042567465
 30
0.0
  0
ENDBLK
  5
D599C
330
D599A
100
AcDbEntity
  8
0
 48
5.0
100
AcDbBlockEnd
  0
BLOCK
  5
D5A10
330
D5A0F
100
AcDbEntity
  8
0
 48
5.0
100
AcDbBlockBegin
  2
*D10
 70
     1
 10
0.0
 20
0.0
 30
0.0
  3
*D10
  1

  0
LINE
  5
D5A1D
330
D5A0F
100
AcDbEntity
  8
标注
 48
5.0
370
    -2
100
AcDbLine
 10
102526.3082465303
 20
-168799.5042567465
 30
0.0
 11
102526.3082465303
 21
-168840.1910380338
 31
0.0
  0
LINE
  5
D5A1E
330
D5A0F
100
AcDbEntity
  8
标注
 48
5.0
370
    -2
100
AcDbLine
 10
102867.8082465303
 20
-168799.5042567465
 30
0.0
 11
102867.8082465303
 21
-168840.1910380338
 31
0.0
  0
LINE
  5
D5A1F
330
D5A0F
100
AcDbEntity
  8
标注
 48
5.0
370
    -2
100
AcDbLine
 10
102536.3082465303
 20
-168833.1910380339
 30
0.0
 11
102676.2582465303
 21
-168833.1910380339
 31
0.0
  0
LINE
  5
D5A20
330
D5A0F
100
AcDbEntity
  8
标注
 48
5.0
370
    -2
100
AcDbLine
 10
102857.8082465303
 20
-168833.1910380339
 30
0.0
 11
102717.8582465303
 21
-168833.1910380339
 31
0.0
  0
SOLID
  5
D5A21
330
D5A0F
100
AcDbEntity
  8
标注
 48
5.0
100
AcDbTrace
 10
102536.3082465303
 20
-168831.5243713672
 30
0.0
 11
102536.3082465303
 21
-168834.8577047005
 31
0.0
 12
102526.3082465303
 22
-168833.1910380339
 32
0.0
 13
102526.3082465303
 23
-168833.1910380339
 33
0.0
  0
SOLID
  5
D5A22
330
D5A0F
100
AcDbEntity
  8
标注
 48
5.0
100
AcDbTrace
 10
102857.8082465303
 20
-168831.5243713672
 30
0.0
 11
102857.8082465303
 21
-168834.8577047005
 31
0.0
 12
102867.8082465303
 22
-168833.1910380339
 32
0.0
 13
102867.8082465303
 23
-168833.1910380339
 33
0.0
  0
MTEXT
  5
D5A23
330
D5A0F
100
AcDbEntity
  8
标注
 48
5.0
100
AcDbMText
 10
102697.0582465303
 20
-168833.1910380339
 30
0.0
 40
12.0
 41
0.0
 71
     5
 72
     1
  1
\A1;341,5
 73
     1
 44
1.0
1001
ACAD
1000
MTEXTBEGIN
1070
    73
1070
     1
1070
    44
1040
1.0
1070
    74
1070
     0
1000
MTEXTEND
  0
POINT
  5
D5A24
330
D5A0F
100
AcDbEntity
  8
Defpoints
 62
     0
 48
5.0
100
AcDbPoint
 10
102526.3082465303
 20
-168792.5042567465
 30
0.0
  0
POINT
  5
D5A25
330
D5A0F
100
AcDbEntity
  8
Defpoints
 62
     0
 48
5.0
100
AcDbPoint
 10
102867.8082465303
 20
-168792.5042567465
 30
0.0
  0
POINT
  5
D5A26
330
D5A0F
100
AcDbEntity
  8
Defpoints
 62
     0
 48
5.0
100
AcDbPoint
 10
102867.8082465303
 20
-168833.1910380339
 30
0.0
  0
ENDBLK
  5
D5A11
330
D5A0F
100
AcDbEntity
  8
0
 48
5.0
100
AcDbBlockEnd
  0
BLOCK
  5
D5A2A
330
D5A29
100
AcDbEntity
  8
0
 48
5.0
100
AcDbBlockBegin
  2
*D11
 70
     1
 10
0.0
 20
0.0
 30
0.0
  3
*D11
  1

  0
LINE
  5
D5A42
330
D5A29
100
AcDbEntity
  8
标注
 48
5.0
370
    -2
100
AcDbLine
 10
102526.3082465303
 20
-168799.5042567465
 30
0.0
 11
102526.3082465303
 21
-168877.0170056888
 31
0.0
  0
LINE
  5
D5A43
330
D5A29
100
AcDbEntity
  8
标注
 48
5.0
370
    -2
100
AcDbLine
 10
103209.3082465303
 20
-168799.5042567465
 30
0.0
 11
103209.3082465303
 21
-168877.0170056888
 31
0.0
  0
LINE
  5
D5A44
330
D5A29
100
AcDbEntity
  8
标注
 48
5.0
370
    -2
100
AcDbLine
 10
102536.3082465303
 20
-168870.0170056887
 30
0.0
 11
102683.5082465303
 21
-168870.0170056887
 31
0.0
  0
LINE
  5
D5A45
330
D5A29
100
AcDbEntity
  8
标注
 48
5.0
370
    -2
100
AcDbLine
 10
103199.3082465303
 20
-168870.0170056887
 30
0.0
 11
102708.2415798637
 21
-168870.0170056887
 31
0.0
  0
SOLID
  5
D5A46
330
D5A29
100
AcDbEntity
  8
标注
 48
5.0
100
AcDbTrace
 10
102536.3082465303
 20
-168868.3503390221
 30
0.0
 11
102536.3082465303
 21
-168871.6836723554
 31
0.0
 12
102526.3082465303
 22
-168870.0170056887
 32
0.0
 13
102526.3082465303
 23
-168870.0170056887
 33
0.0
  0
SOLID
  5
D5A47
330
D5A29
100
AcDbEntity
  8
标注
 48
5.0
100
AcDbTrace
 10
103199.3082465303
 20
-168868.3503390221
 30
0.0
 11
103199.3082465303
 21
-168871.6836723554
 31
0.0
 12
103209.3082465303
 22
-168870.0170056887
 32
0.0
 13
103209.3082465303
 23
-168870.0170056887
 33
0.0
  0
MTEXT
  5
D5A48
330
D5A29
100
AcDbEntity
  8
标注
 48
5.0
100
AcDbMText
 10
102695.874913197
 20
-168870.0170056887
 30
0.0
 40
12.0
 41
0.0
 71
     5
 72
     1
  1
\A1;683
 73
     1
 44
1.0
1001
ACAD
1000
MTEXTBEGIN
1070
    73
1070
     1
1070
    44
1040
1.0
1070
    74
1070
     0
1000
MTEXTEND
  0
POINT
  5
D5A49
330
D5A29
100
AcDbEntity
  8
Defpoints
 62
     0
 48
5.0
100
AcDbPoint
 10
102526.3082465303
 20
-168792.5042567465
 30
0.0
  0
POINT
  5
D5A4A
330
D5A29
100
AcDbEntity
  8
Defpoints
 62
     0
 48
5.0
100
AcDbPoint
 10
103209.3082465303
 20
-168792.5042567465
 30
0.0
  0
POINT
  5
D5A4B
330
D5A29
100
AcDbEntity
  8
Defpoints
 62
     0
 48
5.0
100
AcDbPoint
 10
103209.3082465303
 20
-168870.0170056887
 30
0.0
  0
ENDBLK
  5
D5A2B
330
D5A29
100
AcDbEntity
  8
0
 48
5.0
100
AcDbBlockEnd
  0
BLOCK
  5
D5A6E
330
D5A6D
100
AcDbEntity
  8
0
 48
5.0
100
AcDbBlockBegin
  2
*D12
 70
     1
 10
0.0
 20
0.0
 30
0.0
  3
*D12
  1

  0
LINE
  5
D5A94
330
D5A6D
100
AcDbEntity
  8
标注
 48
5.0
370
    -2
100
AcDbLine
 10
102874.8082465303
 20
-168983.5042567465
 30
0.0
 11
102925.4571674361
 21
-168983.5042567465
 31
0.0
  0
LINE
  5
D5A95
330
D5A6D
100
AcDbEntity
  8
标注
 48
5.0
370
    -2
100
AcDbLine
 10
102874.8082465303
 20
-168792.5042567465
 30
0.0
 11
102925.4571674361
 21
-168792.5042567465
 31
0.0
  0
LINE
  5
D5A96
330
D5A6D
100
AcDbEntity
  8
标注
 48
5.0
370
    -2
100
AcDbLine
 10
102918.4571674361
 20
-168973.5042567465
 30
0.0
 11
102918.4571674361
 21
-168910.9375900798
 31
0.0
  0
LINE
  5
D5A97
330
D5A6D
100
AcDbEntity
  8
标注
 48
5.0
370
    -2
100
AcDbLine
 10
102918.4571674361
 20
-168802.5042567465
 30
0.0
 11
102918.4571674361
 21
-168888.0042567465
 31
0.0
  0
SOLID
  5
D5A98
330
D5A6D
100
AcDbEntity
  8
标注
 48
5.0
100
AcDbTrace
 10
102916.7905007694
 20
-168973.5042567465
 30
0.0
 11
102920.1238341028
 21
-168973.5042567465
 31
0.0
 12
102918.4571674361
 22
-168983.5042567465
 32
0.0
 13
102918.4571674361
 23
-168983.5042567465
 33
0.0
  0
SOLID
  5
D5A99
330
D5A6D
100
AcDbEntity
  8
标注
 48
5.0
100
AcDbTrace
 10
102916.7905007694
 20
-168802.5042567465
 30
0.0
 11
102920.1238341028
 21
-168802.5042567465
 31
0.0
 12
102918.4571674361
 22
-168792.5042567465
 32
0.0
 13
102918.4571674361
 23
-168792.5042567465
 33
0.0
  0
MTEXT
  5
D5A9A
330
D5A6D
100
AcDbEntity
  8
标注
 48
5.0
100
AcDbMText
 10
102918.4571674361
 20
-168899.4709234132
 30
0.0
 40
12.0
 41
0.0
 71
     5
 72
     1
  1
\A1;191
 11
0.0000000000000001
 21
1.0
 31
0.0
 73
     1
 44
1.0
1001
ACAD
1000
MTEXTBEGIN
1070
    73
1070
     1
1070
    44
1040
1.0
1070
    74
1070
     0
1000
MTEXTEND
  0
POINT
  5
D5A9B
330
D5A6D
100
AcDbEntity
  8
Defpoints
 62
     0
 48
5.0
100
AcDbPoint
 10
102867.8082465303
 20
-168983.5042567465
 30
0.0
  0
POINT
  5
D5A9C
330
D5A6D
100
AcDbEntity
  8
Defpoints
 62
     0
 48
5.0
100
AcDbPoint
 10
102867.8082465303
 20
-168792.5042567465
 30
0.0
  0
POINT
  5
D5A9D
330
D5A6D
100
AcDbEntity
  8
Defpoints
 62
     0
 48
5.0
100
AcDbPoint
 10
102918.4571674361
 20
-168792.5042567465
 30
0.0
  0
ENDBLK
  5
D5A6F
330
D5A6D
100
AcDbEntity
  8
0
 48
5.0
100
AcDbBlockEnd
  0
BLOCK
  5
D5A7C
330
D5A7B
100
AcDbEntity
  8
0
 48
5.0
100
AcDbBlockBegin
  2
*D13
 70
     1
 10
0.0
 20
0.0
 30
0.0
  3
*D13
  1

  0
LINE
  5
D5AA8
330
D5A7B
100
AcDbEntity
  8
标注
 48
5.0
370
    -2
100
AcDbLine
 10
102874.8082465303
 20
-168983.5042567465
 30
0.0
 11
102949.353978956
 21
-168983.5042567465
 31
0.0
  0
LINE
  5
D5AA9
330
D5A7B
100
AcDbEntity
  8
标注
 48
5.0
370
    -2
100
AcDbLine
 10
102874.8082465303
 20
-168601.5042567465
 30
0.0
 11
102949.353978956
 21
-168601.5042567465
 31
0.0
  0
LINE
  5
D5AAA
330
D5A7B
100
AcDbEntity
  8
标注
 48
5.0
370
    -2
100
AcDbLine
 10
102942.353978956
 20
-168973.5042567465
 30
0.0
 11
102942.353978956
 21
-168913.0745077395
 31
0.0
  0
LINE
  5
D5AAB
330
D5A7B
100
AcDbEntity
  8
标注
 48
5.0
370
    -2
100
AcDbLine
 10
102942.353978956
 20
-168611.5042567465
 30
0.0
 11
102942.353978956
 21
-168888.5411744061
 31
0.0
  0
SOLID
  5
D5AAC
330
D5A7B
100
AcDbEntity
  8
标注
 48
5.0
100
AcDbTrace
 10
102940.6873122893
 20
-168973.5042567465
 30
0.0
 11
102944.0206456226
 21
-168973.5042567465
 31
0.0
 12
102942.353978956
 22
-168983.5042567465
 32
0.0
 13
102942.353978956
 23
-168983.5042567465
 33
0.0
  0
SOLID
  5
D5AAD
330
D5A7B
100
AcDbEntity
  8
标注
 48
5.0
100
AcDbTrace
 10
102940.6873122893
 20
-168611.5042567465
 30
0.0
 11
102944.0206456226
 21
-168611.5042567465
 31
0.0
 12
102942.353978956
 22
-168601.5042567465
 32
0.0
 13
102942.353978956
 23
-168601.5042567465
 33
0.0
  0
MTEXT
  5
D5AAE
330
D5A7B
100
AcDbEntity
  8
标注
 48
5.0
100
AcDbMText
 10
102942.353978956
 20
-168900.8078410727
 30
0.0
 40
12.0
 41
0.0
 71
     5
 72
     1
  1
\A1;382
 11
0.0000000000000001
 21
1.0
 31
0.0
 73
     1
 44
1.0
1001
ACAD
1000
MTEXTBEGIN
1070
    73
1070
     1
1070
    44
1040
1.0
1070
    74
1070
     0
1000
MTEXTEND
  0
POINT
  5
D5AAF
330
D5A7B
100
AcDbEntity
  8
Defpoints
 62
     0
 48
5.0
100
AcDbPoint
 10
102867.8082465303
 20
-168983.5042567465
 30
0.0
  0
POINT
  5
D5AB0
330
D5A7B
100
AcDbEntity
  8
Defpoints
 62
     0
 48
5.0
100
AcDbPoint
 10
102867.8082465303
 20
-168601.5042567465
 30
0.0
  0
POINT
  5
D5AB1
330
D5A7B
100
AcDbEntity
  8
Defpoints
 62
     0
 48
5.0
100
AcDbPoint
 10
102942.353978956
 20
-168601.5042567465
 30
0.0
  0
ENDBLK
  5
D5A7D
330
D5A7B
100
AcDbEntity
  8
0
 48
5.0
100
AcDbBlockEnd
  0
BLOCK
  5
D5AE6
330
D5AE5
100
AcDbEntity
  8
0
 48
5.0
100
AcDbBlockBegin
  2
*D14
 70
     1
 10
0.0
 20
0.0
 30
0.0
  3
*D14
  1

  0
LINE
  5
D5AE8
330
D5AE5
100
AcDbEntity
  8
标注
 48
5.0
370
    -2
100
AcDbLine
 10
103213.3082465303
 20
-169043.067129482
 30
0.0
 11
103203.3082465303
 21
-169043.067129482
 31
0.0
  0
LINE
  5
D5AE9
330
D5AE5
100
AcDbEntity
  8
标注
 48
5.0
370
    -2
100
AcDbLine
 10
103237.3082465303
 20
-169043.067129482
 30
0.0
 11
103247.3082465303
 21
-169043.067129482
 31
0.0
  0
LINE
  5
D5AEA
330
D5AE5
100
AcDbEntity
  8
标注
 48
5.0
370
    -2
100
AcDbLine
 10
103223.3082465303
 20
-169043.067129482
 30
0.0
 11
103227.3082465303
 21
-169043.067129482
 31
0.0
  0
SOLID
  5
D5AEB
330
D5AE5
100
AcDbEntity
  8
标注
 48
5.0
100
AcDbTrace
 10
103213.3082465303
 20
-169041.4004628153
 30
0.0
 11
103213.3082465303
 21
-169044.7337961487
 31
0.0
 12
103223.3082465303
 22
-169043.067129482
 32
0.0
 13
103223.3082465303
 23
-169043.067129482
 33
0.0
  0
SOLID
  5
D5AEC
330
D5AE5
100
AcDbEntity
  8
标注
 48
5.0
100
AcDbTrace
 10
103237.3082465303
 20
-169041.4004628153
 30
0.0
 11
103237.3082465303
 21
-169044.7337961487
 31
0.0
 12
103227.3082465303
 22
-169043.067129482
 32
0.0
 13
103227.3082465303
 23
-169043.067129482
 33
0.0
  0
MTEXT
  5
D5AED
330
D5AE5
100
AcDbEntity
  8
标注
 48
5.0
100
AcDbMText
 10
103251.474913197
 20
-169043.067129482
 30
0.0
 40
12.0
 41
0.0
 71
     5
 72
     1
  1
\A1;4
 73
     1
 44
1.0
1001
ACAD
1000
MTEXTBEGIN
1070
    73
1070
     1
1070
    44
1040
1.0
1070
    74
1070
     0
1000
MTEXTEND
  0
POINT
  5
D5AEE
330
D5AE5
100
AcDbEntity
  8
Defpoints
 62
     0
 48
5.0
100
AcDbPoint
 10
103223.3082465303
 20
-169043.067129482
 30
0.0
  0
POINT
  5
D5AEF
330
D5AE5
100
AcDbEntity
  8
Defpoints
 62
     0
 48
5.0
100
AcDbPoint
 10
103227.3082465303
 20
-169043.067129482
 30
0.0
  0
POINT
  5
D5AF0
330
D5AE5
100
AcDbEntity
  8
Defpoints
 62
     0
 48
5.0
100
AcDbPoint
 10
103227.3082465303
 20
-169043.067129482
 30
0.0
  0
ENDBLK
  5
D5AE7
330
D5AE5
100
AcDbEntity
  8
0
 48
5.0
100
AcDbBlockEnd
  0
ENDSEC
  0
SECTION
  2
ENTITIES
  0
ARC
  5
D575D
330
1F
100
AcDbEntity
  8
虚线
 48
5.0
100
AcDbCircle
 10
102612.3082465303
 20
-168897.5042567465
 30
0.0
 40
100.0
100
AcDbArc
 50
180.0
 51
270.0
  0
ARC
  5
D575E
330
1F
100
AcDbEntity
  8
细实线
 48
5.0
100
AcDbCircle
 10
102612.3082465303
 20
-168897.5042567465
 30
0.0
 40
104.0
100
AcDbArc
 50
180.0
 51
270.0
  0
ARC
  5
D575F
330
1F
100
AcDbEntity
  8
虚线
 48
5.0
100
AcDbCircle
 10
103123.3082465303
 20
-168897.5042567465
 30
0.0
 40
100.0
100
AcDbArc
 50
270.0
 51
0.0
  0
ARC
  5
D5760
330
1F
100
AcDbEntity
  8
细实线
 48
5.0
100
AcDbCircle
 10
103123.3082465303
 20
-168897.5042567465
 30
0.0
 40
104.0
100
AcDbArc
 50
270.0
 51
0.0
  0
ARC
  5
D5761
330
1F
100
AcDbEntity
  8
虚线
 48
5.0
100
AcDbCircle
 10
103123.3082465303
 20
-168687.5042567465
 30
0.0
 40
100.0
100
AcDbArc
 50
0.0
 51
90.0
  0
ARC
  5
D5762
330
1F
100
AcDbEntity
  8
细实线
 48
5.0
100
AcDbCircle
 10
103123.3082465303
 20
-168687.5042567465
 30
0.0
 40
104.0
100
AcDbArc
 50
0.0
 51
90.0
  0
ARC
  5
D5763
330
1F
100
AcDbEntity
  8
虚线
 48
5.0
100
AcDbCircle
 10
102612.3082465303
 20
-168687.5042567465
 30
0.0
 40
100.0
100
AcDbArc
 50
90.0
 51
180.0
  0
ARC
  5
D5764
330
1F
100
AcDbEntity
  8
细实线
 48
5.0
100
AcDbCircle
 10
102612.3082465303
 20
-168687.5042567465
 30
0.0
 40
104.0
100
AcDbArc
 50
90.0
 51
180.0
  0
LINE
  5
D5765
330
1F
100
AcDbEntity
  8
虚线
 48
5.0
100
AcDbLine
 10
102512.3082465303
 20
-168687.5042567465
 30
0.0
 11
102512.3082465303
 21
-168897.5042567465
 31
0.0
  0
LINE
  5
D5766
102
{ACAD_REACTORS
330
D5794
102
}
330
1F
100
AcDbEntity
  8
细实线
 48
5.0
100
AcDbLine
 10
102508.3082465303
 20
-168687.5042567465
 30
0.0
 11
102508.3082465303
 21
-168897.5042567465
 31
0.0
  0
LINE
  5
D5767
330
1F
100
AcDbEntity
  8
虚线
 48
5.0
100
AcDbLine
 10
103223.3082465303
 20
-168687.5042567465
 30
0.0
 11
103223.3082465303
 21
-168897.5042567465
 31
0.0
  0
LINE
  5
D5768
330
1F
100
AcDbEntity
  8
细实线
 48
5.0
100
AcDbLine
 10
103227.3082465303
 20
-168687.5042567465
 30
0.0
 11
103227.3082465303
 21
-168897.5042567465
 31
0.0
  0
LINE
  5
D5769
102
{ACAD_REACTORS
330
D5780
102
}
330
1F
100
AcDbEntity
  8
虚线
 48
5.0
100
AcDbLine
 10
102612.3082465303
 20
-168587.5042567465
 30
0.0
 11
103123.3082465303
 21
-168587.5042567465
 31
0.0
  0
LINE
  5
D576A
102
{ACAD_REACTORS
330
D577D
102
}
330
1F
100
AcDbEntity
  8
细实线
 48
5.0
100
AcDbLine
 10
102612.3082465303
 20
-168583.5042567465
 30
0.0
 11
103123.3082465303
 21
-168583.5042567465
 31
0.0
  0
LINE
  5
D576B
102
{ACAD_REACTORS
330
D5780
102
}
330
1F
100
AcDbEntity
  8
虚线
 48
5.0
100
AcDbLine
 10
102612.3082465303
 20
-168997.5042567465
 30
0.0
 11
103123.3082465303
 21
-168997.5042567465
 31
0.0
  0
LINE
  5
D576C
102
{ACAD_REACTORS
330
D577D
330
D5797
102
}
330
1F
100
AcDbEntity
  8
细实线
 48
5.0
100
AcDbLine
 10
102612.3082465303
 20
-169001.5042567465
 30
0.0
 11
103123.3082465303
 21
-169001.5042567465
 31
0.0
  0
LINE
  5
D576D
330
1F
100
AcDbEntity
  8
虚线
 48
5.0
100
AcDbLine
 10
102529.3082465303
 20
-168792.5042567465
 30
0.0
 11
102864.8082465303
 21
-168792.5042567465
 31
0.0
  0
LINE
  5
D576E
330
1F
100
AcDbEntity
  8
虚线
 48
5.0
100
AcDbLine
 10
102870.8082465303
 20
-168792.5042567465
 30
0.0
 11
103206.3082465303
 21
-168792.5042567465
 31
0.0
  0
LINE
  5
D576F
330
1F
100
AcDbEntity
  8
虚线
 48
5.0
100
AcDbLine
 10
102867.8082465303
 20
-168605.5042567465
 30
0.0
 11
102867.8082465303
 21
-168979.5042567465
 31
0.0
  0
CIRCLE
  5
D5770
102
{ACAD_REACTORS
330
D5794
102
}
330
1F
100
AcDbEntity
  8
细实线
 48
5.0
100
AcDbCircle
 10
102526.3082465303
 20
-168792.5042567465
 30
0.0
 40
3.0
  0
CIRCLE
  5
D5771
102
{ACAD_REACTORS
330
D579E
330
D5A27
102
}
330
1F
100
AcDbEntity
  8
细实线
 48
5.0
100
AcDbCircle
 10
102867.8082465303
 20
-168792.5042567465
 30
0.0
 40
3.0
  0
CIRCLE
  5
D5772
102
{ACAD_REACTORS
330
D5797
102
}
330
1F
100
AcDbEntity
  8
细实线
 48
5.0
100
AcDbCircle
 10
102867.8082465303
 20
-168983.5042567465
 30
0.0
 40
3.0
  0
CIRCLE
  5
D5773
102
{ACAD_REACTORS
330
D5A41
102
}
330
1F
100
AcDbEntity
  8
细实线
 48
5.0
100
AcDbCircle
 10
103209.3082465303
 20
-168792.5042567465
 30
0.0
 40
3.0
  0
CIRCLE
  5
D5774
102
{ACAD_REACTORS
330
D5A93
102
}
330
1F
100
AcDbEntity
  8
细实线
 48
5.0
100
AcDbCircle
 10
102867.8082465303
 20
-168601.5042567465
 30
0.0
 40
3.0
  0
DIMENSION
  5
D5775
330
1F
100
AcDbEntity
  8
标注
 48
5.0
100
AcDbDimension
  2
*D2
 10
102508.3082465303
 20
-169070.3514029872
 30
0.0
 11
102868.0408527136
 21
-169070.3514029872
 31
0.0
 70
   160
 71
     5
 42
719.0
  3
副本Standard
100
AcDbAlignedDimension
 13
103227.3082465303
 23
-168897.5042567465
 33
0.0
 14
102508.3082465303
 24
-168897.5042567465
 34
0.0
100
AcDbRotatedDimension
1001
ACAD
1000
DSTYLE
1002
{
1070
    41
1040
10.0
1070
    49
1040
8.0
1070
   140
1040
12.0
1070
   147
1040
0.5
1070
   179
1070
     0
1070
   345
1005
15
1002
}
  0
DIMENSION
  5
D5778
330
1F
100
AcDbEntity
  8
标注
 48
5.0
100
AcDbDimension
  2
*D3
 10
102512.3082465303
 20
-169043.067129482
 30
0.0
 11
102868.3118968844
 21
-169043.067129482
 31
0.0
 70
   160
 71
     5
 42
711.0
  3
副本Standard
100
AcDbAlignedDimension
 13
103223.3082465303
 23
-168897.5042567465
 33
0.0
 14
102512.3082465303
 24
-168897.5042567465
 34
0.0
100
AcDbRotatedDimension
1001
ACAD
1000
DSTYLE
1002
{
1070
    41
1040
10.0
1070
    49
1040
8.0
1070
   140
1040
12.0
1070
   147
1040
0.5
1070
   179
1070
     0
1070
   345
1005
15
1002
}
  0
DIMENSION
  5
D577B
102
{ACAD_XDICTIONARY
360
D577C
102
}
102
{ACAD_REACTORS
330
D577D
102
}
330
1F
100
AcDbEntity
  8
标注
 48
5.0
100
AcDbDimension
  2
*D4
 10
103303.3758776822
 20
-169001.5042567465
 30
0.0
 11
103303.3758776822
 21
-168792.5042567465
 31
0.0
 70
   160
 71
     5
 42
418.0
  3
副本Standard
100
AcDbAlignedDimension
 13
103123.3082465303
 23
-168583.5042567465
 33
0.0
 14
103123.3082465303
 24
-169001.5042567465
 34
0.0
 50
90.0
100
AcDbRotatedDimension
1001
ACAD
1000
DSTYLE
1002
{
1070
    41
1040
10.0
1070
    49
1040
8.0
1070
   140
1040
12.0
1070
   147
1040
0.5
1070
   179
1070
     0
1070
   345
1005
15
1002
}
  0
DIMENSION
  5
D577E
102
{ACAD_XDICTIONARY
360
D577F
102
}
102
{ACAD_REACTORS
330
D5780
102
}
330
1F
100
AcDbEntity
  8
标注
 48
5.0
100
AcDbDimension
  2
*D5
 10
103264.7847452685
 20
-168997.5042567465
 30
0.0
 11
103264.7847452686
 21
-168793.1475049035
 31
0.0
 70
   160
 71
     5
 42
410.0
  3
副本Standard
100
AcDbAlignedDimension
 13
103123.3082465303
 23
-168587.5042567465
 33
0.0
 14
103123.3082465303
 24
-168997.5042567465
 34
0.0
 50
90.0
100
AcDbRotatedDimension
1001
ACAD
1000
DSTYLE
1002
{
1070
    41
1040
10.0
1070
    49
1040
8.0
1070
   140
1040
12.0
1070
   147
1040
0.5
1070
   179
1070
     0
1070
   345
1005
15
1002
}
  0
DIMENSION
  5
D5792
102
{ACAD_XDICTIONARY
360
D5793
102
}
102
{ACAD_REACTORS
330
D5794
102
}
330
1F
100
AcDbEntity
  8
标注
 48
5.0
100
AcDbDimension
  2
*D6
 10
102526.3082465303
 20
-168762.6797053705
 30
0.0
 11
102517.3082465303
 21
-168762.6797053705
 31
0.0
 70
    32
 71
     5
 42
18.0
  3
副本Standard
100
AcDbAlignedDimension
 13
102508.3082465303
 23
-168792.5042567465
 33
0.0
 14
102526.3082465303
 24
-168792.5042567465
 34
0.0
100
AcDbRotatedDimension
1001
ACAD
1000
DSTYLE
1002
{
1070
    41
1040
10.0
1070
    49
1040
8.0
1070
   140
1040
12.0
1070
   147
1040
0.5
1070
   179
1070
     0
1070
   345
1005
15
1002
}
  0
DIMENSION
  5
D5795
102
{ACAD_XDICTIONARY
360
D5796
102
}
102
{ACAD_REACTORS
330
D5797
102
}
330
1F
100
AcDbEntity
  8
标注
 48
5.0
100
AcDbDimension
  2
*D7
 10
102887.8394344227
 20
-168983.5042567465
 30
0.0
 11
102887.8394344227
 21
-168992.5042567464
 31
0.0
 70
    32
 71
     5
 42
18.0
  3
副本Standard
100
AcDbAlignedDimension
 13
102867.8082465303
 23
-169001.5042567465
 33
0.0
 14
102867.8082465303
 24
-168983.5042567465
 34
0.0
 50
90.0
100
AcDbRotatedDimension
1001
ACAD
1000
DSTYLE
1002
{
1070
    41
1040
10.0
1070
    49
1040
8.0
1070
   140
1040
12.0
1070
   147
1040
0.5
1070
   179
1070
     0
1070
   345
1005
15
1002
}
  0
DIMENSION
  5
D579B
330
1F
100
AcDbEntity
  8
标注
 48
5.0
100
AcDbDimension
  2
*D1
 10
102612.3082465303
 20
-168687.5042567465
 30
0.0
 11
102571.8697924137
 21
-168650.7682724836
 31
0.0
 70
   164
  1
4-<>
 71
     5
 42
99.99999999997092
  3
副本Standard
100
AcDbRadialDimension
 15
102538.2903317347
 25
-168620.2632849413
 35
0.0
 40
0.0
1001
ACAD
1000
DSTYLE
1002
{
1070
    41
1040
10.0
1070
    49
1040
8.0
1070
   140
1040
12.0
1070
   147
1040
0.5
1070
   179
1070
     0
1070
   288
1070
     1
1070
   345
1005
15
1002
}
1001
ACAD_DSTYLE_DIMRADIAL_EXTENSION
1070
   387
1070
     1
1070
   388
1040
1.570796326794896
1070
   390
1040
3.141592653589792
  0
DIMENSION
  5
D579C
102
{ACAD_XDICTIONARY
360
D579D
102
}
102
{ACAD_REACTORS
330
D579E
102
}
330
1F
100
AcDbEntity
  8
标注
 48
5.0
100
AcDbDimension
  2
*D8
 10
102869.9633005268
 20
-168794.5912982584
 30
0.0
 11
102836.5274416841
 21
-168762.2106593016
 31
0.0
 70
    35
  1
{\fGulim|b0|i0|c129|p34;5-<>}
 71
     5
 42
6.000000000058207
  3
副本Standard
100
AcDbDiametricDimension
 15
102865.6531925339
 25
-168790.4172152346
 35
0.0
 40
0.0
1001
ACAD
1000
DSTYLE
1002
{
1070
    41
1040
10.0
1070
    49
1040
8.0
1070
   140
1040
12.0
1070
   147
1040
0.5
1070
   179
1070
     0
1070
   288
1070
     1
1070
   345
1005
15
1002
}
1001
ACAD_DSTYLE_DIMRADIAL_EXTENSION
1070
   387
1070
     1
1070
   388
1040
0.0
1070
   390
1040
0.0
  0
DIMENSION
  5
D5999
330
1F
100
AcDbEntity
  8
标注
 48
5.0
100
AcDbDimension
  2
*D9
 10
103264.7847452686
 20
-168583.5042567465
 30
0.0
 11
103264.7847452686
 21
-168559.3375900798
 31
0.0
 70
    32
 71
     5
 42
4.0
  3
副本Standard
100
AcDbAlignedDimension
 13
103264.7847452686
 23
-168587.5042567465
 33
0.0
 14
103279.539407009
 24
-168583.5042567465
 34
0.0
 50
90.0
100
AcDbRotatedDimension
1001
ACAD
1000
DSTYLE
1002
{
1070
    41
1040
10.0
1070
    49
1040
8.0
1070
   140
1040
12.0
1070
   147
1040
0.5
1070
   179
1070
     0
1070
   345
1005
15
1002
}
  0
DIMENSION
  5
D5A0E
102
{ACAD_XDICTIONARY
360
D5A1C
102
}
102
{ACAD_REACTORS
330
D5A27
102
}
330
1F
100
AcDbEntity
  8
标注
 48
5.0
100
AcDbDimension
  2
*D10
 10
102867.8082465303
 20
-168833.1910380339
 30
0.0
 11
102697.0582465303
 21
-168833.1910380339
 31
0.0
 70
    32
 71
     5
 42
341.5
  3
副本Standard
100
AcDbAlignedDimension
 13
102526.3082465303
 23
-168792.5042567465
 33
0.0
 14
102867.8082465303
 24
-168792.5042567465
 34
0.0
100
AcDbRotatedDimension
1001
ACAD
1000
DSTYLE
1002
{
1070
    41
1040
10.0
1070
    49
1040
8.0
1070
   140
1040
12.0
1070
   147
1040
0.5
1070
   179
1070
     0
1070
   345
1005
15
1002
}
  0
DIMENSION
  5
D5A28
102
{ACAD_XDICTIONARY
360
D5A36
102
}
102
{ACAD_REACTORS
330
D5A41
102
}
330
1F
100
AcDbEntity
  8
标注
 48
5.0
100
AcDbDimension
  2
*D11
 10
103209.3082465303
 20
-168870.0170056887
 30
0.0
 11
102695.874913197
 21
-168870.0170056887
 31
0.0
 70
   160
 71
     5
 42
683.0
  3
副本Standard
100
AcDbAlignedDimension
 13
102526.3082465303
 23
-168792.5042567465
 33
0.0
 14
103209.3082465303
 24
-168792.5042567465
 34
0.0
100
AcDbRotatedDimension
1001
ACAD
1000
DSTYLE
1002
{
1070
    41
1040
10.0
1070
    49
1040
8.0
1070
   140
1040
12.0
1070
   147
1040
0.5
1070
   179
1070
     0
1070
   345
1005
15
1002
}
  0
DIMENSION
  5
D5A6C
330
1F
100
AcDbEntity
  8
标注
 48
5.0
100
AcDbDimension
  2
*D12
 10
102918.4571674361
 20
-168792.5042567465
 30
0.0
 11
102918.4571674361
 21
-168899.4709234132
 31
0.0
 70
   160
 71
     5
 42
191.0
  3
副本Standard
100
AcDbAlignedDimension
 13
102867.8082465303
 23
-168983.5042567465
 33
0.0
 14
102867.8082465303
 24
-168792.5042567465
 34
0.0
 50
90.0
100
AcDbRotatedDimension
1001
ACAD
1000
DSTYLE
1002
{
1070
    41
1040
10.0
1070
    49
1040
8.0
1070
   140
1040
12.0
1070
   147
1040
0.5
1070
   179
1070
     0
1070
   345
1005
15
1002
}
  0
DIMENSION
  5
D5A7A
102
{ACAD_XDICTIONARY
360
D5A88
102
}
102
{ACAD_REACTORS
330
D5A93
102
}
330
1F
100
AcDbEntity
  8
标注
 48
5.0
100
AcDbDimension
  2
*D13
 10
102942.353978956
 20
-168601.5042567465
 30
0.0
 11
102942.353978956
 21
-168900.8078410727
 31
0.0
 70
   160
 71
     5
 42
382.0
  3
副本Standard
100
AcDbAlignedDimension
 13
102867.8082465303
 23
-168983.5042567465
 33
0.0
 14
102867.8082465303
 24
-168601.5042567465
 34
0.0
 50
90.0
100
AcDbRotatedDimension
1001
ACAD
1000
DSTYLE
1002
{
1070
    41
1040
10.0
1070
    49
1040
8.0
1070
   140
1040
12.0
1070
   147
1040
0.5
1070
   179
1070
     0
1070
   345
1005
15
1002
}
  0
DIMENSION
  5
D5AE4
330
1F
100
AcDbEntity
  8
标注
 48
5.0
100
AcDbDimension
  2
*D14
 10
103227.3082465303
 20
-169043.067129482
 30
0.0
 11
103251.474913197
 21
-169043.067129482
 31
0.0
 70
    32
 71
     5
 42
4.0
  3
副本Standard
100
AcDbAlignedDimension
 13
103223.3082465303
 23
-169043.067129482
 33
0.0
 14
103227.3082465303
 24
-169043.067129482
 34
0.0
100
AcDbRotatedDimension
1001
ACAD
1000
DSTYLE
1002
{
1070
    41
1040
10.0
1070
    49
1040
8.0
1070
   140
1040
12.0
1070
   147
1040
0.5
1070
   179
1070
     0
1070
   345
1005
15
1002
}
  0
ENDSEC
  0
SECTION
  2
OBJECTS
  0
DICTIONARY
  5
C
330
0
100
AcDbDictionary
281
     1
  3
ACAD_2007HEADERVARS_RT
350
D5B64
  3
ACAD_COLOR
350
6C
  3
ACAD_GROUP
350
D
  3
ACAD_LAYOUT
350
1A
  3
ACAD_MATERIAL
350
6B
  3
ACAD_MLEADERSTYLE
350
CEDBA
  3
ACAD_MLINESTYLE
350
17
  3
ACAD_PLOTSETTINGS
350
19
  3
ACAD_PLOTSTYLENAME
350
E
  3
ACAD_SCALELIST
350
CED98
  3
ACAD_TABLESTYLE
350
FAF
  3
ACAD_VISUALSTYLE
350
CED87
  3
AcadDim
350
100FD
  3
ACDB_RECOMPOSE_DATA
350
D0C4C
  3
AcDbVariableDictionary
350
59
  3
ASE_INDEX_DICTIONARY
350
C2668
  3
DWGPROPS
350
D5B63
  3
lxx_dict
350
A9D16
  0
DICTIONARY
  5
AB
330
2
100
AcDbDictionary
280
     1
281
     1
  3
ACAD_LAYERFILTERS
360
176
  3
ACAD_LAYERSTATES
360
AC
  0
DICTIONARY
  5
CF251
330
10
100
AcDbDictionary
280
     1
281
     1
  3
ADSK_XREC_LAYER_RECONCILED
360
CF252
  0
DICTIONARY
  5
CF259
330
9D
100
AcDbDictionary
280
     1
281
     1
  3
ADSK_XREC_LAYER_RECONCILED
360
CF25A
  0
DICTIONARY
  5
CF25B
330
9E
100
AcDbDictionary
280
     1
281
     1
  3
ADSK_XREC_LAYER_RECONCILED
360
CF25C
  0
DICTIONARY
  5
CF25D
330
16DF9
100
AcDbDictionary
280
     1
281
     1
  3
ADSK_XREC_LAYER_RECONCILED
360
CF25E
  0
DICTIONARY
  5
118B
330
1F
100
AcDbDictionary
280
     1
281
     1
  3
ACAD_SORTENTS
360
118C
  0
DICTIONARY
  5
D5B6E
330
D5A4E
100
AcDbDictionary
280
     1
281
     1
  3
ACAD_MTEXT_RT
360
D5B6F
  0
DICTIONARY
  5
D577C
330
D577B
100
AcDbDictionary
280
     1
281
     1
  3
ACAD_DIMASSOC
360
D577D
  0
DICTIONARY
  5
D577F
330
D577E
100
AcDbDictionary
280
     1
281
     1
  3
ACAD_DIMASSOC
360
D5780
  0
DICTIONARY
  5
D5793
330
D5792
100
AcDbDictionary
280
     1
281
     1
  3
ACAD_DIMASSOC
360
D5794
  0
DICTIONARY
  5
D5796
330
D5795
100
AcDbDictionary
280
     1
281
     1
  3
ACAD_DIMASSOC
360
D5797
  0
DICTIONARY
  5
D579D
330
D579C
100
AcDbDictionary
280
     1
281
     1
  3
ACAD_DIMASSOC
360
D579E
  0
DICTIONARY
  5
D5A1C
330
D5A0E
100
AcDbDictionary
280
     1
281
     1
  3
ACAD_DIMASSOC
360
D5A27
  0
DICTIONARY
  5
D5A36
330
D5A28
100
AcDbDictionary
280
     1
281
     1
  3
ACAD_DIMASSOC
360
D5A41
  0
DICTIONARY
  5
D5A88
330
D5A7A
100
AcDbDictionary
280
     1
281
     1
  3
ACAD_DIMASSOC
360
D5A93
  0
DICTIONARY
  5
D5B64
102
{ACAD_REACTORS
330
C
102
}
330
C
100
AcDbDictionary
281
     1
  3
DIMFXL
350
D5B65
  3
DIMLTYPE
350
D5B66
  0
DICTIONARY
  5
6C
102
{ACAD_REACTORS
330
C
102
}
330
C
100
AcDbDictionary
281
     1
  0
DICTIONARY
  5
D
102
{ACAD_REACTORS
330
C
102
}
330
C
100
AcDbDictionary
281
     1
  0
DICTIONARY
  5
1A
102
{ACAD_REACTORS
330
C
102
}
330
C
100
AcDbDictionary
281
     1
  3
Model
350
22
  3
布局1
350
74
  3
布局2
350
79
  0
DICTIONARY
  5
6B
102
{ACAD_REACTORS
330
C
102
}
330
C
100
AcDbDictionary
281
     1
  3
ByBlock
350
CED77
  3
ByLayer
350
CED6F
  3
Global
350
CED7F
  0
DICTIONARY
  5
CEDBA
102
{ACAD_REACTORS
330
C
102
}
330
C
100
AcDbDictionary
281
     1
  3
Standard
350
CEDBB
  0
DICTIONARY
  5
17
102
{ACAD_REACTORS
330
C
102
}
330
C
100
AcDbDictionary
281
     1
  3
Standard
350
18
  0
DICTIONARY
  5
19
102
{ACAD_REACTORS
330
C
102
}
330
C
100
AcDbDictionary
281
     1
  0
ACDBDICTIONARYWDFLT
  5
E
102
{ACAD_REACTORS
330
C
102
}
330
C
100
AcDbDictionary
281
     1
  3
Normal
350
F
100
AcDbDictionaryWithDefault
340
F
  0
DICTIONARY
  5
CED98
102
{ACAD_REACTORS
330
C
102
}
330
C
100
AcDbDictionary
281
     1
  3
A0
350
CED99
  3
A1
350
CED9A
  3
A2
350
CED9B
  3
A3
350
CED9C
  3
A4
350
CED9D
  3
A5
350
CED9E
  3
A6
350
CED9F
  3
A7
350
CEDA0
  3
A8
350
CEDA1
  3
A9
350
CEDA2
  3
B0
350
CEDA3
  3
B1
350
CEDA4
  3
B2
350
CEDA5
  3
B3
350
CEDA6
  3
B4
350
CEDA7
  3
B5
350
CEDA8
  3
B6
350
CEDA9
  3
B7
350
CEDAA
  3
B8
350
CEDAB
  3
B9
350
CEDAC
  3
C0
350
CEDAD
  3
C1
350
CEDAE
  3
C2
350
CEDAF
  3
C3
350
CEDB0
  3
C4
350
CEDB1
  3
C5
350
CEDB2
  3
C6
350
CEDB3
  3
C7
350
CEDB4
  3
C8
350
CEDB5
  3
C9
350
CEDB6
  3
D0
350
CEDB7
  3
D1
350
CEDB8
  3
D2
350
CEDB9
  0
DICTIONARY
  5
FAF
102
{ACAD_REACTORS
330
C
102
}
330
C
100
AcDbDictionary
281
     1
  3
Standard
350
FB0
  0
DICTIONARY
  5
CED87
102
{ACAD_REACTORS
330
C
102
}
330
C
100
AcDbDictionary
281
     1
  3
2dWireframe
350
CED8D
  3
3D Hidden
350
CED8F
  3
3dWireframe
350
CED8E
  3
Basic
350
CED8C
  3
Brighten
350
CED93
  3
ColorChange
350
CED97
  3
Conceptual
350
CED90
  3
Dim
350
CED92
  3
Facepattern
350
CED96
  3
Flat
350
CED88
  3
FlatWithEdges
350
CED89
  3
Gouraud
350
CED8A
  3
GouraudWithEdges
350
CED8B
  3
Linepattern
350
CED95
  3
Realistic
350
CED91
  3
Thicken
350
CED94
  0
XRECORD
  5
100FD
102
{ACAD_REACTORS
330
C
102
}
330
C
100
AcDbXrecord
280
     1
 90
   990106
  3

 60
     0
 61
     0
 62
     1
 63
     3
 64
     0
 65
     0
 66
     0
 67
     3
 68
     1
 69
     0
 70
     0
 71
     0
 72
     0
 40
0.0
170
     0
  0
XRECORD
  5
D0C4C
102
{ACAD_REACTORS
330
C
102
}
330
C
100
AcDbXrecord
280
     1
 90
        1
330
FB0
  0
DICTIONARY
  5
59
102
{ACAD_REACTORS
330
C
102
}
330
C
100
AcDbDictionary
281
     1
  3
CANNOSCALE
350
D0C4F
  3
CMLEADERSTYLE
350
D0C4D
  3
CTABLESTYLE
350
100D
  3
DIMASSOC
350
5A
  3
HIDETEXT
350
5E
  3
INDEXCTL
350
D5B1F
  3
LIGHTINGUNITS
350
D0C50
  3
MSLTSCALE
350
D0C4E
  3
SORTENTS
350
D5B1E
  0
DICTIONARY
  5
C2668
102
{ACAD_REACTORS
330
C
102
}
330
C
100
AcDbDictionary
281
     1
  3
ASEBlockHierarchyIndexRecord
350
C2669
1001
DCO15
1040
1779131318.625
  0
XRECORD
  5
D5B63
102
{ACAD_REACTORS
330
C
102
}
330
C
100
AcDbXrecord
280
     1
  1
DWGPROPS COOKIE
  2

  3

  4

  6

  7

  8
Administrator
  9

300
=
301
=
302
=
303
=
304
=
305
=
306
=
307
=
308
=
309
=
 40
8.728524675925925
 41
2454355.343801713
 42
2457938.599126725
  1

 90
        0
  0
DICTIONARY
  5
A9D16
102
{ACAD_REACTORS
330
C
102
}
330
C
100
AcDbDictionary
281
     1
  3
lxx_dimth
350
A9D17
  0
DICTIONARY
  5
176
102
{ACAD_REACTORS
330
AB
102
}
330
AB
100
AcDbDictionary
281
     1
  0
DICTIONARY
  5
AC
102
{ACAD_REACTORS
330
AB
102
}
330
AB
100
AcDbDictionary
281
     1
  0
XRECORD
  5
CF252
102
{ACAD_REACTORS
330
CF251
102
}
330
CF251
100
AcDbXrecord
280
     1
290
     1
  0
XRECORD
  5
CF25A
102
{ACAD_REACTORS
330
CF259
102
}
330
CF259
100
AcDbXrecord
280
     1
290
     1
  0
XRECORD
  5
CF25C
102
{ACAD_REACTORS
330
CF25B
102
}
330
CF25B
100
AcDbXrecord
280
     1
290
     1
  0
XRECORD
  5
CF25E
102
{ACAD_REACTORS
330
CF25D
102
}
330
CF25D
100
AcDbXrecord
280
     1
290
     1
  0
SORTENTSTABLE
  5
118C
102
{ACAD_REACTORS
330
118B
102
}
330
118B
100
AcDbSortentsTable
330
1F
  0
XRECORD
  5
D5B6F
102
{ACAD_REACTORS
330
D5B6E
102
}
330
D5B6E
100
AcDbXrecord
280
     1
 40
57865.0
  1
\A1;{\fGulim|b0|i0|c129|p34;5-\U+22056}
  0
DIMASSOC
  5
D577D
102
{ACAD_REACTORS
330
D577C
102
}
330
D577C
100
AcDbDimAssoc
330
D577B
 90
        3
 70
     0
 71
     0
  1
AcDbOsnapPointRef
 72
     1
331
D576A
 73
     2
 91
        0
 40
1.0
 10
0.0
 20
0.0
 30
2.000000000000000E+50
 75
     0
  1
AcDbOsnapPointRef
 72
     1
331
D576C
 73
     2
 91
        0
 40
1.0
 10
0.0
 20
0.0
 30
2.000000000000000E+50
 75
     0
  0
DIMASSOC
  5
D5780
102
{ACAD_REACTORS
330
D577F
102
}
330
D577F
100
AcDbDimAssoc
330
D577E
 90
        3
 70
     0
 71
     0
  1
AcDbOsnapPointRef
 72
     1
331
D5769
 73
     2
 91
        0
 40
1.0
 10
0.0
 20
0.0
 30
2.000000000000000E+50
 75
     0
  1
AcDbOsnapPointRef
 72
     1
331
D576B
 73
     2
 91
        0
 40
1.0
 10
0.0
 20
0.0
 30
2.000000000000000E+50
 75
     0
  0
DIMASSOC
  5
D5794
102
{ACAD_REACTORS
330
D5793
102
}
330
D5793
100
AcDbDimAssoc
330
D5792
 90
        3
 70
     0
 71
     0
  1
AcDbOsnapPointRef
 72
     2
331
D5766
 73
     2
 91
        0
 40
0.5
 10
0.0
 20
0.0
 30
0.0
 75
     0
  1
AcDbOsnapPointRef
 72
     3
331
D5770
 73
     2
 91
        0
 40
0.0
 10
0.0
 20
0.0
 30
0.0
 75
     0
  0
DIMASSOC
  5
D5797
102
{ACAD_REACTORS
330
D5796
102
}
330
D5796
100
AcDbDimAssoc
330
D5795
 90
        3
 70
     0
 71
     0
  1
AcDbOsnapPointRef
 72
     2
331
D576C
 73
     2
 91
        0
 40
0.5
 10
0.0
 20
0.0
 30
0.0
 75
     0
  1
AcDbOsnapPointRef
 72
     3
331
D5772
 73
     2
 91
        0
 40
0.0
 10
0.0
 20
0.0
 30
0.0
 75
     0
  0
DIMASSOC
  5
D579E
102
{ACAD_REACTORS
330
D579D
102
}
330
D579D
100
AcDbDimAssoc
330
D579C
 90
        2
 70
     0
 71
     0
  1
AcDbOsnapPointRef
 72
     3
331
D5771
 73
     2
 91
        0
 40
0.0
 10
0.0
 20
0.0
 30
0.0
 75
     0
  0
DIMASSOC
  5
D5A27
102
{ACAD_REACTORS
330
D5A1C
102
}
330
D5A1C
100
AcDbDimAssoc
330
D5A0E
 90
        2
 70
     0
 71
     0
  1
AcDbOsnapPointRef
 72
     3
331
D5771
 73
     2
 91
        0
 40
0.0
 10
0.0
 20
0.0
 30
0.0
 75
     0
  0
DIMASSOC
  5
D5A41
102
{ACAD_REACTORS
330
D5A36
102
}
330
D5A36
100
AcDbDimAssoc
330
D5A28
 90
        2
 70
     0
 71
     0
  1
AcDbOsnapPointRef
 72
     3
331
D5773
 73
     2
 91
        0
 40
0.0
 10
0.0
 20
0.0
 30
0.0
 75
     0
  0
DIMASSOC
  5
D5A93
102
{ACAD_REACTORS
330
D5A88
102
}
330
D5A88
100
AcDbDimAssoc
330
D5A7A
 90
        2
 70
     0
 71
     0
  1
AcDbOsnapPointRef
 72
     3
331
D5774
 73
     2
 91
        0
 40
0.0
 10
0.0
 20
0.0
 30
0.0
 75
     0
  0
XRECORD
  5
D5B65
102
{ACAD_REACTORS
330
D5B64
102
}
330
D5B64
100
AcDbXrecord
280
     1
 40
8.0
  0
XRECORD
  5
D5B66
102
{ACAD_REACTORS
330
D5B64
102
}
330
D5B64
100
AcDbXrecord
280
     1
340
15
  0
LAYOUT
  5
22
102
{ACAD_XDICTIONARY
360
D5B67
102
}
102
{ACAD_REACTORS
330
1A
102
}
330
1A
100
AcDbPlotSettings
  1

  2
\\PC-201204061032\Canon LBP2900
  4
A4
  6

 40
5.873749732971191
 41
6.805091857910156
 42
5.873748779296875
 43
4.857757568359375
 44
209.9733276367186
 45
296.9259948730469
 46
-5.889999999999998
 47
-5.87
 48
85766.02374884076
 49
-163980.7810393121
140
88736.02374884079
141
-161880.7810393122
142
1.0
143
10.0
 70
 11940
 72
     1
 73
     1
 74
     4
  7
monochrome.ctb
 75
     0
147
0.1
148
-85766.02374884076
149
163980.7810393121
100
AcDbLayout
  1
Model
 70
     1
 71
     0
 10
0.0
 20
0.0
 11
12.0
 21
9.0
 12
0.0
 22
0.0
 32
0.0
 14
0.0
 24
0.0
 34
0.0
 15
0.0
 25
0.0
 35
0.0
146
0.0
 13
0.0
 23
0.0
 33
0.0
 16
1.0
 26
0.0
 36
0.0
 17
0.0
 27
1.0
 37
0.0
 76
     0
330
1F
331
CED6D
  0
LAYOUT
  5
74
102
{ACAD_XDICTIONARY
360
D5B69
102
}
102
{ACAD_REACTORS
330
1A
102
}
330
1A
100
AcDbPlotSettings
  1

  2
\\ADSCCNDC1\hq601xrx1
  4

  6

 40
0.0
 41
0.0
 42
0.0
 43
0.0
 44
0.0
 45
0.0
 46
0.0
 47
0.0
 48
0.0
 49
0.0
140
0.0
141
0.0
142
1.0
143
1.0
 70
   688
 72
     0
 73
     0
 74
     5
  7
monochrome.ctb
 75
    16
147
1.0
148
0.0
149
0.0
100
AcDbLayout
  1
布局1
 70
     1
 71
     1
 10
0.0
 20
0.0
 11
12.0
 21
9.0
 12
0.0
 22
0.0
 32
0.0
 14
0.0
 24
0.0
 34
0.0
 15
0.0
 25
0.0
 35
0.0
146
0.0
 13
0.0
 23
0.0
 33
0.0
 16
1.0
 26
0.0
 36
0.0
 17
0.0
 27
1.0
 37
0.0
 76
     0
330
73
  0
LAYOUT
  5
79
102
{ACAD_XDICTIONARY
360
D5B6B
102
}
102
{ACAD_REACTORS
330
1A
102
}
330
1A
100
AcDbPlotSettings
  1

  2
\\ADSCCNDC1\hq601xrx1
  4

  6

 40
0.0
 41
0.0
 42
0.0
 43
0.0
 44
0.0
 45
0.0
 46
0.0
 47
0.0
 48
0.0
 49
0.0
140
0.0
141
0.0
142
1.0
143
1.0
 70
   688
 72
     0
 73
     0
 74
     5
  7
monochrome.ctb
 75
    16
147
1.0
148
0.0
149
0.0
100
AcDbLayout
  1
布局2
 70
     1
 71
     2
 10
0.0
 20
0.0
 11
12.0
 21
9.0
 12
0.0
 22
0.0
 32
0.0
 14
0.0
 24
0.0
 34
0.0
 15
0.0
 25
0.0
 35
0.0
146
0.0
 13
0.0
 23
0.0
 33
0.0
 16
1.0
 26
0.0
 36
0.0
 17
0.0
 27
1.0
 37
0.0
 76
     0
330
78
  0
MATERIAL
  5
CED77
102
{ACAD_XDICTIONARY
360
CED78
102
}
102
{ACAD_REACTORS
330
6B
102
}
330
6B
100
AcDbMaterial
  1
ByBlock
 72
     0
 43
0.0208333333333333
 43
0.0
 43
0.0
 43
0.0
 43
0.0
 43
0.0208333333333333
 43
0.0
 43
0.0
 43
0.0
 43
0.0
 43
1.0
 43
0.0
 43
0.0
 43
0.0
 43
0.0
 43
1.0
 77
     0
 47
0.0208333333333333
 47
0.0
 47
0.0
 47
0.0
 47
0.0
 47
0.0208333333333333
 47
0.0
 47
0.0
 47
0.0
 47
0.0
 47
1.0
 47
0.0
 47
0.0
 47
0.0
 47
0.0
 47
1.0
171
     0
 49
0.0208333333333333
 49
0.0
 49
0.0
 49
0.0
 49
0.0
 49
0.0208333333333333
 49
0.0
 49
0.0
 49
0.0
 49
0.0
 49
1.0
 49
0.0
 49
0.0
 49
0.0
 49
0.0
 49
1.0
175
     0
142
0.0208333333333333
142
0.0
142
0.0
142
0.0
142
0.0
142
0.0208333333333333
142
0.0
142
0.0
142
0.0
142
0.0
142
1.0
142
0.0
142
0.0
142
0.0
142
0.0
142
1.0
179
     0
144
0.0208333333333333
144
0.0
144
0.0
144
0.0
144
0.0
144
0.0208333333333333
144
0.0
144
0.0
144
0.0
144
0.0
144
1.0
144
0.0
144
0.0
144
0.0
144
0.0
144
1.0
147
0.0208333333333333
147
0.0
147
0.0
147
0.0
147
0.0
147
0.0208333333333333
147
0.0
147
0.0
147
0.0
147
0.0
147
1.0
147
0.0
147
0.0
147
0.0
147
0.0
147
1.0
  0
MATERIAL
  5
CED6F
102
{ACAD_XDICTIONARY
360
CED70
102
}
102
{ACAD_REACTORS
330
6B
102
}
330
6B
100
AcDbMaterial
  1
ByLayer
 72
     0
 43
0.0208333333333333
 43
0.0
 43
0.0
 43
0.0
 43
0.0
 43
0.0208333333333333
 43
0.0
 43
0.0
 43
0.0
 43
0.0
 43
1.0
 43
0.0
 43
0.0
 43
0.0
 43
0.0
 43
1.0
 77
     0
 47
0.0208333333333333
 47
0.0
 47
0.0
 47
0.0
 47
0.0
 47
0.0208333333333333
 47
0.0
 47
0.0
 47
0.0
 47
0.0
 47
1.0
 47
0.0
 47
0.0
 47
0.0
 47
0.0
 47
1.0
171
     0
 49
0.0208333333333333
 49
0.0
 49
0.0
 49
0.0
 49
0.0
 49
0.0208333333333333
 49
0.0
 49
0.0
 49
0.0
 49
0.0
 49
1.0
 49
0.0
 49
0.0
 49
0.0
 49
0.0
 49
1.0
175
     0
142
0.0208333333333333
142
0.0
142
0.0
142
0.0
142
0.0
142
0.0208333333333333
142
0.0
142
0.0
142
0.0
142
0.0
142
1.0
142
0.0
142
0.0
142
0.0
142
0.0
142
1.0
179
     0
144
0.0208333333333333
144
0.0
144
0.0
144
0.0
144
0.0
144
0.0208333333333333
144
0.0
144
0.0
144
0.0
144
0.0
144
1.0
144
0.0
144
0.0
144
0.0
144
0.0
144
1.0
147
0.0208333333333333
147
0.0
147
0.0
147
0.0
147
0.0
147
0.0208333333333333
147
0.0
147
0.0
147
0.0
147
0.0
147
1.0
147
0.0
147
0.0
147
0.0
147
0.0
147
1.0
  0
MATERIAL
  5
CED7F
102
{ACAD_XDICTIONARY
360
CED80
102
}
102
{ACAD_REACTORS
330
6B
102
}
330
6B
100
AcDbMaterial
  1
Global
 72
     0
 43
0.0208333333333333
 43
0.0
 43
0.0
 43
0.0
 43
0.0
 43
0.0208333333333333
 43
0.0
 43
0.0
 43
0.0
 43
0.0
 43
1.0
 43
0.0
 43
0.0
 43
0.0
 43
0.0
 43
1.0
 77
     0
 47
0.0208333333333333
 47
0.0
 47
0.0
 47
0.0
 47
0.0
 47
0.0208333333333333
 47
0.0
 47
0.0
 47
0.0
 47
0.0
 47
1.0
 47
0.0
 47
0.0
 47
0.0
 47
0.0
 47
1.0
171
     0
 49
0.0208333333333333
 49
0.0
 49
0.0
 49
0.0
 49
0.0
 49
0.0208333333333333
 49
0.0
 49
0.0
 49
0.0
 49
0.0
 49
1.0
 49
0.0
 49
0.0
 49
0.0
 49
0.0
 49
1.0
175
     0
142
0.0208333333333333
142
0.0
142
0.0
142
0.0
142
0.0
142
0.0208333333333333
142
0.0
142
0.0
142
0.0
142
0.0
142
1.0
142
0.0
142
0.0
142
0.0
142
0.0
142
1.0
179
     0
144
0.0208333333333333
144
0.0
144
0.0
144
0.0
144
0.0
144
0.0208333333333333
144
0.0
144
0.0
144
0.0
144
0.0
144
1.0
144
0.0
144
0.0
144
0.0
144
0.0
144
1.0
147
0.0208333333333333
147
0.0
147
0.0
147
0.0
147
0.0
147
0.0208333333333333
147
0.0
147
0.0
147
0.0
147
0.0
147
1.0
147
0.0
147
0.0
147
0.0
147
0.0
147
1.0
  0
MLEADERSTYLE
  5
CEDBB
102
{ACAD_REACTORS
330
CEDBA
102
}
330
CEDBA
100
AcDbMLeaderStyle
170
     2
171
     1
172
     0
 90
        2
 40
0.0
 41
0.0
173
     1
 91
-1056964608
340
14
 92
       -2
290
     1
 42
0.09
291
     1
 43
0.36
  3
Standard
 44
0.18
300

342
11
174
     1
178
     6
175
     1
176
     0
 93
-1056964608
 45
0.18
292
     0
297
     0
 46
0.18
 94
-1056964608
 47
1.0
 49
1.0
140
1.0
293
     1
141
0.0
294
     1
177
     0
142
1.0
295
     0
296
     0
143
0.125
1001
ACAD_MLEADERVER
1070
     2
  0
MLINESTYLE
  5
18
102
{ACAD_REACTORS
330
17
102
}
330
17
100
AcDbMlineStyle
  2
STANDARD
 70
     0
  3

 62
   256
 51
90.0
 52
90.0
 71
     2
 49
0.5
 62
   256
  6
BYLAYER
 49
-0.5
 62
   256
  6
BYLAYER
  0
ACDBPLACEHOLDER
  5
F
102
{ACAD_REACTORS
330
E
102
}
330
E
  0
SCALE
  5
CED99
102
{ACAD_REACTORS
330
CED98
102
}
330
CED98
100
AcDbScale
 70
     0
300
1:1
140
1.0
141
1.0
290
     1
  0
SCALE
  5
CED9A
102
{ACAD_REACTORS
330
CED98
102
}
330
CED98
100
AcDbScale
 70
     0
300
1:2
140
1.0
141
2.0
290
     0
  0
SCALE
  5
CED9B
102
{ACAD_REACTORS
330
CED98
102
}
330
CED98
100
AcDbScale
 70
     0
300
1:4
140
1.0
141
4.0
290
     0
  0
SCALE
  5
CED9C
102
{ACAD_REACTORS
330
CED98
102
}
330
CED98
100
AcDbScale
 70
     0
300
1:5
140
1.0
141
5.0
290
     0
  0
SCALE
  5
CED9D
102
{ACAD_REACTORS
330
CED98
102
}
330
CED98
100
AcDbScale
 70
     0
300
1:8
140
1.0
141
8.0
290
     0
  0
SCALE
  5
CED9E
102
{ACAD_REACTORS
330
CED98
102
}
330
CED98
100
AcDbScale
 70
     0
300
1:10
140
1.0
141
10.0
290
     0
  0
SCALE
  5
CED9F
102
{ACAD_REACTORS
330
CED98
102
}
330
CED98
100
AcDbScale
 70
     0
300
1:16
140
1.0
141
16.0
290
     0
  0
SCALE
  5
CEDA0
102
{ACAD_REACTORS
330
CED98
102
}
330
CED98
100
AcDbScale
 70
     0
300
1:20
140
1.0
141
20.0
290
     0
  0
SCALE
  5
CEDA1
102
{ACAD_REACTORS
330
CED98
102
}
330
CED98
100
AcDbScale
 70
     0
300
1:30
140
1.0
141
30.0
290
     0
  0
SCALE
  5
CEDA2
102
{ACAD_REACTORS
330
CED98
102
}
330
CED98
100
AcDbScale
 70
     0
300
1:40
140
1.0
141
40.0
290
     0
  0
SCALE
  5
CEDA3
102
{ACAD_REACTORS
330
CED98
102
}
330
CED98
100
AcDbScale
 70
     0
300
1:50
140
1.0
141
50.0
290
     0
  0
SCALE
  5
CEDA4
102
{ACAD_REACTORS
330
CED98
102
}
330
CED98
100
AcDbScale
 70
     0
300
1:100
140
1.0
141
100.0
290
     0
  0
SCALE
  5
CEDA5
102
{ACAD_REACTORS
330
CED98
102
}
330
CED98
100
AcDbScale
 70
     0
300
2:1
140
2.0
141
1.0
290
     0
  0
SCALE
  5
CEDA6
102
{ACAD_REACTORS
330
CED98
102
}
330
CED98
100
AcDbScale
 70
     0
300
4:1
140
4.0
141
1.0
290
     0
  0
SCALE
  5
CEDA7
102
{ACAD_REACTORS
330
CED98
102
}
330
CED98
100
AcDbScale
 70
     0
300
8:1
140
8.0
141
1.0
290
     0
  0
SCALE
  5
CEDA8
102
{ACAD_REACTORS
330
CED98
102
}
330
CED98
100
AcDbScale
 70
     0
300
10:1
140
10.0
141
1.0
290
     0
  0
SCALE
  5
CEDA9
102
{ACAD_REACTORS
330
CED98
102
}
330
CED98
100
AcDbScale
 70
     0
300
100:1
140
100.0
141
1.0
290
     0
  0
SCALE
  5
CEDAA
102
{ACAD_REACTORS
330
CED98
102
}
330
CED98
100
AcDbScale
 70
     0
300
1/128" = 1'-0"
140
0.0078125
141
12.0
290
     0
  0
SCALE
  5
CEDAB
102
{ACAD_REACTORS
330
CED98
102
}
330
CED98
100
AcDbScale
 70
     0
300
1/64" = 1'-0"
140
0.015625
141
12.0
290
     0
  0
SCALE
  5
CEDAC
102
{ACAD_REACTORS
330
CED98
102
}
330
CED98
100
AcDbScale
 70
     0
300
1/32" = 1'-0"
140
0.03125
141
12.0
290
     0
  0
SCALE
  5
CEDAD
102
{ACAD_REACTORS
330
CED98
102
}
330
CED98
100
AcDbScale
 70
     0
300
1/16" = 1'-0"
140
0.0625
141
12.0
290
     0
  0
SCALE
  5
CEDAE
102
{ACAD_REACTORS
330
CED98
102
}
330
CED98
100
AcDbScale
 70
     0
300
3/32" = 1'-0"
140
0.09375
141
12.0
290
     0
  0
SCALE
  5
CEDAF
102
{ACAD_REACTORS
330
CED98
102
}
330
CED98
100
AcDbScale
 70
     0
300
1/8" = 1'-0"
140
0.125
141
12.0
290
     0
  0
SCALE
  5
CEDB0
102
{ACAD_REACTORS
330
CED98
102
}
330
CED98
100
AcDbScale
 70
     0
300
3/16" = 1'-0"
140
0.1875
141
12.0
290
     0
  0
SCALE
  5
CEDB1
102
{ACAD_REACTORS
330
CED98
102
}
330
CED98
100
AcDbScale
 70
     0
300
1/4" = 1'-0"
140
0.25
141
12.0
290
     0
  0
SCALE
  5
CEDB2
102
{ACAD_REACTORS
330
CED98
102
}
330
CED98
100
AcDbScale
 70
     0
300
3/8" = 1'-0"
140
0.375
141
12.0
290
     0
  0
SCALE
  5
CEDB3
102
{ACAD_REACTORS
330
CED98
102
}
330
CED98
100
AcDbScale
 70
     0
300
1/2" = 1'-0"
140
0.5
141
12.0
290
     0
  0
SCALE
  5
CEDB4
102
{ACAD_REACTORS
330
CED98
102
}
330
CED98
100
AcDbScale
 70
     0
300
3/4" = 1'-0"
140
0.75
141
12.0
290
     0
  0
SCALE
  5
CEDB5
102
{ACAD_REACTORS
330
CED98
102
}
330
CED98
100
AcDbScale
 70
     0
300
1" = 1'-0"
140
1.0
141
12.0
290
     0
  0
SCALE
  5
CEDB6
102
{ACAD_REACTORS
330
CED98
102
}
330
CED98
100
AcDbScale
 70
     0
300
1-1/2" = 1'-0"
140
1.5
141
12.0
290
     0
  0
SCALE
  5
CEDB7
102
{ACAD_REACTORS
330
CED98
102
}
330
CED98
100
AcDbScale
 70
     0
300
3" = 1'-0"
140
3.0
141
12.0
290
     0
  0
SCALE
  5
CEDB8
102
{ACAD_REACTORS
330
CED98
102
}
330
CED98
100
AcDbScale
 70
     0
300
6" = 1'-0"
140
6.0
141
12.0
290
     0
  0
SCALE
  5
CEDB9
102
{ACAD_REACTORS
330
CED98
102
}
330
CED98
100
AcDbScale
 70
     0
300
1'-0" = 1'-0"
140
12.0
141
12.0
290
     0
  0
TABLESTYLE
  5
FB0
102
{ACAD_XDICTIONARY
360
D0C45
102
}
102
{ACAD_REACTORS
330
FAF
102
}
330
FAF
100
AcDbTableStyle
  3
Standard
 70
     0
 71
     0
 40
0.06
 41
0.06
280
     0
281
     0
  7
Standard
140
0.18
170
     2
 62
     0
 63
     7
283
     0
274
    -2
284
     1
 64
     0
275
    -2
285
     1
 65
     0
276
    -2
286
     1
 66
     0
277
    -2
287
     1
 67
     0
278
    -2
288
     1
 68
     0
279
    -2
289
     1
 69
     0
  7
Standard
140
0.25
170
     5
 62
     0
 63
     7
283
     0
274
    -2
284
     1
 64
     0
275
    -2
285
     1
 65
     0
276
    -2
286
     1
 66
     0
277
    -2
287
     1
 67
     0
278
    -2
288
     1
 68
     0
279
    -2
289
     1
 69
     0
  7
Standard
140
0.18
170
     5
 62
     0
 63
     7
283
     0
274
    -2
284
     1
 64
     0
275
    -2
285
     1
 65
     0
276
    -2
286
     1
 66
     0
277
    -2
287
     1
 67
     0
278
    -2
288
     1
 68
     0
279
    -2
289
     1
 69
     0
  0
VISUALSTYLE
  5
CED8D
102
{ACAD_REACTORS
330
CED87
102
}
330
CED87
100
AcDbVisualStyle
  2
2dWireframe
 70
     4
 71
     0
 72
     2
 73
     0
 90
        0
 40
-0.6
 41
-30.0
 62
     5
 63
     7
 74
     1
 91
        4
 64
     7
 65
   257
 75
     1
175
     1
 42
1.0
 92
        0
 66
   257
 43
1.0
 76
     1
 77
     6
 78
     2
 67
     7
 79
     5
170
     0
171
     0
290
     0
174
     0
 93
        1
 44
0.0
173
     0
291
     0
 45
0.0
1001
ACAD
1000
AcDbSavedByObjectVersion
1070
     0
1000
AcDbSavedByObjectVersion
1070
     0
  0
VISUALSTYLE
  5
CED8F
102
{ACAD_REACTORS
330
CED87
102
}
330
CED87
100
AcDbVisualStyle
  2
3D Hidden
 70
     6
 71
     1
 72
     2
 73
     2
 90
        0
 40
-0.6
 41
-30.0
 62
     5
 63
     7
 74
     2
 91
        2
 64
     7
 65
   257
 75
     2
175
     1
 42
40.0
 92
        0
 66
   257
 43
1.0
 76
     1
 77
     6
 78
     2
 67
     7
 79
     3
170
     0
171
     0
290
     0
174
     0
 93
        1
 44
0.0
173
     0
291
     0
 45
0.0
1001
ACAD
1000
AcDbSavedByObjectVersion
1070
     0
1000
AcDbSavedByObjectVersion
1070
     0
  0
VISUALSTYLE
  5
CED8E
102
{ACAD_REACTORS
330
CED87
102
}
330
CED87
100
AcDbVisualStyle
  2
3dWireframe
 70
     5
 71
     0
 72
     2
 73
     0
 90
        0
 40
-0.6
 41
-30.0
 62
     5
 63
     7
 74
     1
 91
        4
 64
     7
 65
   257
 75
     1
175
     1
 42
1.0
 92
        0
 66
   257
 43
1.0
 76
     1
 77
     6
 78
     2
 67
     7
 79
     5
170
     0
171
     0
290
     0
174
     0
 93
        1
 44
0.0
173
     0
291
     0
 45
0.0
1001
ACAD
1000
AcDbSavedByObjectVersion
1070
     0
1000
AcDbSavedByObjectVersion
1070
     0
  0
VISUALSTYLE
  5
CED8C
102
{ACAD_REACTORS
330
CED87
102
}
330
CED87
100
AcDbVisualStyle
  2
Basic
 70
     7
 71
     1
 72
     0
 73
     1
 90
        0
 40
-0.6
 41
-30.0
 62
     5
 63
     7
 74
     0
 91
        4
 64
     7
 65
   257
 75
     1
175
     1
 42
1.0
 92
        8
 66
     7
 43
1.0
 76
     1
 77
     6
 78
     2
 67
     7
 79
     5
170
     0
171
     0
290
     0
174
     0
 93
        1
 44
0.0
173
     0
291
     1
 45
0.0
1001
ACAD
1000
AcDbSavedByObjectVersion
1070
     0
1000
AcDbSavedByObjectVersion
1070
     0
  0
VISUALSTYLE
  5
CED93
102
{ACAD_REACTORS
330
CED87
102
}
330
CED87
100
AcDbVisualStyle
  2
Brighten
 70
    12
 71
     2
 72
     2
 73
     0
 90
        0
 40
-0.6
 41
-30.0
 62
     5
 63
     7
 74
     1
 91
        4
 64
     7
 65
   257
 75
     1
175
     1
 42
1.0
 92
        8
 66
     7
 43
1.0
 76
     1
 77
     6
 78
     2
 67
     7
 79
     5
170
     0
171
     0
290
     0
174
     0
 93
        1
 44
50.0
173
     0
291
     1
 45
0.0
1001
ACAD
1000
AcDbSavedByObjectVersion
1070
     0
1000
AcDbSavedByObjectVersion
1070
     0
  0
VISUALSTYLE
  5
CED97
102
{ACAD_REACTORS
330
CED87
102
}
330
CED87
100
AcDbVisualStyle
  2
ColorChange
 70
    16
 71
     2
 72
     2
 73
     3
 90
        0
 40
-0.6
 41
-30.0
 62
     5
 63
     8
 74
     1
 91
        4
 64
     7
 65
   257
 75
     1
175
     1
 42
1.0
 92
        8
 66
     8
 43
1.0
 76
     1
 77
     6
 78
     2
 67
     7
 79
     5
170
     0
171
     0
290
     0
174
     0
 93
        1
 44
0.0
173
     0
291
     1
 45
0.0
1001
ACAD
1000
AcDbSavedByObjectVersion
1070
     0
1000
AcDbSavedByObjectVersion
1070
     0
  0
VISUALSTYLE
  5
CED90
102
{ACAD_REACTORS
330
CED87
102
}
330
CED87
100
AcDbVisualStyle
  2
Conceptual
 70
     9
 71
     3
 72
     2
 73
     0
 90
        0
 40
-0.6
 41
-30.0
 62
     5
 63
     7
 74
     2
 91
        2
 64
     7
 65
   257
 75
     1
175
     1
 42
40.0
 92
        8
 66
     7
 43
1.0
 76
     1
 77
     6
 78
     2
 67
     7
 79
     3
170
     0
171
     0
290
     0
174
     0
 93
        1
 44
0.0
173
     0
291
     0
 45
0.0
1001
ACAD
1000
AcDbSavedByObjectVersion
1070
     0
1000
AcDbSavedByObjectVersion
1070
     0
  0
VISUALSTYLE
  5
CED92
102
{ACAD_REACTORS
330
CED87
102
}
330
CED87
100
AcDbVisualStyle
  2
Dim
 70
    11
 71
     2
 72
     2
 73
     0
 90
        0
 40
-0.6
 41
-30.0
 62
     5
 63
     7
 74
     1
 91
        4
 64
     7
 65
   257
 75
     1
175
     1
 42
1.0
 92
        8
 66
     7
 43
1.0
 76
     1
 77
     6
 78
     2
 67
     7
 79
     5
170
     0
171
     0
290
     0
174
     0
 93
        1
 44
-50.0
173
     0
291
     1
 45
0.0
1001
ACAD
1000
AcDbSavedByObjectVersion
1070
     0
1000
AcDbSavedByObjectVersion
1070
     0
  0
VISUALSTYLE
  5
CED96
102
{ACAD_REACTORS
330
CED87
102
}
330
CED87
100
AcDbVisualStyle
  2
Facepattern
 70
    15
 71
     2
 72
     2
 73
     0
 90
        0
 40
-0.6
 41
-30.0
 62
     5
 63
     7
 74
     1
 91
        4
 64
     7
 65
   257
 75
     1
175
     1
 42
1.0
 92
        8
 66
     7
 43
1.0
 76
     1
 77
     6
 78
     2
 67
     7
 79
     5
170
     0
171
     0
290
     0
174
     0
 93
        1
 44
0.0
173
     0
291
     1
 45
0.0
1001
ACAD
1000
AcDbSavedByObjectVersion
1070
     0
1000
AcDbSavedByObjectVersion
1070
     0
  0
VISUALSTYLE
  5
CED88
102
{ACAD_REACTORS
330
CED87
102
}
330
CED87
100
AcDbVisualStyle
  2
Flat
 70
     0
 71
     2
 72
     1
 73
     1
 90
        2
 40
-0.6
 41
30.0
 62
     5
 63
     7
 74
     0
 91
        4
 64
     7
 65
   257
 75
     1
175
     1
 42
1.0
 92
        8
 66
     7
 43
1.0
 76
     1
 77
     6
 78
     2
 67
     7
 79
     5
170
     0
171
     0
290
     0
174
     0
 93
       13
 44
0.0
173
     0
291
     1
 45
0.0
1001
ACAD
1000
AcDbSavedByObjectVersion
1070
     0
1000
AcDbSavedByObjectVersion
1070
     0
  0
VISUALSTYLE
  5
CED89
102
{ACAD_REACTORS
330
CED87
102
}
330
CED87
100
AcDbVisualStyle
  2
FlatWithEdges
 70
     1
 71
     2
 72
     1
 73
     1
 90
        2
 40
-0.6
 41
30.0
 62
     5
 63
     7
 74
     1
 91
        4
 64
     7
 65
   257
 75
     1
175
     1
 42
1.0
 92
        0
 66
   257
 43
1.0
 76
     1
 77
     6
 78
     2
 67
     7
 79
     5
170
     0
171
     0
290
     0
174
     0
 93
       13
 44
0.0
173
     0
291
     1
 45
0.0
1001
ACAD
1000
AcDbSavedByObjectVersion
1070
     0
1000
AcDbSavedByObjectVersion
1070
     0
  0
VISUALSTYLE
  5
CED8A
102
{ACAD_REACTORS
330
CED87
102
}
330
CED87
100
AcDbVisualStyle
  2
Gouraud
 70
     2
 71
     2
 72
     2
 73
     1
 90
        2
 40
-0.6
 41
30.0
 62
     5
 63
     7
 74
     0
 91
        4
 64
     7
 65
   257
 75
     1
175
     1
 42
1.0
 92
        0
 66
     7
 43
1.0
 76
     1
 77
     6
 78
     2
 67
     7
 79
     5
170
     0
171
     0
290
     0
174
     0
 93
       13
 44
0.0
173
     0
291
     1
 45
0.0
1001
ACAD
1000
AcDbSavedByObjectVersion
1070
     0
1000
AcDbSavedByObjectVersion
1070
     0
  0
VISUALSTYLE
  5
CED8B
102
{ACAD_REACTORS
330
CED87
102
}
330
CED87
100
AcDbVisualStyle
  2
GouraudWithEdges
 70
     3
 71
     2
 72
     2
 73
     1
 90
        2
 40
-0.6
 41
30.0
 62
     5
 63
     7
 74
     1
 91
        4
 64
     7
 65
   257
 75
     1
175
     1
 42
1.0
 92
        0
 66
   257
 43
1.0
 76
     1
 77
     6
 78
     2
 67
     7
 79
     5
170
     0
171
     0
290
     0
174
     0
 93
       13
 44
0.0
173
     0
291
     1
 45
0.0
1001
ACAD
1000
AcDbSavedByObjectVersion
1070
     0
1000
AcDbSavedByObjectVersion
1070
     0
  0
VISUALSTYLE
  5
CED95
102
{ACAD_REACTORS
330
CED87
102
}
330
CED87
100
AcDbVisualStyle
  2
Linepattern
 70
    14
 71
     2
 72
     2
 73
     0
 90
        0
 40
-0.6
 41
-30.0
 62
     5
 63
     7
 74
     1
 91
        4
 64
     7
 65
   257
 75
     7
175
     7
 42
1.0
 92
        8
 66
     7
 43
1.0
 76
     1
 77
     6
 78
     2
 67
     7
 79
     5
170
     0
171
     0
290
     0
174
     0
 93
        1
 44
0.0
173
     0
291
     1
 45
0.0
1001
ACAD
1000
AcDbSavedByObjectVersion
1070
     0
1000
AcDbSavedByObjectVersion
1070
     0
  0
VISUALSTYLE
  5
CED91
102
{ACAD_REACTORS
330
CED87
102
}
330
CED87
100
AcDbVisualStyle
  2
Realistic
 70
     8
 71
     2
 72
     2
 73
     0
 90
        0
 40
-0.6
 41
-30.0
 62
     5
 63
     7
 74
     1
 91
        0
 64
     7
 65
   257
 75
     1
175
     1
 42
1.0
 92
        8
 66
     8
 43
1.0
 76
     1
 77
     6
 78
     2
 67
     7
 79
     5
170
     0
171
     0
290
     0
174
     0
 93
       13
 44
0.0
173
     0
291
     0
 45
0.0
1001
ACAD
1000
AcDbSavedByObjectVersion
1070
     0
1000
AcDbSavedByObjectVersion
1070
     0
  0
VISUALSTYLE
  5
CED94
102
{ACAD_REACTORS
330
CED87
102
}
330
CED87
100
AcDbVisualStyle
  2
Thicken
 70
    13
 71
     2
 72
     2
 73
     0
 90
        0
 40
-0.6
 41
-30.0
 62
     5
 63
     7
 74
     1
 91
        4
 64
     7
 65
   257
 75
     1
175
     1
 42
1.0
 92
       12
 66
     7
 43
1.0
 76
     1
 77
     6
 78
     2
 67
     7
 79
     5
170
     0
171
     0
290
     0
174
     0
 93
        1
 44
0.0
173
     0
291
     1
 45
0.0
1001
ACAD
1000
AcDbSavedByObjectVersion
1070
     0
1000
AcDbSavedByObjectVersion
1070
     0
  0
DICTIONARYVAR
  5
D0C4F
102
{ACAD_REACTORS
330
59
102
}
330
59
100
DictionaryVariables
280
     0
  1
1:1
  0
DICTIONARYVAR
  5
D0C4D
102
{ACAD_REACTORS
330
59
102
}
330
59
100
DictionaryVariables
280
     0
  1
STANDARD
  0
DICTIONARYVAR
  5
100D
102
{ACAD_REACTORS
330
59
102
}
330
59
100
DictionaryVariables
280
     0
  1
STANDARD
  0
DICTIONARYVAR
  5
5A
102
{ACAD_REACTORS
330
59
102
}
330
59
100
DictionaryVariables
280
     0
  1
2
  0
DICTIONARYVAR
  5
5E
102
{ACAD_REACTORS
330
59
102
}
330
59
100
DictionaryVariables
280
     0
  1
1
  0
DICTIONARYVAR
  5
D5B1F
102
{ACAD_REACTORS
330
59
102
}
330
59
100
DictionaryVariables
280
     0
  1
0
  0
DICTIONARYVAR
  5
D0C50
102
{ACAD_REACTORS
330
59
102
}
330
59
100
DictionaryVariables
280
     0
  1
0
  0
DICTIONARYVAR
  5
D0C4E
102
{ACAD_REACTORS
330
59
102
}
330
59
100
DictionaryVariables
280
     0
  1
0
  0
DICTIONARYVAR
  5
D5B1E
102
{ACAD_REACTORS
330
59
102
}
330
59
100
DictionaryVariables
280
     0
  1
127
  0
XRECORD
  5
C2669
102
{ACAD_REACTORS
330
C2668
102
}
330
C2668
100
AcDbXrecord
280
     1
330
0
330
0
330
0
330
0
330
0
330
0
330
0
330
0
330
0
330
0
330
0
330
0
330
0
330
0
330
0
330
0
330
0
330
0
330
0
330
0
330
0
330
0
330
0
330
0
330
0
330
0
330
0
330
0
330
0
330
0
330
0
330
0
330
0
  0
VLO-VL
  5
A9D17
102
{ACAD_REACTORS
330
A9D16
102
}
330
A9D16
100
vlo_VL
 90
   -64512
 91
       12
 92
        1
 40
2.5
300
(&VLO-R . 0)
  0
DICTIONARY
  5
D5B67
330
22
100
AcDbDictionary
280
     1
281
     1
  3
ACAD_XREC_ROUNDTRIP
360
D5B68
  0
DICTIONARY
  5
D5B69
330
74
100
AcDbDictionary
280
     1
281
     1
  3
ACAD_XREC_ROUNDTRIP
360
D5B6A
  0
DICTIONARY
  5
D5B6B
330
79
100
AcDbDictionary
280
     1
281
     1
  3
ACAD_XREC_ROUNDTRIP
360
D5B6C
  0
DICTIONARY
  5
CED78
330
CED77
100
AcDbDictionary
280
     1
281
     1
  3
ACAD_XREC_ROUNDTRIP
360
D5B3E
  3
BUMPTILE
360
CED7A
  3
DIFFUSETILE
360
CED79
  3
OPACITYTILE
360
CED7D
  3
REFLECTIONTILE
360
CED7C
  3
REFRACTIONTILE
360
CED7E
  3
SPECULARTILE
360
CED7B
  0
DICTIONARY
  5
CED70
330
CED6F
100
AcDbDictionary
280
     1
281
     1
  3
ACAD_XREC_ROUNDTRIP
360
D5B3D
  3
BUMPTILE
360
CED72
  3
DIFFUSETILE
360
CED71
  3
OPACITYTILE
360
CED75
  3
REFLECTIONTILE
360
CED74
  3
REFRACTIONTILE
360
CED76
  3
SPECULARTILE
360
CED73
  0
DICTIONARY
  5
CED80
330
CED7F
100
AcDbDictionary
280
     1
281
     1
  3
ACAD_XREC_ROUNDTRIP
360
D5B3F
  3
BUMPTILE
360
CED82
  3
DIFFUSETILE
360
CED81
  3
OPACITYTILE
360
CED85
  3
REFLECTIONTILE
360
CED84
  3
REFRACTIONTILE
360
CED86
  3
SPECULARTILE
360
CED83
  0
DICTIONARY
  5
D0C45
330
FB0
100
AcDbDictionary
280
     1
281
     1
  3
ACAD_ROUNDTRIP_2008_TABLESTYLE_CELLSTYLEMAP
360
D5B62
  3
ACAD_XREC_ROUNDTRIP
360
D5B6D
  0
XRECORD
  5
D5B68
102
{ACAD_REACTORS
330
D5B67
102
}
330
D5B67
100
AcDbXrecord
280
     1
102
SHADEPLOT
 70
     0
102
SHADEPLOTRESLEVEL
 70
     2
102
SHADEPLOTCUSTOMDPI
 70
   300
  0
XRECORD
  5
D5B6A
102
{ACAD_REACTORS
330
D5B69
102
}
330
D5B69
100
AcDbXrecord
280
     1
102
SHADEPLOT
 70
     0
102
SHADEPLOTRESLEVEL
 70
     2
102
SHADEPLOTCUSTOMDPI
 70
   300
  0
XRECORD
  5
D5B6C
102
{ACAD_REACTORS
330
D5B6B
102
}
330
D5B6B
100
AcDbXrecord
280
     1
102
SHADEPLOT
 70
     0
102
SHADEPLOTRESLEVEL
 70
     2
102
SHADEPLOTCUSTOMDPI
 70
   300
  0
XRECORD
  5
D5B3E
102
{ACAD_REACTORS
330
CED78
102
}
330
CED78
100
AcDbXrecord
280
     1
102
MATERIAL
148
0.0
149
0.0
149
0.0
 93
        0
 94
      127
282
     0
 72
     0
 77
     0
171
     0
175
     0
179
     0
273
     0
  0
XRECORD
  5
CED7A
102
{ACAD_REACTORS
330
CED78
102
}
330
CED78
100
AcDbXrecord
280
     1
270
     1
271
     1
  0
XRECORD
  5
CED79
102
{ACAD_REACTORS
330
CED78
102
}
330
CED78
100
AcDbXrecord
280
     1
270
     1
271
     1
  0
XRECORD
  5
CED7D
102
{ACAD_REACTORS
330
CED78
102
}
330
CED78
100
AcDbXrecord
280
     1
270
     1
271
     1
  0
XRECORD
  5
CED7C
102
{ACAD_REACTORS
330
CED78
102
}
330
CED78
100
AcDbXrecord
280
     1
270
     1
271
     1
  0
XRECORD
  5
CED7E
102
{ACAD_REACTORS
330
CED78
102
}
330
CED78
100
AcDbXrecord
280
     1
270
     1
271
     1
  0
XRECORD
  5
CED7B
102
{ACAD_REACTORS
330
CED78
102
}
330
CED78
100
AcDbXrecord
280
     1
270
     1
271
     1
  0
XRECORD
  5
D5B3D
102
{ACAD_REACTORS
330
CED70
102
}
330
CED70
100
AcDbXrecord
280
     1
102
MATERIAL
148
0.0
149
0.0
149
0.0
 93
        0
 94
      127
282
     0
 72
     0
 77
     0
171
     0
175
     0
179
     0
273
     0
  0
XRECORD
  5
CED72
102
{ACAD_REACTORS
330
CED70
102
}
330
CED70
100
AcDbXrecord
280
     1
270
     1
271
     1
  0
XRECORD
  5
CED71
102
{ACAD_REACTORS
330
CED70
102
}
330
CED70
100
AcDbXrecord
280
     1
270
     1
271
     1
  0
XRECORD
  5
CED75
102
{ACAD_REACTORS
330
CED70
102
}
330
CED70
100
AcDbXrecord
280
     1
270
     1
271
     1
  0
XRECORD
  5
CED74
102
{ACAD_REACTORS
330
CED70
102
}
330
CED70
100
AcDbXrecord
280
     1
270
     1
271
     1
  0
XRECORD
  5
CED76
102
{ACAD_REACTORS
330
CED70
102
}
330
CED70
100
AcDbXrecord
280
     1
270
     1
271
     1
  0
XRECORD
  5
CED73
102
{ACAD_REACTORS
330
CED70
102
}
330
CED70
100
AcDbXrecord
280
     1
270
     1
271
     1
  0
XRECORD
  5
D5B3F
102
{ACAD_REACTORS
330
CED80
102
}
330
CED80
100
AcDbXrecord
280
     1
102
MATERIAL
148
0.0
149
0.0
149
0.0
 93
        0
 94
      127
282
     0
 72
     0
 77
     0
171
     0
175
     0
179
     0
273
     0
  0
XRECORD
  5
CED82
102
{ACAD_REACTORS
330
CED80
102
}
330
CED80
100
AcDbXrecord
280
     1
270
     1
271
     1
  0
XRECORD
  5
CED81
102
{ACAD_REACTORS
330
CED80
102
}
330
CED80
100
AcDbXrecord
280
     1
270
     1
271
     1
  0
XRECORD
  5
CED85
102
{ACAD_REACTORS
330
CED80
102
}
330
CED80
100
AcDbXrecord
280
     1
270
     1
271
     1
  0
XRECORD
  5
CED84
102
{ACAD_REACTORS
330
CED80
102
}
330
CED80
100
AcDbXrecord
280
     1
270
     1
271
     1
  0
XRECORD
  5
CED86
102
{ACAD_REACTORS
330
CED80
102
}
330
CED80
100
AcDbXrecord
280
     1
270
     1
271
     1
  0
XRECORD
  5
CED83
102
{ACAD_REACTORS
330
CED80
102
}
330
CED80
100
AcDbXrecord
280
     1
270
     1
271
     1
  0
CELLSTYLEMAP
  5
D5B62
102
{ACAD_REACTORS
330
D0C45
102
}
330
D0C45
100
AcDbCellStyleMap
 90
        3
300
CELLSTYLE
  1
TABLEFORMAT_BEGIN
 90
        5
170
     1
 91
        0
 92
    32768
 62
   257
 93
        1
300
CONTENTFORMAT
  1
CONTENTFORMAT_BEGIN
 90
        0
 91
        0
 92
        4
 93
        0
300

 40
0.0
140
1.0
 94
        5
 62
     0
340
11
144
0.25
309
CONTENTFORMAT_END
171
     1
301
MARGIN
  1
CELLMARGIN_BEGIN
 40
0.06
 40
0.06
 40
0.06
 40
0.06
 40
0.18
 40
0.18
309
CELLMARGIN_END
 94
        6
 95
        1
302
GRIDFORMAT
  1
GRIDFORMAT_BEGIN
 90
        0
 91
        1
 62
     0
 92
       -2
340
0
 93
        0
 40
0.045
309
GRIDFORMAT_END
 95
        2
302
GRIDFORMAT
  1
GRIDFORMAT_BEGIN
 90
        0
 91
        1
 62
     0
 92
       -2
340
0
 93
        0
 40
0.045
309
GRIDFORMAT_END
 95
        4
302
GRIDFORMAT
  1
GRIDFORMAT_BEGIN
 90
        0
 91
        1
 62
     0
 92
       -2
340
0
 93
        0
 40
0.045
309
GRIDFORMAT_END
 95
        8
302
GRIDFORMAT
  1
GRIDFORMAT_BEGIN
 90
        0
 91
        1
 62
     0
 92
       -2
340
0
 93
        0
 40
0.045
309
GRIDFORMAT_END
 95
       16
302
GRIDFORMAT
  1
GRIDFORMAT_BEGIN
 90
        0
 91
        1
 62
     0
 92
       -2
340
0
 93
        0
 40
0.045
309
GRIDFORMAT_END
 95
       32
302
GRIDFORMAT
  1
GRIDFORMAT_BEGIN
 90
        0
 91
        1
 62
     0
 92
       -2
340
0
 93
        0
 40
0.045
309
GRIDFORMAT_END
309
TABLEFORMAT_END
  1
CELLSTYLE_BEGIN
 90
        1
 91
        1
300
_TITLE
309
CELLSTYLE_END
300
CELLSTYLE
  1
TABLEFORMAT_BEGIN
 90
        5
170
     1
 91
        0
 92
        0
 62
   257
 93
        1
300
CONTENTFORMAT
  1
CONTENTFORMAT_BEGIN
 90
        0
 91
        0
 92
        4
 93
        0
300

 40
0.0
140
1.0
 94
        5
 62
     0
340
11
144
0.18
309
CONTENTFORMAT_END
171
     1
301
MARGIN
  1
CELLMARGIN_BEGIN
 40
0.06
 40
0.06
 40
0.06
 40
0.06
 40
0.18
 40
0.18
309
CELLMARGIN_END
 94
        6
 95
        1
302
GRIDFORMAT
  1
GRIDFORMAT_BEGIN
 90
        0
 91
        1
 62
     0
 92
       -2
340
0
 93
        0
 40
0.045
309
GRIDFORMAT_END
 95
        2
302
GRIDFORMAT
  1
GRIDFORMAT_BEGIN
 90
        0
 91
        1
 62
     0
 92
       -2
340
0
 93
        0
 40
0.045
309
GRIDFORMAT_END
 95
        4
302
GRIDFORMAT
  1
GRIDFORMAT_BEGIN
 90
        0
 91
        1
 62
     0
 92
       -2
340
0
 93
        0
 40
0.045
309
GRIDFORMAT_END
 95
        8
302
GRIDFORMAT
  1
GRIDFORMAT_BEGIN
 90
        0
 91
        1
 62
     0
 92
       -2
340
0
 93
        0
 40
0.045
309
GRIDFORMAT_END
 95
       16
302
GRIDFORMAT
  1
GRIDFORMAT_BEGIN
 90
        0
 91
        1
 62
     0
 92
       -2
340
0
 93
        0
 40
0.045
309
GRIDFORMAT_END
 95
       32
302
GRIDFORMAT
  1
GRIDFORMAT_BEGIN
 90
        0
 91
        1
 62
     0
 92
       -2
340
0
 93
        0
 40
0.045
309
GRIDFORMAT_END
309
TABLEFORMAT_END
  1
CELLSTYLE_BEGIN
 90
        2
 91
        1
300
_HEADER
309
CELLSTYLE_END
300
CELLSTYLE
  1
TABLEFORMAT_BEGIN
 90
        5
170
     1
 91
        0
 92
        0
 62
   257
 93
        1
300
CONTENTFORMAT
  1
CONTENTFORMAT_BEGIN
 90
        0
 91
        0
 92
        4
 93
        0
300

 40
0.0
140
1.0
 94
        2
 62
     0
340
11
144
0.18
309
CONTENTFORMAT_END
171
     1
301
MARGIN
  1
CELLMARGIN_BEGIN
 40
0.06
 40
0.06
 40
0.06
 40
0.06
 40
0.18
 40
0.18
309
CELLMARGIN_END
 94
        6
 95
        1
302
GRIDFORMAT
  1
GRIDFORMAT_BEGIN
 90
        0
 91
        1
 62
     0
 92
       -2
340
0
 93
        0
 40
0.045
309
GRIDFORMAT_END
 95
        2
302
GRIDFORMAT
  1
GRIDFORMAT_BEGIN
 90
        0
 91
        1
 62
     0
 92
       -2
340
0
 93
        0
 40
0.045
309
GRIDFORMAT_END
 95
        4
302
GRIDFORMAT
  1
GRIDFORMAT_BEGIN
 90
        0
 91
        1
 62
     0
 92
       -2
340
0
 93
        0
 40
0.045
309
GRIDFORMAT_END
 95
        8
302
GRIDFORMAT
  1
GRIDFORMAT_BEGIN
 90
        0
 91
        1
 62
     0
 92
       -2
340
0
 93
        0
 40
0.045
309
GRIDFORMAT_END
 95
       16
302
GRIDFORMAT
  1
GRIDFORMAT_BEGIN
 90
        0
 91
        1
 62
     0
 92
       -2
340
0
 93
        0
 40
0.045
309
GRIDFORMAT_END
 95
       32
302
GRIDFORMAT
  1
GRIDFORMAT_BEGIN
 90
        0
 91
        1
 62
     0
 92
       -2
340
0
 93
        0
 40
0.045
309
GRIDFORMAT_END
309
TABLEFORMAT_END
  1
CELLSTYLE_BEGIN
 90
        3
 91
        2
300
_DATA
309
CELLSTYLE_END
  0
XRECORD
  5
D5B6D
102
{ACAD_REACTORS
330
D0C45
102
}
330
D0C45
100
AcDbXrecord
280
     1
102
ACAD_ROUNDTRIP_PRE2007_TABLESTYLE
 90
        4
 91
        0
  1

 92
        4
 93
        0
  2

 94
        4
 95
        0
  3

  0
ENDSEC
  0
EOF
