  0
SECTION
  2
HEADER
  9
$ACADVER
  1
AC1015
  9
$ACADMAINTVER
 70
    20
  9
$DWGCODEPAGE
  3
ANSI_936
  9
$INSBASE
 10
0.0
 20
0.0
 30
0.0
  9
$EXTMIN
 10
101715.6520845004
 20
-170645.3336689594
 30
-0.0000000000112498
  9
$EXTMAX
 10
104318.1133617608
 20
-166960.5356288106
 30
0.0000000000002956
  9
$LIMMIN
 10
0.0
 20
0.0
  9
$LIMMAX
 10
12.0
 20
9.0
  9
$ORTHOMODE
 70
     0
  9
$REGENMODE
 70
     1
  9
$FILLMODE
 70
     1
  9
$QTEXTMODE
 70
     0
  9
$MIRRTEXT
 70
     0
  9
$LTSCALE
 40
1.0
  9
$ATTMODE
 70
     1
  9
$TEXTSIZE
 40
0.2
  9
$TRACEWID
 40
0.05
  9
$TEXTSTYLE
  7
Standard
  9
$CLAYER
  8
标注
  9
$CELTYPE
  6
ByLayer
  9
$CECOLOR
 62
   256
  9
$CELTSCALE
 40
5.0
  9
$DISPSILH
 70
     0
  9
$DIMSCALE
 40
1.0
  9
$DIMASZ
 40
10.0
  9
$DIMEXO
 40
7.0
  9
$DIMDLI
 40
0.38
  9
$DIMRND
 40
0.0
  9
$DIMDLE
 40
0.0
  9
$DIMEXE
 40
7.0
  9
$DIMTP
 40
0.0
  9
$DIMTM
 40
0.0
  9
$DIMTXT
 40
12.0
  9
$DIMCEN
 40
2.5
  9
$DIMTSZ
 40
0.0
  9
$DIMTOL
 70
     0
  9
$DIMLIM
 70
     0
  9
$DIMTIH
 70
     0
  9
$DIMTOH
 70
     0
  9
$DIMSE1
 70
     0
  9
$DIMSE2
 70
     0
  9
$DIMTAD
 70
     0
  9
$DIMZIN
 70
     8
  9
$DIMBLK
  1

  9
$DIMASO
 70
     1
  9
$DIMSHO
 70
     1
  9
$DIMPOST
  1

  9
$DIMAPOST
  1
"
  9
$DIMALT
 70
     0
  9
$DIMALTD
 70
     3
  9
$DIMALTF
 40
0.03937
  9
$DIMLFAC
 40
1.0
  9
$DIMTOFL
 70
     1
  9
$DIMTVP
 40
0.0
  9
$DIMTIX
 70
     0
  9
$DIMSOXD
 70
     0
  9
$DIMSAH
 70
     0
  9
$DIMBLK1
  1

  9
$DIMBLK2
  1

  9
$DIMSTYLE
  2
副本Standard
  9
$DIMCLRD
 70
   256
  9
$DIMCLRE
 70
   256
  9
$DIMCLRT
 70
   256
  9
$DIMTFAC
 40
1.0
  9
$DIMGAP
 40
0.5
  9
$DIMJUST
 70
     0
  9
$DIMSD1
 70
     0
  9
$DIMSD2
 70
     0
  9
$DIMTOLJ
 70
     1
  9
$DIMTZIN
 70
     0
  9
$DIMALTZ
 70
     0
  9
$DIMALTTZ
 70
     0
  9
$DIMUPT
 70
     0
  9
$DIMDEC
 70
     1
  9
$DIMTDEC
 70
     1
  9
$DIMALTU
 70
     7
  9
$DIMALTTD
 70
     3
  9
$DIMTXSTY
  7
Standard
  9
$DIMAUNIT
 70
     0
  9
$DIMADEC
 70
     0
  9
$DIMALTRND
 40
0.0
  9
$DIMAZIN
 70
     2
  9
$DIMDSEP
 70
    44
  9
$DIMATFIT
 70
     3
  9
$DIMFRAC
 70
     0
  9
$DIMLDRBLK
  1

  9
$DIMLUNIT
 70
     2
  9
$DIMLWD
 70
    -2
  9
$DIMLWE
 70
    -2
  9
$DIMTMOVE
 70
     0
  9
$LUNITS
 70
     2
  9
$LUPREC
 70
     4
  9
$SKETCHINC
 40
0.1
  9
$FILLETRAD
 40
80.0
  9
$AUNITS
 70
     0
  9
$AUPREC
 70
     0
  9
$MENU
  1
.
  9
$ELEVATION
 40
0.0
  9
$PELEVATION
 40
0.0
  9
$THICKNESS
 40
0.0
  9
$LIMCHECK
 70
     0
  9
$CHAMFERA
 40
26.6
  9
$CHAMFERB
 40
26.6
  9
$CHAMFERC
 40
0.0
  9
$CHAMFERD
 40
0.0
  9
$SKPOLY
 70
     0
  9
$TDCREATE
 40
2454355.343801713
  9
$TDUCREATE
 40
2454355.010468380
  9
$TDUPDATE
 40
2457938.598017304
  9
$TDUUPDATE
 40
2457938.264683970
  9
$TDINDWG
 40
8.8356823032
  9
$TDUSRTIMER
 40
8.8356822106
  9
$USRTIMER
 70
     1
  9
$ANGBASE
 50
0.0
  9
$ANGDIR
 70
     0
  9
$PDMODE
 70
     0
  9
$PDSIZE
 40
0.0
  9
$PLINEWID
 40
0.0
  9
$SPLFRAME
 70
     0
  9
$SPLINETYPE
 70
     6
  9
$SPLINESEGS
 70
     8
  9
$HANDSEED
  5
D68CA
  9
$SURFTAB1
 70
     6
  9
$SURFTAB2
 70
     6
  9
$SURFTYPE
 70
     6
  9
$SURFU
 70
     6
  9
$SURFV
 70
     6
  9
$UCSBASE
  2

  9
$UCSNAME
  2

  9
$UCSORG
 10
0.0
 20
0.0
 30
0.0
  9
$UCSXDIR
 10
1.0
 20
0.0
 30
0.0
  9
$UCSYDIR
 10
0.0
 20
1.0
 30
0.0
  9
$UCSORTHOREF
  2

  9
$UCSORTHOVIEW
 70
     0
  9
$UCSORGTOP
 10
0.0
 20
0.0
 30
0.0
  9
$UCSORGBOTTOM
 10
0.0
 20
0.0
 30
0.0
  9
$UCSORGLEFT
 10
0.0
 20
0.0
 30
0.0
  9
$UCSORGRIGHT
 10
0.0
 20
0.0
 30
0.0
  9
$UCSORGFRONT
 10
0.0
 20
0.0
 30
0.0
  9
$UCSORGBACK
 10
0.0
 20
0.0
 30
0.0
  9
$PUCSBASE
  2

  9
$PUCSNAME
  2

  9
$PUCSORG
 10
0.0
 20
0.0
 30
0.0
  9
$PUCSXDIR
 10
1.0
 20
0.0
 30
0.0
  9
$PUCSYDIR
 10
0.0
 20
1.0
 30
0.0
  9
$PUCSORTHOREF
  2

  9
$PUCSORTHOVIEW
 70
     0
  9
$PUCSORGTOP
 10
0.0
 20
0.0
 30
0.0
  9
$PUCSORGBOTTOM
 10
0.0
 20
0.0
 30
0.0
  9
$PUCSORGLEFT
 10
0.0
 20
0.0
 30
0.0
  9
$PUCSORGRIGHT
 10
0.0
 20
0.0
 30
0.0
  9
$PUCSORGFRONT
 10
0.0
 20
0.0
 30
0.0
  9
$PUCSORGBACK
 10
0.0
 20
0.0
 30
0.0
  9
$USERI1
 70
     0
  9
$USERI2
 70
     0
  9
$USERI3
 70
     0
  9
$USERI4
 70
     0
  9
$USERI5
 70
     0
  9
$USERR1
 40
0.0
  9
$USERR2
 40
0.0
  9
$USERR3
 40
0.0
  9
$USERR4
 40
0.0
  9
$USERR5
 40
2.5
  9
$WORLDVIEW
 70
     1
  9
$SHADEDGE
 70
     3
  9
$SHADEDIF
 70
    70
  9
$TILEMODE
 70
     1
  9
$MAXACTVP
 70
    64
  9
$PINSBASE
 10
0.0
 20
0.0
 30
0.0
  9
$PLIMCHECK
 70
     0
  9
$PEXTMIN
 10
0.0
 20
0.0
 30
0.0
  9
$PEXTMAX
 10
0.0
 20
0.0
 30
0.0
  9
$PLIMMIN
 10
0.0
 20
0.0
  9
$PLIMMAX
 10
12.0
 20
9.0
  9
$UNITMODE
 70
     0
  9
$VISRETAIN
 70
     1
  9
$PLINEGEN
 70
     0
  9
$PSLTSCALE
 70
     1
  9
$TREEDEPTH
 70
  3020
  9
$CMLSTYLE
  2
Standard
  9
$CMLJUST
 70
     0
  9
$CMLSCALE
 40
1.0
  9
$PROXYGRAPHICS
 70
     1
  9
$MEASUREMENT
 70
     0
  9
$CELWEIGHT
370
    -1
  9
$ENDCAPS
280
     0
  9
$JOINSTYLE
280
     0
  9
$LWDISPLAY
290
     0
  9
$INSUNITS
 70
     4
  9
$HYPERLINKBASE
  1

  9
$STYLESHEET
  1
MONOCHROME.CTB
  9
$XEDIT
290
     1
  9
$CEPSNTYPE
380
     0
  9
$PSTYLEMODE
290
     1
  9
$FINGERPRINTGUID
  2
{35BD88C0-9548-11D2-9A29-0060089B3A3F}
  9
$VERSIONGUID
  2
{A7844ADA-C9AB-4011-AE91-E65C1EBAAB55}
  9
$EXTNAMES
290
     1
  9
$PSVPSCALE
 40
0.0
  9
$OLESTARTUP
290
     0
  0
ENDSEC
  0
SECTION
  2
CLASSES
  0
CLASS
  1
ACDBDICTIONARYWDFLT
  2
AcDbDictionaryWithDefault
  3
ObjectDBX Classes
 90
        0
280
     0
281
     0
  0
CLASS
  1
ACDBPLACEHOLDER
  2
AcDbPlaceHolder
  3
ObjectDBX Classes
 90
        0
280
     0
281
     0
  0
CLASS
  1
LAYOUT
  2
AcDbLayout
  3
ObjectDBX Classes
 90
        0
280
     0
281
     0
  0
CLASS
  1
DICTIONARYVAR
  2
AcDbDictionaryVar
  3
ObjectDBX Classes
 90
        0
280
     0
281
     0
  0
CLASS
  1
SORTENTSTABLE
  2
AcDbSortentsTable
  3
ObjectDBX Classes
 90
        0
280
     0
281
     0
  0
CLASS
  1
DIMASSOC
  2
AcDbDimAssoc
  3
"AcDbDimAssoc|Product Desc:     AcDim ARX App For Dimension|Company:          Autodesk, Inc.|WEB Address:      www.autodesk.com"
 90
        0
280
     0
281
     0
  0
CLASS
  1
TABLESTYLE
  2
AcDbTableStyle
  3
ObjectDBX Classes
 90
     4095
280
     0
281
     0
  0
CLASS
  1
VLO-VL
  2
vlo_VL
  3
VL|AutoLISP based application
 90
      129
280
     0
281
     0
  0
CLASS
  1
MATERIAL
  2
AcDbMaterial
  3
ObjectDBX Classes
 90
     1153
280
     0
281
     0
  0
CLASS
  1
VISUALSTYLE
  2
AcDbVisualStyle
  3
ObjectDBX Classes
 90
     4095
280
     0
281
     0
  0
CLASS
  1
SCALE
  2
AcDbScale
  3
ObjectDBX Classes
 90
     1153
280
     0
281
     0
  0
CLASS
  1
MLEADERSTYLE
  2
AcDbMLeaderStyle
  3
ACDB_MLEADERSTYLE_CLASS
 90
     4095
280
     0
281
     0
  0
CLASS
  1
CELLSTYLEMAP
  2
AcDbCellStyleMap
  3
ObjectDBX Classes
 90
     1152
280
     0
281
     0
  0
ENDSEC
  0
SECTION
  2
TABLES
  0
TABLE
  2
VPORT
  5
8
330
0
100
AcDbSymbolTable
 70
     1
  0
VPORT
  5
CED6D
330
8
100
AcDbSymbolTableRecord
100
AcDbViewportTableRecord
  2
*Active
 70
     0
 10
0.0
 20
0.0
 11
1.0
 21
1.0
 12
103016.8827231306
 22
-168802.934648885
 13
0.0
 23
0.0
 14
0.5
 24
0.5
 15
0.5
 25
0.5
 16
0.0
 26
0.0
 36
1.0
 17
0.0
 27
0.0
 37
0.0
 40
3712.025611874008
 41
2.241676942046855
 42
50.0
 43
0.0
 44
0.0
 50
0.0
 51
0.0
 71
     0
 72
  1000
 73
     1
 74
     3
 75
     0
 76
     0
 77
     0
 78
     0
281
     0
 65
     1
110
0.0
120
0.0
130
0.0
111
1.0
121
0.0
131
0.0
112
0.0
122
1.0
132
0.0
 79
     0
146
0.0
  0
ENDTAB
  0
TABLE
  2
LTYPE
  5
5
330
0
100
AcDbSymbolTable
 70
     4
  0
LTYPE
  5
14
330
5
100
AcDbSymbolTableRecord
100
AcDbLinetypeTableRecord
  2
ByBlock
 70
     0
  3

 72
    65
 73
     0
 40
0.0
  0
LTYPE
  5
15
330
5
100
AcDbSymbolTableRecord
100
AcDbLinetypeTableRecord
  2
ByLayer
 70
     0
  3

 72
    65
 73
     0
 40
0.0
  0
LTYPE
  5
16
330
5
100
AcDbSymbolTableRecord
100
AcDbLinetypeTableRecord
  2
Continuous
 70
     0
  3
Solid line
 72
    65
 73
     0
 40
0.0
  0
LTYPE
  5
98
330
5
100
AcDbSymbolTableRecord
100
AcDbLinetypeTableRecord
  2
HIDDEN2
 70
     0
  3
Hidden (.5x) _ _ _ _ _ _ _ _ _ _ _ _ _ _ _ _ _
 72
    65
 73
     2
 40
4.762499999999998
 49
3.174999999999998
 74
     0
 49
-1.587499999999999
 74
     0
  0
LTYPE
  5
D61F4
330
5
100
AcDbSymbolTableRecord
100
AcDbLinetypeTableRecord
  2
ACAD_ISO02W100
 70
     0
  3
ISO dash __ __ __ __ __ __ __ __ __ __ __ __ __
 72
    65
 73
     2
 40
15.0
 49
12.0
 74
     0
 49
-3.0
 74
     0
  0
LTYPE
  5
D6639
330
5
100
AcDbSymbolTableRecord
100
AcDbLinetypeTableRecord
  2
CENTER
 70
     0
  3
Center ____ _ ____ _ ____ _ ____ _ ____ _ ____
 72
    65
 73
     4
 40
50.8
 49
31.75
 74
     0
 49
-6.349999999999998
 74
     0
 49
6.349999999999998
 74
     0
 49
-6.349999999999998
 74
     0
  0
ENDTAB
  0
TABLE
  2
LAYER
  5
2
102
{ACAD_XDICTIONARY
360
AB
102
}
330
0
100
AcDbSymbolTable
 70
     6
  0
LAYER
  5
10
102
{ACAD_XDICTIONARY
360
CF251
102
}
330
2
100
AcDbSymbolTableRecord
100
AcDbLayerTableRecord
  2
0
 70
     0
 62
     7
  6
Continuous
370
    18
390
F
  0
LAYER
  5
9D
102
{ACAD_XDICTIONARY
360
CF259
102
}
330
2
100
AcDbSymbolTableRecord
100
AcDbLayerTableRecord
  2
虚线
 70
     0
 62
     4
  6
HIDDEN2
370
     9
390
F
  0
LAYER
  5
9E
102
{ACAD_XDICTIONARY
360
CF25B
102
}
330
2
100
AcDbSymbolTableRecord
100
AcDbLayerTableRecord
  2
细实线
 70
     0
 62
     7
  6
Continuous
370
     9
390
F
  0
LAYER
  5
582
330
2
100
AcDbSymbolTableRecord
100
AcDbLayerTableRecord
  2
Defpoints
 70
     0
 62
     7
  6
Continuous
290
     0
370
     9
390
F
  0
LAYER
  5
16DF9
102
{ACAD_XDICTIONARY
360
CF25D
102
}
330
2
100
AcDbSymbolTableRecord
100
AcDbLayerTableRecord
  2
标注
 70
     0
 62
    80
  6
Continuous
370
     5
390
F
1001
AcAecLayerStandard
1000

1000

  0
LAYER
  5
D61F5
102
{ACAD_XDICTIONARY
360
D61F6
102
}
330
2
100
AcDbSymbolTableRecord
100
AcDbLayerTableRecord
  2
标注线
 70
     0
 62
     6
  6
Continuous
370
    -3
390
F
  0
ENDTAB
  0
TABLE
  2
STYLE
  5
3
330
0
100
AcDbSymbolTable
 70
     2
  0
STYLE
  5
11
330
3
100
AcDbSymbolTableRecord
100
AcDbTextStyleTableRecord
  2
Standard
 70
     0
 40
0.0
 41
1.0
 50
0.0
 71
     0
 42
0.2
  3
SimSun.ttf
  4

1001
ACAD
1000
SimSun
1071
    34306
  0
STYLE
  5
9D6ED
330
3
100
AcDbSymbolTableRecord
100
AcDbTextStyleTableRecord
  2
A301
 70
     0
 40
3.5
 41
0.75
 50
0.0
 71
     0
 42
0.0
  3
SimSun.ttf
  4

1001
ACAD
1000
SimSun
1071
    34306
  0
ENDTAB
  0
TABLE
  2
VIEW
  5
6
330
0
100
AcDbSymbolTable
 70
     0
  0
ENDTAB
  0
TABLE
  2
UCS
  5
7
330
0
100
AcDbSymbolTable
 70
     0
  0
ENDTAB
  0
TABLE
  2
APPID
  5
9
330
0
100
AcDbSymbolTable
 70
    19
  0
APPID
  5
12
330
9
100
AcDbSymbolTableRecord
100
AcDbRegAppTableRecord
  2
ACAD
 70
     0
  0
APPID
  5
A5
330
9
100
AcDbSymbolTableRecord
100
AcDbRegAppTableRecord
  2
AcAecLayerStandard
 70
     0
  0
APPID
  5
A6
330
9
100
AcDbSymbolTableRecord
100
AcDbRegAppTableRecord
  2
ACAD_DSTYLE_DIMEXT_LENGTH
 70
     0
  0
APPID
  5
A7
330
9
100
AcDbSymbolTableRecord
100
AcDbRegAppTableRecord
  2
ACAD_DSTYLE_DIMEXT_ENABLED
 70
     0
  0
APPID
  5
A8
330
9
100
AcDbSymbolTableRecord
100
AcDbRegAppTableRecord
  2
ACAD_DSTYLE_DIMJOGGED_JOGANGLE_SYMBOL
 70
     0
  0
APPID
  5
A9
330
9
100
AcDbSymbolTableRecord
100
AcDbRegAppTableRecord
  2
ACAD_DSTYLE_DIMARC_LENGTH_SYMBOL
 70
     0
  0
APPID
  5
AA
330
9
100
AcDbSymbolTableRecord
100
AcDbRegAppTableRecord
  2
ACAD_PSEXT
 70
     0
  0
APPID
  5
173
330
9
100
AcDbSymbolTableRecord
100
AcDbRegAppTableRecord
  2
DCO15
 70
     0
  0
APPID
  5
11D5
330
9
100
AcDbSymbolTableRecord
100
AcDbRegAppTableRecord
  2
ACAD_EXEMPT_FROM_CAD_STANDARDS
 70
     0
  0
APPID
  5
B456
330
9
100
AcDbSymbolTableRecord
100
AcDbRegAppTableRecord
  2
ACAD_DSTYLE_DIMTEXT_FILL
 70
     0
  0
APPID
  5
B459
330
9
100
AcDbSymbolTableRecord
100
AcDbRegAppTableRecord
  2
ACAD_DSTYLE_DIM_LINETYPE
 70
     0
  0
APPID
  5
B45A
330
9
100
AcDbSymbolTableRecord
100
AcDbRegAppTableRecord
  2
ACAD_DSTYLE_DIM_EXT1_LINETYPE
 70
     0
  0
APPID
  5
B45B
330
9
100
AcDbSymbolTableRecord
100
AcDbRegAppTableRecord
  2
ACAD_DSTYLE_DIM_EXT2_LINETYPE
 70
     0
  0
APPID
  5
CEDBC
330
9
100
AcDbSymbolTableRecord
100
AcDbRegAppTableRecord
  2
ACAD_MLEADERVER
 70
     0
  0
APPID
  5
CF35C
330
9
100
AcDbSymbolTableRecord
100
AcDbRegAppTableRecord
  2
ACAD_DSTYLE_DIMRADIAL_EXTENSION
 70
     0
  0
APPID
  5
CF43A
330
9
100
AcDbSymbolTableRecord
100
AcDbRegAppTableRecord
  2
ACAD_DSTYLE_DIMJAG
 70
     0
  0
APPID
  5
CF43B
330
9
100
AcDbSymbolTableRecord
100
AcDbRegAppTableRecord
  2
ACAD_DSTYLE_DIMTALN
 70
     0
  0
APPID
  5
D5BCC
330
9
100
AcDbSymbolTableRecord
100
AcDbRegAppTableRecord
  2
ACAD_DSTYLE_DIMINSPECT
 70
     0
  0
APPID
  5
D5BCD
330
9
100
AcDbSymbolTableRecord
100
AcDbRegAppTableRecord
  2
GENIUS_GENDTOL_13
 70
     0
  0
ENDTAB
  0
TABLE
  2
DIMSTYLE
  5
A
330
0
100
AcDbSymbolTable
 70
     4
100
AcDbDimStyleTable
 71
     2
340
3BDB5
340
27
  0
DIMSTYLE
105
27
330
A
100
AcDbSymbolTableRecord
100
AcDbDimStyleTableRecord
  2
Standard
 70
     0
 41
20.0
 42
25.0
 44
8.0
 73
     0
 74
     0
 78
     8
 79
     2
140
20.0
147
5.0
172
     1
176
     3
177
     3
178
     3
179
     1
271
     1
272
     1
278
    44
340
11
1001
ACAD_DSTYLE_DIMJOGGED_JOGANGLE_SYMBOL
1070
   384
1040
0.7853981633974483
1001
ACAD_DSTYLE_DIMEXT_LENGTH
1070
   378
1040
8.0
  0
DIMSTYLE
105
3BDB5
102
{ACAD_REACTORS
330
D661F
330
D6641
330
D668D
330
D66A7
330
D66EF
330
D66FD
330
D6721
330
D674A
330
D6764
330
D6792
330
D67A0
330
D67AD
330
D67C7
330
D67D6
330
D67E6
330
D67F6
330
D6806
330
D6816
330
D6826
330
D6836
330
D6846
102
}
330
A
100
AcDbSymbolTableRecord
100
AcDbDimStyleTableRecord
  2
副本Standard
 70
     0
  4
"
 41
16.0
 42
7.0
 44
7.0
 73
     0
 74
     0
 78
     8
 79
     2
140
20.0
141
2.5
143
0.03937
147
1.0
171
     3
172
     1
176
   256
177
   256
178
   256
179
     1
271
     1
272
     1
273
     7
274
     3
278
    44
340
11
1001
ACAD_DSTYLE_DIMJAG
1070
   388
1040
1.5
1001
ACAD_DSTYLE_DIMTALN
1070
   392
1070
     0
  0
DIMSTYLE
105
D5BCA
330
A
100
AcDbSymbolTableRecord
100
AcDbDimStyleTableRecord
  2
ISO-25
 70
     0
 41
18.0
 42
0.0
 43
3.75
 44
3.0
 73
     0
 74
     0
 77
     1
 78
     8
 79
     2
140
18.0
141
2.5
143
0.03937007874016
147
4.0
171
     3
172
     1
176
     6
177
     6
271
     1
272
     1
274
     3
278
    44
283
     0
284
     8
340
11
371
    15
372
    15
  0
DIMSTYLE
105
D5BCB
330
A
100
AcDbSymbolTableRecord
100
AcDbDimStyleTableRecord
  2
XIAO
 70
     0
 41
3.5
 42
3.0
 43
1.0
 44
1.0
 73
     0
 74
     0
 77
     1
 78
     8
140
4.0
141
1.5
143
0.03937007874016
147
1.0
171
     3
172
     1
179
     1
271
     1
272
     1
274
     3
278
    44
283
     0
284
     8
340
11
  0
ENDTAB
  0
TABLE
  2
BLOCK_RECORD
  5
1
330
0
100
AcDbSymbolTable
 70
    22
  0
BLOCK_RECORD
  5
1F
102
{ACAD_XDICTIONARY
360
118B
102
}
330
1
100
AcDbSymbolTableRecord
100
AcDbBlockTableRecord
  2
*Model_Space
340
22
  0
BLOCK_RECORD
  5
73
330
1
100
AcDbSymbolTableRecord
100
AcDbBlockTableRecord
  2
*Paper_Space
340
74
  0
BLOCK_RECORD
  5
78
330
1
100
AcDbSymbolTableRecord
100
AcDbBlockTableRecord
  2
*Paper_Space0
340
79
  0
BLOCK_RECORD
  5
D6620
330
1
100
AcDbSymbolTableRecord
100
AcDbBlockTableRecord
  2
*D1
340
0
  0
BLOCK_RECORD
  5
D6644
330
1
100
AcDbSymbolTableRecord
100
AcDbBlockTableRecord
  2
*D2
340
0
  0
BLOCK_RECORD
  5
D668E
330
1
100
AcDbSymbolTableRecord
100
AcDbBlockTableRecord
  2
*D3
340
0
  0
BLOCK_RECORD
  5
D66A8
330
1
100
AcDbSymbolTableRecord
100
AcDbBlockTableRecord
  2
*D4
340
0
  0
BLOCK_RECORD
  5
D66F0
330
1
100
AcDbSymbolTableRecord
100
AcDbBlockTableRecord
  2
*D5
340
0
  0
BLOCK_RECORD
  5
D66FE
330
1
100
AcDbSymbolTableRecord
100
AcDbBlockTableRecord
  2
*D6
340
0
  0
BLOCK_RECORD
  5
D6722
330
1
100
AcDbSymbolTableRecord
100
AcDbBlockTableRecord
  2
*D7
340
0
  0
BLOCK_RECORD
  5
D674B
330
1
100
AcDbSymbolTableRecord
100
AcDbBlockTableRecord
  2
*D8
340
0
  0
BLOCK_RECORD
  5
D6765
330
1
100
AcDbSymbolTableRecord
100
AcDbBlockTableRecord
  2
*D9
340
0
  0
BLOCK_RECORD
  5
D6793
330
1
100
AcDbSymbolTableRecord
100
AcDbBlockTableRecord
  2
*D10
340
0
  0
BLOCK_RECORD
  5
D67A1
330
1
100
AcDbSymbolTableRecord
100
AcDbBlockTableRecord
  2
*D11
340
0
  0
BLOCK_RECORD
  5
D67AE
330
1
100
AcDbSymbolTableRecord
100
AcDbBlockTableRecord
  2
*D12
340
0
  0
BLOCK_RECORD
  5
D67C8
330
1
100
AcDbSymbolTableRecord
100
AcDbBlockTableRecord
  2
*D13
340
0
  0
BLOCK_RECORD
  5
D67D7
330
1
100
AcDbSymbolTableRecord
100
AcDbBlockTableRecord
  2
*D14
340
0
  0
BLOCK_RECORD
  5
D67E7
330
1
100
AcDbSymbolTableRecord
100
AcDbBlockTableRecord
  2
*D15
340
0
  0
BLOCK_RECORD
  5
D67F7
330
1
100
AcDbSymbolTableRecord
100
AcDbBlockTableRecord
  2
*D16
340
0
  0
BLOCK_RECORD
  5
D6807
330
1
100
AcDbSymbolTableRecord
100
AcDbBlockTableRecord
  2
*D17
340
0
  0
BLOCK_RECORD
  5
D6817
330
1
100
AcDbSymbolTableRecord
100
AcDbBlockTableRecord
  2
*D18
340
0
  0
BLOCK_RECORD
  5
D6827
330
1
100
AcDbSymbolTableRecord
100
AcDbBlockTableRecord
  2
*D19
340
0
  0
BLOCK_RECORD
  5
D6837
330
1
100
AcDbSymbolTableRecord
100
AcDbBlockTableRecord
  2
*D20
340
0
  0
BLOCK_RECORD
  5
D6847
330
1
100
AcDbSymbolTableRecord
100
AcDbBlockTableRecord
  2
*D21
340
0
  0
ENDTAB
  0
ENDSEC
  0
SECTION
  2
BLOCKS
  0
BLOCK
  5
20
330
1F
100
AcDbEntity
  8
0
100
AcDbBlockBegin
  2
*Model_Space
 70
     0
 10
0.0
 20
0.0
 30
0.0
  3
*Model_Space
  1

  0
ENDBLK
  5
21
330
1F
100
AcDbEntity
  8
0
100
AcDbBlockEnd
  0
BLOCK
  5
75
330
73
100
AcDbEntity
 67
     1
  8
0
100
AcDbBlockBegin
  2
*Paper_Space
 70
     0
 10
0.0
 20
0.0
 30
0.0
  3
*Paper_Space
  1

  0
ENDBLK
  5
76
330
73
100
AcDbEntity
 67
     1
  8
0
100
AcDbBlockEnd
  0
BLOCK
  5
7A
330
78
100
AcDbEntity
 67
     1
  8
0
100
AcDbBlockBegin
  2
*Paper_Space0
 70
     0
 10
0.0
 20
0.0
 30
0.0
  3
*Paper_Space0
  1

  0
ENDBLK
  5
7B
330
78
100
AcDbEntity
 67
     1
  8
0
100
AcDbBlockEnd
  0
BLOCK
  5
D6621
330
D6620
100
AcDbEntity
  8
0
 48
5.0
100
AcDbBlockBegin
  2
*D1
 70
     1
 10
0.0
 20
0.0
 30
0.0
  3
*D1
  1

  0
LINE
  5
D6788
330
D6620
100
AcDbEntity
  8
标注
 48
5.0
370
    -2
100
AcDbLine
 10
102810.7166430612
 20
-168815.5236902974
 30
0.0
 11
102810.7166430612
 21
-169010.2801979077
 31
0.0
  0
LINE
  5
D6789
330
D6620
100
AcDbEntity
  8
标注
 48
5.0
370
    -2
100
AcDbLine
 10
103215.7166430613
 20
-168815.5236902975
 30
0.0
 11
103215.7166430613
 21
-169010.2801979077
 31
0.0
  0
LINE
  5
D678A
330
D6620
100
AcDbEntity
  8
标注
 48
5.0
370
    -2
100
AcDbLine
 10
102820.7166430612
 20
-169003.2801979077
 30
0.0
 11
103001.7612740016
 21
-169003.2801979077
 31
0.0
  0
LINE
  5
D678B
330
D6620
100
AcDbEntity
  8
标注
 48
5.0
370
    -2
100
AcDbLine
 10
103205.7166430613
 20
-169003.2801979077
 30
0.0
 11
103026.6946073349
 21
-169003.2801979077
 31
0.0
  0
SOLID
  5
D678C
330
D6620
100
AcDbEntity
  8
标注
 48
5.0
100
AcDbTrace
 10
102820.7166430612
 20
-169001.613531241
 30
0.0
 11
102820.7166430612
 21
-169004.9468645743
 31
0.0
 12
102810.7166430612
 22
-169003.2801979077
 32
0.0
 13
102810.7166430612
 23
-169003.2801979077
 33
0.0
  0
SOLID
  5
D678D
330
D6620
100
AcDbEntity
  8
标注
 48
5.0
100
AcDbTrace
 10
103205.7166430613
 20
-169001.613531241
 30
0.0
 11
103205.7166430613
 21
-169004.9468645743
 31
0.0
 12
103215.7166430613
 22
-169003.2801979077
 32
0.0
 13
103215.7166430613
 23
-169003.2801979077
 33
0.0
  0
MTEXT
  5
D678E
330
D6620
100
AcDbEntity
  8
标注
 48
5.0
100
AcDbMText
 10
103014.2279406683
 20
-169003.2801979077
 30
0.0
 40
12.0
 41
0.0
 71
     5
 72
     1
  1
\A1;405
 73
     1
 44
1.0
1001
ACAD
1000
MTEXTBEGIN
1070
    73
1070
     1
1070
    44
1040
1.0
1070
    74
1070
     0
1000
MTEXTEND
  0
POINT
  5
D678F
330
D6620
100
AcDbEntity
  8
Defpoints
 62
     0
 48
5.0
100
AcDbPoint
 10
102810.7166430612
 20
-168808.5236902974
 30
0.0
  0
POINT
  5
D6790
330
D6620
100
AcDbEntity
  8
Defpoints
 62
     0
 48
5.0
100
AcDbPoint
 10
103215.7166430613
 20
-168808.5236902974
 30
0.0
  0
POINT
  5
D6791
330
D6620
100
AcDbEntity
  8
Defpoints
 62
     0
 48
5.0
100
AcDbPoint
 10
103215.7166430613
 20
-169003.2801979077
 30
0.0
  0
ENDBLK
  5
D6622
330
D6620
100
AcDbEntity
  8
0
 48
5.0
100
AcDbBlockEnd
  0
BLOCK
  5
D6645
330
D6644
100
AcDbEntity
  8
0
 48
5.0
100
AcDbBlockBegin
  2
*D2
 70
     1
 10
0.0
 20
0.0
 30
0.0
  3
*D2
  1

  0
LINE
  5
D66E7
330
D6644
100
AcDbEntity
  8
标注
 48
5.0
370
    -2
100
AcDbLine
 10
102993.962397202
 20
-168821.1043904524
 30
0.0
 11
103002.3338084451
 21
-168815.6345208198
 31
0.0
  0
LINE
  5
D66E8
330
D6644
100
AcDbEntity
  8
标注
 48
5.0
370
    -2
100
AcDbLine
 10
103024.0994776773
 20
-168801.412859775
 30
0.0
 11
103032.4708889204
 21
-168795.9429901424
 31
0.0
  0
MTEXT
  5
D66E9
102
{ACAD_XDICTIONARY
360
D68C8
102
}
330
D6644
100
AcDbEntity
  8
标注
 48
5.0
100
AcDbMText
 10
102978.1856125359
 20
-168831.4129218145
 30
0.0
 40
12.0
 41
0.0
 71
     5
 72
     1
  1
\A1;5-\U+22056
 11
0.8371411243161889
 21
0.5469869632620393
 31
0.0
 73
     1
 44
1.0
1001
ACAD
1000
MTEXTBEGIN
1070
    73
1070
     1
1070
    44
1040
1.0
1070
    74
1070
     0
1000
MTEXTEND
  0
LINE
  5
D66EA
330
D6644
100
AcDbEntity
  8
标注
 48
5.0
370
    -2
100
AcDbLine
 10
103015.7280664341
 20
-168806.8827294076
 30
0.0
 11
103010.7052196883
 21
-168810.1646511871
 31
0.0
  0
SOLID
  5
D66EB
330
D6644
100
AcDbEntity
  8
标注
 48
5.0
100
AcDbTrace
 10
103023.1878327385
 20
-168800.0176245678
 30
0.0
 11
103025.0111226161
 21
-168802.8080949822
 31
0.0
 12
103015.7280664341
 22
-168806.8827294076
 32
0.0
 13
103015.7280664341
 23
-168806.8827294076
 33
0.0
  0
SOLID
  5
D66EC
330
D6644
100
AcDbEntity
  8
标注
 48
5.0
100
AcDbTrace
 10
103001.4221635064
 20
-168814.2392856126
 30
0.0
 11
103003.2454533839
 21
-168817.0297560269
 31
0.0
 12
103010.7052196883
 22
-168810.1646511871
 32
0.0
 13
103010.7052196883
 23
-168810.1646511871
 33
0.0
  0
POINT
  5
D66ED
330
D6644
100
AcDbEntity
  8
Defpoints
 62
     0
 48
5.0
100
AcDbPoint
 10
103010.7052196883
 20
-168810.1646511871
 30
0.0
  0
POINT
  5
D66EE
330
D6644
100
AcDbEntity
  8
Defpoints
 62
     0
 48
5.0
100
AcDbPoint
 10
103015.7280664341
 20
-168806.8827294076
 30
0.0
  0
ENDBLK
  5
D6646
330
D6644
100
AcDbEntity
  8
0
 48
5.0
100
AcDbBlockEnd
  0
BLOCK
  5
D668F
330
D668E
100
AcDbEntity
  8
0
 48
5.0
100
AcDbBlockBegin
  2
*D3
 70
     1
 10
0.0
 20
0.0
 30
0.0
  3
*D3
  1

  0
LINE
  5
D669C
330
D668E
100
AcDbEntity
  8
标注
 48
5.0
370
    -2
100
AcDbLine
 10
103020.2166430613
 20
-168973.5236902975
 30
0.0
 11
103254.4421176371
 21
-168973.5236902975
 31
0.0
  0
LINE
  5
D669D
330
D668E
100
AcDbEntity
  8
标注
 48
5.0
370
    -2
100
AcDbLine
 10
103020.2166430613
 20
-168643.5236902974
 30
0.0
 11
103254.4421176371
 21
-168643.5236902974
 31
0.0
  0
LINE
  5
D669E
330
D668E
100
AcDbEntity
  8
标注
 48
5.0
370
    -2
100
AcDbLine
 10
103247.4421176371
 20
-168963.5236902975
 30
0.0
 11
103247.4421176371
 21
-168820.8903569641
 31
0.0
  0
LINE
  5
D669F
330
D668E
100
AcDbEntity
  8
标注
 48
5.0
370
    -2
100
AcDbLine
 10
103247.4421176371
 20
-168653.5236902974
 30
0.0
 11
103247.4421176371
 21
-168796.1570236308
 31
0.0
  0
SOLID
  5
D66A0
330
D668E
100
AcDbEntity
  8
标注
 48
5.0
100
AcDbTrace
 10
103245.7754509705
 20
-168963.5236902975
 30
0.0
 11
103249.1087843038
 21
-168963.5236902975
 31
0.0
 12
103247.4421176371
 22
-168973.5236902975
 32
0.0
 13
103247.4421176371
 23
-168973.5236902975
 33
0.0
  0
SOLID
  5
D66A1
330
D668E
100
AcDbEntity
  8
标注
 48
5.0
100
AcDbTrace
 10
103245.7754509705
 20
-168653.5236902974
 30
0.0
 11
103249.1087843038
 21
-168653.5236902974
 31
0.0
 12
103247.4421176371
 22
-168643.5236902974
 32
0.0
 13
103247.4421176371
 23
-168643.5236902974
 33
0.0
  0
MTEXT
  5
D66A2
330
D668E
100
AcDbEntity
  8
标注
 48
5.0
100
AcDbMText
 10
103247.4421176372
 20
-168808.5236902974
 30
0.0
 40
12.0
 41
0.0
 71
     5
 72
     1
  1
\A1;330
 11
0.0000000000000001
 21
1.0
 31
0.0
 73
     1
 44
1.0
1001
ACAD
1000
MTEXTBEGIN
1070
    73
1070
     1
1070
    44
1040
1.0
1070
    74
1070
     0
1000
MTEXTEND
  0
POINT
  5
D66A3
330
D668E
100
AcDbEntity
  8
Defpoints
 62
     0
 48
5.0
100
AcDbPoint
 10
103013.2166430613
 20
-168973.5236902975
 30
0.0
  0
POINT
  5
D66A4
330
D668E
100
AcDbEntity
  8
Defpoints
 62
     0
 48
5.0
100
AcDbPoint
 10
103013.2166430613
 20
-168643.5236902974
 30
0.0
  0
POINT
  5
D66A5
330
D668E
100
AcDbEntity
  8
Defpoints
 62
     0
 48
5.0
100
AcDbPoint
 10
103247.4421176371
 20
-168643.5236902974
 30
0.0
  0
ENDBLK
  5
D6690
330
D668E
100
AcDbEntity
  8
0
 48
5.0
100
AcDbBlockEnd
  0
BLOCK
  5
D66A9
330
D66A8
100
AcDbEntity
  8
0
 48
5.0
100
AcDbBlockBegin
  2
*D4
 70
     1
 10
0.0
 20
0.0
 30
0.0
  3
*D4
  1

  0
LINE
  5
D66DC
330
D66A8
100
AcDbEntity
  8
标注
 48
5.0
370
    -2
100
AcDbLine
 10
102824.7166430512
 20
-168801.5236902974
 30
0.0
 11
102824.7166430512
 21
-168775.9995145506
 31
0.0
  0
LINE
  5
D66DD
330
D66A8
100
AcDbEntity
  8
标注
 48
5.0
370
    -2
100
AcDbLine
 10
102806.7166430612
 20
-168801.5236902974
 30
0.0
 11
102806.7166430612
 21
-168775.9995145506
 31
0.0
  0
LINE
  5
D66DE
330
D66A8
100
AcDbEntity
  8
标注
 48
5.0
370
    -2
100
AcDbLine
 10
102834.7166430512
 20
-168782.9995145506
 30
0.0
 11
102844.7166430512
 21
-168782.9995145506
 31
0.0
  0
LINE
  5
D66DF
330
D66A8
100
AcDbEntity
  8
标注
 48
5.0
370
    -2
100
AcDbLine
 10
102796.7166430612
 20
-168782.9995145506
 30
0.0
 11
102786.7166430612
 21
-168782.9995145506
 31
0.0
  0
LINE
  5
D66E0
330
D66A8
100
AcDbEntity
  8
标注
 48
5.0
370
    -2
100
AcDbLine
 10
102824.7166430512
 20
-168782.9995145506
 30
0.0
 11
102806.7166430612
 21
-168782.9995145506
 31
0.0
  0
SOLID
  5
D66E1
330
D66A8
100
AcDbEntity
  8
标注
 48
5.0
100
AcDbTrace
 10
102834.7166430512
 20
-168781.3328478839
 30
0.0
 11
102834.7166430512
 21
-168784.6661812172
 31
0.0
 12
102824.7166430512
 22
-168782.9995145506
 32
0.0
 13
102824.7166430512
 23
-168782.9995145506
 33
0.0
  0
SOLID
  5
D66E2
330
D66A8
100
AcDbEntity
  8
标注
 48
5.0
100
AcDbTrace
 10
102796.7166430612
 20
-168781.3328478839
 30
0.0
 11
102796.7166430612
 21
-168784.6661812172
 31
0.0
 12
102806.7166430612
 22
-168782.9995145506
 32
0.0
 13
102806.7166430612
 23
-168782.9995145506
 33
0.0
  0
MTEXT
  5
D66E3
330
D66A8
100
AcDbEntity
  8
标注
 48
5.0
100
AcDbMText
 10
102779.1499763946
 20
-168782.9995145506
 30
0.0
 40
12.0
 41
0.0
 71
     5
 72
     1
  1
\A1;18
 73
     1
 44
1.0
1001
ACAD
1000
MTEXTBEGIN
1070
    73
1070
     1
1070
    44
1040
1.0
1070
    74
1070
     0
1000
MTEXTEND
  0
POINT
  5
D66E4
330
D66A8
100
AcDbEntity
  8
Defpoints
 62
     0
 48
5.0
100
AcDbPoint
 10
102824.7166430512
 20
-168808.5236902974
 30
0.0
  0
POINT
  5
D66E5
330
D66A8
100
AcDbEntity
  8
Defpoints
 62
     0
 48
5.0
100
AcDbPoint
 10
102806.7166430612
 20
-168808.5236902974
 30
0.0
  0
POINT
  5
D66E6
330
D66A8
100
AcDbEntity
  8
Defpoints
 62
     0
 48
5.0
100
AcDbPoint
 10
102806.7166430612
 20
-168782.9995145506
 30
0.0
  0
ENDBLK
  5
D66AA
330
D66A8
100
AcDbEntity
  8
0
 48
5.0
100
AcDbBlockEnd
  0
BLOCK
  5
D66F1
330
D66F0
100
AcDbEntity
  8
0
 48
5.0
100
AcDbBlockBegin
  2
*D5
 70
     1
 10
0.0
 20
0.0
 30
0.0
  3
*D5
  1

  0
LINE
  5
D66F3
330
D66F0
100
AcDbEntity
  8
标注
 48
5.0
370
    -2
100
AcDbLine
 10
102824.7166430512
 20
-168801.5236902974
 30
0.0
 11
102824.7166430512
 21
-168775.9995145506
 31
0.0
  0
LINE
  5
D66F4
330
D66F0
100
AcDbEntity
  8
标注
 48
5.0
370
    -2
100
AcDbLine
 10
103013.2166430612
 20
-168801.5236902974
 30
0.0
 11
103013.2166430612
 21
-168775.9995145506
 31
0.0
  0
LINE
  5
D66F5
330
D66F0
100
AcDbEntity
  8
标注
 48
5.0
370
    -2
100
AcDbLine
 10
102834.7166430512
 20
-168782.9995145506
 30
0.0
 11
102898.6333097229
 21
-168782.9995145506
 31
0.0
  0
LINE
  5
D66F6
330
D66F0
100
AcDbEntity
  8
标注
 48
5.0
370
    -2
100
AcDbLine
 10
103003.2166430612
 20
-168782.9995145506
 30
0.0
 11
102939.2999763895
 21
-168782.9995145506
 31
0.0
  0
SOLID
  5
D66F7
330
D66F0
100
AcDbEntity
  8
标注
 48
5.0
100
AcDbTrace
 10
102834.7166430512
 20
-168781.3328478839
 30
0.0
 11
102834.7166430512
 21
-168784.6661812172
 31
0.0
 12
102824.7166430512
 22
-168782.9995145506
 32
0.0
 13
102824.7166430512
 23
-168782.9995145506
 33
0.0
  0
SOLID
  5
D66F8
330
D66F0
100
AcDbEntity
  8
标注
 48
5.0
100
AcDbTrace
 10
103003.2166430612
 20
-168781.3328478839
 30
0.0
 11
103003.2166430612
 21
-168784.6661812172
 31
0.0
 12
103013.2166430612
 22
-168782.9995145506
 32
0.0
 13
103013.2166430612
 23
-168782.9995145506
 33
0.0
  0
MTEXT
  5
D66F9
330
D66F0
100
AcDbEntity
  8
标注
 48
5.0
100
AcDbMText
 10
102918.9666430562
 20
-168782.9995145506
 30
0.0
 40
12.0
 41
0.0
 71
     5
 72
     1
  1
\A1;188,5
 73
     1
 44
1.0
1001
ACAD
1000
MTEXTBEGIN
1070
    73
1070
     1
1070
    44
1040
1.0
1070
    74
1070
     0
1000
MTEXTEND
  0
POINT
  5
D66FA
330
D66F0
100
AcDbEntity
  8
Defpoints
 62
     0
 48
5.0
100
AcDbPoint
 10
102824.7166430512
 20
-168808.5236902974
 30
0.0
  0
POINT
  5
D66FB
330
D66F0
100
AcDbEntity
  8
Defpoints
 62
     0
 48
5.0
100
AcDbPoint
 10
103013.2166430612
 20
-168808.5236902974
 30
0.0
  0
POINT
  5
D66FC
330
D66F0
100
AcDbEntity
  8
Defpoints
 62
     0
 48
5.0
100
AcDbPoint
 10
103013.2166430612
 20
-168782.9995145506
 30
0.0
  0
ENDBLK
  5
D66F2
330
D66F0
100
AcDbEntity
  8
0
 48
5.0
100
AcDbBlockEnd
  0
BLOCK
  5
D66FF
330
D66FE
100
AcDbEntity
  8
0
 48
5.0
100
AcDbBlockBegin
  2
*D6
 70
     1
 10
0.0
 20
0.0
 30
0.0
  3
*D6
  1

  0
LINE
  5
D6717
330
D66FE
100
AcDbEntity
  8
标注
 48
5.0
370
    -2
100
AcDbLine
 10
102824.7166430512
 20
-168801.5236902974
 30
0.0
 11
102824.7166430512
 21
-168748.9179254984
 31
0.0
  0
LINE
  5
D6718
330
D66FE
100
AcDbEntity
  8
标注
 48
5.0
370
    -2
100
AcDbLine
 10
103201.7166430713
 20
-168801.5236902974
 30
0.0
 11
103201.7166430713
 21
-168748.9179254984
 31
0.0
  0
LINE
  5
D6719
330
D66FE
100
AcDbEntity
  8
标注
 48
5.0
370
    -2
100
AcDbLine
 10
102834.7166430512
 20
-168755.9179254984
 30
0.0
 11
102905.5166430562
 21
-168755.9179254984
 31
0.0
  0
LINE
  5
D671A
330
D66FE
100
AcDbEntity
  8
标注
 48
5.0
370
    -2
100
AcDbLine
 10
103191.7166430713
 20
-168755.9179254984
 30
0.0
 11
102930.1166430562
 21
-168755.9179254984
 31
0.0
  0
SOLID
  5
D671B
330
D66FE
100
AcDbEntity
  8
标注
 48
5.0
100
AcDbTrace
 10
102834.7166430512
 20
-168754.2512588317
 30
0.0
 11
102834.7166430512
 21
-168757.584592165
 31
0.0
 12
102824.7166430512
 22
-168755.9179254984
 32
0.0
 13
102824.7166430512
 23
-168755.9179254984
 33
0.0
  0
SOLID
  5
D671C
330
D66FE
100
AcDbEntity
  8
标注
 48
5.0
100
AcDbTrace
 10
103191.7166430713
 20
-168754.2512588317
 30
0.0
 11
103191.7166430713
 21
-168757.584592165
 31
0.0
 12
103201.7166430713
 22
-168755.9179254984
 32
0.0
 13
103201.7166430713
 23
-168755.9179254984
 33
0.0
  0
MTEXT
  5
D671D
330
D66FE
100
AcDbEntity
  8
标注
 48
5.0
100
AcDbMText
 10
102917.8166430562
 20
-168755.9179254984
 30
0.0
 40
12.0
 41
0.0
 71
     5
 72
     1
  1
\A1;377
 73
     1
 44
1.0
1001
ACAD
1000
MTEXTBEGIN
1070
    73
1070
     1
1070
    44
1040
1.0
1070
    74
1070
     0
1000
MTEXTEND
  0
POINT
  5
D671E
330
D66FE
100
AcDbEntity
  8
Defpoints
 62
     0
 48
5.0
100
AcDbPoint
 10
102824.7166430512
 20
-168808.5236902974
 30
0.0
  0
POINT
  5
D671F
330
D66FE
100
AcDbEntity
  8
Defpoints
 62
     0
 48
5.0
100
AcDbPoint
 10
103201.7166430713
 20
-168808.5236902974
 30
0.0
  0
POINT
  5
D6720
330
D66FE
100
AcDbEntity
  8
Defpoints
 62
     0
 48
5.0
100
AcDbPoint
 10
103201.7166430713
 20
-168755.9179254984
 30
0.0
  0
ENDBLK
  5
D6700
330
D66FE
100
AcDbEntity
  8
0
 48
5.0
100
AcDbBlockEnd
  0
BLOCK
  5
D6723
330
D6722
100
AcDbEntity
  8
0
 48
5.0
100
AcDbBlockBegin
  2
*D7
 70
     1
 10
0.0
 20
0.0
 30
0.0
  3
*D7
  1

  0
LINE
  5
D673F
330
D6722
100
AcDbEntity
  8
标注
 48
5.0
370
    -2
100
AcDbLine
 10
103020.2166430612
 20
-168657.5236902874
 30
0.0
 11
103044.2543263949
 21
-168657.5236902874
 31
0.0
  0
LINE
  5
D6740
330
D6722
100
AcDbEntity
  8
标注
 48
5.0
370
    -2
100
AcDbLine
 10
103020.2166430612
 20
-168639.5236902974
 30
0.0
 11
103044.2543263949
 21
-168639.5236902974
 31
0.0
  0
LINE
  5
D6741
330
D6722
100
AcDbEntity
  8
标注
 48
5.0
370
    -2
100
AcDbLine
 10
103037.2543263949
 20
-168667.5236902874
 30
0.0
 11
103037.2543263949
 21
-168677.5236902874
 31
0.0
  0
LINE
  5
D6742
330
D6722
100
AcDbEntity
  8
标注
 48
5.0
370
    -2
100
AcDbLine
 10
103037.2543263949
 20
-168629.5236902974
 30
0.0
 11
103037.2543263949
 21
-168619.5236902974
 31
0.0
  0
LINE
  5
D6743
330
D6722
100
AcDbEntity
  8
标注
 48
5.0
370
    -2
100
AcDbLine
 10
103037.2543263949
 20
-168657.5236902874
 30
0.0
 11
103037.2543263949
 21
-168639.5236902974
 31
0.0
  0
SOLID
  5
D6744
330
D6722
100
AcDbEntity
  8
标注
 48
5.0
100
AcDbTrace
 10
103035.5876597282
 20
-168667.5236902874
 30
0.0
 11
103038.9209930616
 21
-168667.5236902874
 31
0.0
 12
103037.2543263949
 22
-168657.5236902874
 32
0.0
 13
103037.2543263949
 23
-168657.5236902874
 33
0.0
  0
SOLID
  5
D6745
330
D6722
100
AcDbEntity
  8
标注
 48
5.0
100
AcDbTrace
 10
103035.5876597282
 20
-168629.5236902974
 30
0.0
 11
103038.9209930616
 21
-168629.5236902974
 31
0.0
 12
103037.2543263949
 22
-168639.5236902974
 32
0.0
 13
103037.2543263949
 23
-168639.5236902974
 33
0.0
  0
MTEXT
  5
D6746
330
D6722
100
AcDbEntity
  8
标注
 48
5.0
100
AcDbMText
 10
103037.2543263949
 20
-168611.9570236307
 30
0.0
 40
12.0
 41
0.0
 71
     5
 72
     1
  1
\A1;18
 11
0.0000000000000001
 21
1.0
 31
0.0
 73
     1
 44
1.0
1001
ACAD
1000
MTEXTBEGIN
1070
    73
1070
     1
1070
    44
1040
1.0
1070
    74
1070
     0
1000
MTEXTEND
  0
POINT
  5
D6747
330
D6722
100
AcDbEntity
  8
Defpoints
 62
     0
 48
5.0
100
AcDbPoint
 10
103013.2166430612
 20
-168657.5236902874
 30
0.0
  0
POINT
  5
D6748
330
D6722
100
AcDbEntity
  8
Defpoints
 62
     0
 48
5.0
100
AcDbPoint
 10
103013.2166430612
 20
-168639.5236902974
 30
0.0
  0
POINT
  5
D6749
330
D6722
100
AcDbEntity
  8
Defpoints
 62
     0
 48
5.0
100
AcDbPoint
 10
103037.2543263949
 20
-168639.5236902974
 30
0.0
  0
ENDBLK
  5
D6724
330
D6722
100
AcDbEntity
  8
0
 48
5.0
100
AcDbBlockEnd
  0
BLOCK
  5
D674C
330
D674B
100
AcDbEntity
  8
0
 48
5.0
100
AcDbBlockBegin
  2
*D8
 70
     1
 10
0.0
 20
0.0
 30
0.0
  3
*D8
  1

  0
LINE
  5
D6759
330
D674B
100
AcDbEntity
  8
标注
 48
5.0
370
    -2
100
AcDbLine
 10
103020.2166430612
 20
-168657.5236902874
 30
0.0
 11
103044.2543263949
 21
-168657.5236902874
 31
0.0
  0
LINE
  5
D675A
330
D674B
100
AcDbEntity
  8
标注
 48
5.0
370
    -2
100
AcDbLine
 10
103020.2166430612
 20
-168808.5236902974
 30
0.0
 11
103044.2543263949
 21
-168808.5236902974
 31
0.0
  0
LINE
  5
D675B
330
D674B
100
AcDbEntity
  8
标注
 48
5.0
370
    -2
100
AcDbLine
 10
103037.2543263949
 20
-168667.5236902874
 30
0.0
 11
103037.2543263949
 21
-168721.5570236257
 31
0.0
  0
LINE
  5
D675C
330
D674B
100
AcDbEntity
  8
标注
 48
5.0
370
    -2
100
AcDbLine
 10
103037.2543263949
 20
-168798.5236902974
 30
0.0
 11
103037.2543263949
 21
-168744.4903569591
 31
0.0
  0
SOLID
  5
D675D
330
D674B
100
AcDbEntity
  8
标注
 48
5.0
100
AcDbTrace
 10
103035.5876597282
 20
-168667.5236902874
 30
0.0
 11
103038.9209930616
 21
-168667.5236902874
 31
0.0
 12
103037.2543263949
 22
-168657.5236902874
 32
0.0
 13
103037.2543263949
 23
-168657.5236902874
 33
0.0
  0
SOLID
  5
D675E
330
D674B
100
AcDbEntity
  8
标注
 48
5.0
100
AcDbTrace
 10
103035.5876597282
 20
-168798.5236902974
 30
0.0
 11
103038.9209930616
 21
-168798.5236902974
 31
0.0
 12
103037.2543263949
 22
-168808.5236902974
 32
0.0
 13
103037.2543263949
 23
-168808.5236902974
 33
0.0
  0
MTEXT
  5
D675F
330
D674B
100
AcDbEntity
  8
标注
 48
5.0
100
AcDbMText
 10
103037.2543263949
 20
-168733.0236902924
 30
0.0
 40
12.0
 41
0.0
 71
     5
 72
     1
  1
\A1;151
 11
0.0000000000000001
 21
1.0
 31
0.0
 73
     1
 44
1.0
1001
ACAD
1000
MTEXTBEGIN
1070
    73
1070
     1
1070
    44
1040
1.0
1070
    74
1070
     0
1000
MTEXTEND
  0
POINT
  5
D6760
330
D674B
100
AcDbEntity
  8
Defpoints
 62
     0
 48
5.0
100
AcDbPoint
 10
103013.2166430612
 20
-168657.5236902874
 30
0.0
  0
POINT
  5
D6761
330
D674B
100
AcDbEntity
  8
Defpoints
 62
     0
 48
5.0
100
AcDbPoint
 10
103013.2166430612
 20
-168808.5236902974
 30
0.0
  0
POINT
  5
D6762
330
D674B
100
AcDbEntity
  8
Defpoints
 62
     0
 48
5.0
100
AcDbPoint
 10
103037.2543263949
 20
-168808.5236902974
 30
0.0
  0
ENDBLK
  5
D674D
330
D674B
100
AcDbEntity
  8
0
 48
5.0
100
AcDbBlockEnd
  0
BLOCK
  5
D6766
330
D6765
100
AcDbEntity
  8
0
 48
5.0
100
AcDbBlockBegin
  2
*D9
 70
     1
 10
0.0
 20
0.0
 30
0.0
  3
*D9
  1

  0
LINE
  5
D677E
330
D6765
100
AcDbEntity
  8
标注
 48
5.0
370
    -2
100
AcDbLine
 10
103020.2166430612
 20
-168657.5236902874
 30
0.0
 11
103071.4290861097
 21
-168657.5236902874
 31
0.0
  0
LINE
  5
D677F
330
D6765
100
AcDbEntity
  8
标注
 48
5.0
370
    -2
100
AcDbLine
 10
103020.2166430612
 20
-168959.5236903075
 30
0.0
 11
103071.4290861097
 21
-168959.5236903075
 31
0.0
  0
LINE
  5
D6780
330
D6765
100
AcDbEntity
  8
标注
 48
5.0
370
    -2
100
AcDbLine
 10
103064.4290861097
 20
-168667.5236902874
 30
0.0
 11
103064.4290861097
 21
-168719.6236902925
 31
0.0
  0
LINE
  5
D6781
330
D6765
100
AcDbEntity
  8
标注
 48
5.0
370
    -2
100
AcDbLine
 10
103064.4290861097
 20
-168949.5236903075
 30
0.0
 11
103064.4290861097
 21
-168744.1570236258
 31
0.0
  0
SOLID
  5
D6782
330
D6765
100
AcDbEntity
  8
标注
 48
5.0
100
AcDbTrace
 10
103062.762419443
 20
-168667.5236902874
 30
0.0
 11
103066.0957527763
 21
-168667.5236902874
 31
0.0
 12
103064.4290861097
 22
-168657.5236902874
 32
0.0
 13
103064.4290861097
 23
-168657.5236902874
 33
0.0
  0
SOLID
  5
D6783
330
D6765
100
AcDbEntity
  8
标注
 48
5.0
100
AcDbTrace
 10
103062.762419443
 20
-168949.5236903075
 30
0.0
 11
103066.0957527763
 21
-168949.5236903075
 31
0.0
 12
103064.4290861097
 22
-168959.5236903075
 32
0.0
 13
103064.4290861097
 23
-168959.5236903075
 33
0.0
  0
MTEXT
  5
D6784
330
D6765
100
AcDbEntity
  8
标注
 48
5.0
100
AcDbMText
 10
103064.4290861097
 20
-168731.8903569591
 30
0.0
 40
12.0
 41
0.0
 71
     5
 72
     1
  1
\A1;302
 11
0.0000000000000001
 21
1.0
 31
0.0
 73
     1
 44
1.0
1001
ACAD
1000
MTEXTBEGIN
1070
    73
1070
     1
1070
    44
1040
1.0
1070
    74
1070
     0
1000
MTEXTEND
  0
POINT
  5
D6785
330
D6765
100
AcDbEntity
  8
Defpoints
 62
     0
 48
5.0
100
AcDbPoint
 10
103013.2166430612
 20
-168657.5236902874
 30
0.0
  0
POINT
  5
D6786
330
D6765
100
AcDbEntity
  8
Defpoints
 62
     0
 48
5.0
100
AcDbPoint
 10
103013.2166430612
 20
-168959.5236903075
 30
0.0
  0
POINT
  5
D6787
330
D6765
100
AcDbEntity
  8
Defpoints
 62
     0
 48
5.0
100
AcDbPoint
 10
103064.4290861097
 20
-168959.5236903075
 30
0.0
  0
ENDBLK
  5
D6767
330
D6765
100
AcDbEntity
  8
0
 48
5.0
100
AcDbBlockEnd
  0
BLOCK
  5
D6794
330
D6793
100
AcDbEntity
  8
0
 48
5.0
100
AcDbBlockBegin
  2
*D10
 70
     1
 10
0.0
 20
0.0
 30
0.0
  3
*D10
  1

  0
LINE
  5
D6796
330
D6793
100
AcDbEntity
  8
标注
 48
5.0
370
    -2
100
AcDbLine
 10
102806.7166430612
 20
-168815.5236902974
 30
0.0
 11
102806.7166430612
 21
-169034.0098138854
 31
0.0
  0
LINE
  5
D6797
330
D6793
100
AcDbEntity
  8
标注
 48
5.0
370
    -2
100
AcDbLine
 10
103219.7003530794
 20
-168822.5236902974
 30
0.0
 11
103219.7003530794
 21
-169034.0098138854
 31
0.0
  0
LINE
  5
D6798
330
D6793
100
AcDbEntity
  8
标注
 48
5.0
370
    -2
100
AcDbLine
 10
102816.7166430612
 20
-169027.0098138854
 30
0.0
 11
103000.7418314037
 21
-169027.0098138854
 31
0.0
  0
LINE
  5
D6799
330
D6793
100
AcDbEntity
  8
标注
 48
5.0
370
    -2
100
AcDbLine
 10
103209.7003530794
 20
-169027.0098138854
 30
0.0
 11
103025.675164737
 21
-169027.0098138854
 31
0.0
  0
SOLID
  5
D679A
330
D6793
100
AcDbEntity
  8
标注
 48
5.0
100
AcDbTrace
 10
102816.7166430612
 20
-169025.3431472187
 30
0.0
 11
102816.7166430612
 21
-169028.676480552
 31
0.0
 12
102806.7166430612
 22
-169027.0098138854
 32
0.0
 13
102806.7166430612
 23
-169027.0098138854
 33
0.0
  0
SOLID
  5
D679B
330
D6793
100
AcDbEntity
  8
标注
 48
5.0
100
AcDbTrace
 10
103209.7003530794
 20
-169025.3431472187
 30
0.0
 11
103209.7003530794
 21
-169028.676480552
 31
0.0
 12
103219.7003530794
 22
-169027.0098138854
 32
0.0
 13
103219.7003530794
 23
-169027.0098138854
 33
0.0
  0
MTEXT
  5
D679C
330
D6793
100
AcDbEntity
  8
标注
 48
5.0
100
AcDbMText
 10
103013.2084980703
 20
-169027.0098138854
 30
0.0
 40
12.0
 41
0.0
 71
     5
 72
     1
  1
\A1;413
 73
     1
 44
1.0
1001
ACAD
1000
MTEXTBEGIN
1070
    73
1070
     1
1070
    44
1040
1.0
1070
    74
1070
     0
1000
MTEXTEND
  0
POINT
  5
D679D
330
D6793
100
AcDbEntity
  8
Defpoints
 62
     0
 48
5.0
100
AcDbPoint
 10
102806.7166430612
 20
-168808.5236902974
 30
0.0
  0
POINT
  5
D679E
330
D6793
100
AcDbEntity
  8
Defpoints
 62
     0
 48
5.0
100
AcDbPoint
 10
103219.7003530794
 20
-168815.5236902975
 30
0.0
  0
POINT
  5
D679F
330
D6793
100
AcDbEntity
  8
Defpoints
 62
     0
 48
5.0
100
AcDbPoint
 10
103219.7003530794
 20
-169027.0098138854
 30
0.0
  0
ENDBLK
  5
D6795
330
D6793
100
AcDbEntity
  8
0
 48
5.0
100
AcDbBlockEnd
  0
BLOCK
  5
D67A2
330
D67A1
100
AcDbEntity
  8
0
 48
5.0
100
AcDbBlockBegin
  2
*D11
 70
     1
 10
0.0
 20
0.0
 30
0.0
  3
*D11
  1

  0
LINE
  5
D67A4
330
D67A1
100
AcDbEntity
  8
标注
 48
5.0
370
    -2
100
AcDbLine
 10
103205.7166430613
 20
-169003.2801979077
 30
0.0
 11
103195.7166430613
 21
-169003.2801979077
 31
0.0
  0
LINE
  5
D67A5
330
D67A1
100
AcDbEntity
  8
标注
 48
5.0
370
    -2
100
AcDbLine
 10
103229.7003530794
 20
-169003.2801979077
 30
0.0
 11
103239.7003530794
 21
-169003.2801979077
 31
0.0
  0
LINE
  5
D67A6
330
D67A1
100
AcDbEntity
  8
标注
 48
5.0
370
    -2
100
AcDbLine
 10
103215.7166430613
 20
-169003.2801979077
 30
0.0
 11
103219.7003530794
 21
-169003.2801979077
 31
0.0
  0
SOLID
  5
D67A7
330
D67A1
100
AcDbEntity
  8
标注
 48
5.0
100
AcDbTrace
 10
103205.7166430613
 20
-169001.613531241
 30
0.0
 11
103205.7166430613
 21
-169004.9468645743
 31
0.0
 12
103215.7166430613
 22
-169003.2801979077
 32
0.0
 13
103215.7166430613
 23
-169003.2801979077
 33
0.0
  0
SOLID
  5
D67A8
330
D67A1
100
AcDbEntity
  8
标注
 48
5.0
100
AcDbTrace
 10
103229.7003530794
 20
-169001.613531241
 30
0.0
 11
103229.7003530794
 21
-169004.9468645743
 31
0.0
 12
103219.7003530794
 22
-169003.2801979077
 32
0.0
 13
103219.7003530794
 23
-169003.2801979077
 33
0.0
  0
MTEXT
  5
D67A9
330
D67A1
100
AcDbEntity
  8
标注
 48
5.0
100
AcDbMText
 10
103243.8670197461
 20
-169003.2801979077
 30
0.0
 40
12.0
 41
0.0
 71
     5
 72
     1
  1
\A1;4
 73
     1
 44
1.0
1001
ACAD
1000
MTEXTBEGIN
1070
    73
1070
     1
1070
    44
1040
1.0
1070
    74
1070
     0
1000
MTEXTEND
  0
POINT
  5
D67AA
330
D67A1
100
AcDbEntity
  8
Defpoints
 62
     0
 48
5.0
100
AcDbPoint
 10
103215.7166430613
 20
-169003.2801979077
 30
0.0
  0
POINT
  5
D67AB
330
D67A1
100
AcDbEntity
  8
Defpoints
 62
     0
 48
5.0
100
AcDbPoint
 10
103219.7003530794
 20
-169003.2801979077
 30
0.0
  0
POINT
  5
D67AC
330
D67A1
100
AcDbEntity
  8
Defpoints
 62
     0
 48
5.0
100
AcDbPoint
 10
103219.7003530794
 20
-169003.2801979077
 30
0.0
  0
ENDBLK
  5
D67A3
330
D67A1
100
AcDbEntity
  8
0
 48
5.0
100
AcDbBlockEnd
  0
BLOCK
  5
D67AF
330
D67AE
100
AcDbEntity
  8
0
 48
5.0
100
AcDbBlockBegin
  2
*D12
 70
     1
 10
0.0
 20
0.0
 30
0.0
  3
*D12
  1

  0
LINE
  5
D67BC
330
D67AE
100
AcDbEntity
  8
标注
 48
5.0
370
    -2
100
AcDbLine
 10
103020.2166430612
 20
-168977.5236902975
 30
0.0
 11
103280.4375820626
 21
-168977.5236902975
 31
0.0
  0
LINE
  5
D67BD
330
D67AE
100
AcDbEntity
  8
标注
 48
5.0
370
    -2
100
AcDbLine
 10
103020.2166430612
 20
-168639.5236902974
 30
0.0
 11
103280.4375820626
 21
-168639.5236902974
 31
0.0
  0
LINE
  5
D67BE
330
D67AE
100
AcDbEntity
  8
标注
 48
5.0
370
    -2
100
AcDbLine
 10
103273.4375820626
 20
-168967.5236902975
 30
0.0
 11
103273.4375820626
 21
-168820.8236902974
 31
0.0
  0
LINE
  5
D67BF
330
D67AE
100
AcDbEntity
  8
标注
 48
5.0
370
    -2
100
AcDbLine
 10
103273.4375820626
 20
-168649.5236902974
 30
0.0
 11
103273.4375820626
 21
-168796.2236902975
 31
0.0
  0
SOLID
  5
D67C0
330
D67AE
100
AcDbEntity
  8
标注
 48
5.0
100
AcDbTrace
 10
103271.7709153959
 20
-168967.5236902975
 30
0.0
 11
103275.1042487293
 21
-168967.5236902975
 31
0.0
 12
103273.4375820626
 22
-168977.5236902975
 32
0.0
 13
103273.4375820626
 23
-168977.5236902975
 33
0.0
  0
SOLID
  5
D67C1
330
D67AE
100
AcDbEntity
  8
标注
 48
5.0
100
AcDbTrace
 10
103271.7709153959
 20
-168649.5236902974
 30
0.0
 11
103275.1042487293
 21
-168649.5236902974
 31
0.0
 12
103273.4375820626
 22
-168639.5236902974
 32
0.0
 13
103273.4375820626
 23
-168639.5236902974
 33
0.0
  0
MTEXT
  5
D67C2
330
D67AE
100
AcDbEntity
  8
标注
 48
5.0
100
AcDbMText
 10
103273.4375820626
 20
-168808.5236902974
 30
0.0
 40
12.0
 41
0.0
 71
     5
 72
     1
  1
\A1;338
 11
0.0000000000000001
 21
1.0
 31
0.0
 73
     1
 44
1.0
1001
ACAD
1000
MTEXTBEGIN
1070
    73
1070
     1
1070
    44
1040
1.0
1070
    74
1070
     0
1000
MTEXTEND
  0
POINT
  5
D67C3
330
D67AE
100
AcDbEntity
  8
Defpoints
 62
     0
 48
5.0
100
AcDbPoint
 10
103013.2166430612
 20
-168977.5236902975
 30
0.0
  0
POINT
  5
D67C4
330
D67AE
100
AcDbEntity
  8
Defpoints
 62
     0
 48
5.0
100
AcDbPoint
 10
103013.2166430612
 20
-168639.5236902974
 30
0.0
  0
POINT
  5
D67C5
330
D67AE
100
AcDbEntity
  8
Defpoints
 62
     0
 48
5.0
100
AcDbPoint
 10
103273.4375820626
 20
-168639.5236902974
 30
0.0
  0
ENDBLK
  5
D67B0
330
D67AE
100
AcDbEntity
  8
0
 48
5.0
100
AcDbBlockEnd
  0
BLOCK
  5
D67C9
330
D67C8
100
AcDbEntity
  8
0
 48
5.0
100
AcDbBlockBegin
  2
*D13
 70
     1
 10
0.0
 20
0.0
 30
0.0
  3
*D13
  1

  0
LINE
  5
D67CB
330
D67C8
100
AcDbEntity
  8
标注
 48
5.0
370
    -2
100
AcDbLine
 10
103247.4421176371
 20
-168653.5236902974
 30
0.0
 11
103247.4421176371
 21
-168663.5236902974
 31
0.0
  0
LINE
  5
D67CC
330
D67C8
100
AcDbEntity
  8
标注
 48
5.0
370
    -2
100
AcDbLine
 10
103247.4421176371
 20
-168629.5236902974
 30
0.0
 11
103247.4421176371
 21
-168619.5236902974
 31
0.0
  0
LINE
  5
D67CD
330
D67C8
100
AcDbEntity
  8
标注
 48
5.0
370
    -2
100
AcDbLine
 10
103247.4421176371
 20
-168643.5236902974
 30
0.0
 11
103247.4421176371
 21
-168639.5236902974
 31
0.0
  0
SOLID
  5
D67CE
330
D67C8
100
AcDbEntity
  8
标注
 48
5.0
100
AcDbTrace
 10
103245.7754509705
 20
-168653.5236902974
 30
0.0
 11
103249.1087843038
 21
-168653.5236902974
 31
0.0
 12
103247.4421176371
 22
-168643.5236902974
 32
0.0
 13
103247.4421176371
 23
-168643.5236902974
 33
0.0
  0
SOLID
  5
D67CF
330
D67C8
100
AcDbEntity
  8
标注
 48
5.0
100
AcDbTrace
 10
103245.7754509705
 20
-168629.5236902974
 30
0.0
 11
103249.1087843038
 21
-168629.5236902974
 31
0.0
 12
103247.4421176371
 22
-168639.5236902974
 32
0.0
 13
103247.4421176371
 23
-168639.5236902974
 33
0.0
  0
MTEXT
  5
D67D0
330
D67C8
100
AcDbEntity
  8
标注
 48
5.0
100
AcDbMText
 10
103247.4421176372
 20
-168615.3570236307
 30
0.0
 40
12.0
 41
0.0
 71
     5
 72
     1
  1
\A1;4
 11
0.0000000000000001
 21
1.0
 31
0.0
 73
     1
 44
1.0
1001
ACAD
1000
MTEXTBEGIN
1070
    73
1070
     1
1070
    44
1040
1.0
1070
    74
1070
     0
1000
MTEXTEND
  0
POINT
  5
D67D1
330
D67C8
100
AcDbEntity
  8
Defpoints
 62
     0
 48
5.0
100
AcDbPoint
 10
103247.4421176371
 20
-168643.5236902974
 30
0.0
  0
POINT
  5
D67D2
330
D67C8
100
AcDbEntity
  8
Defpoints
 62
     0
 48
5.0
100
AcDbPoint
 10
103247.4421176371
 20
-168639.5236902974
 30
0.0
  0
POINT
  5
D67D3
330
D67C8
100
AcDbEntity
  8
Defpoints
 62
     0
 48
5.0
100
AcDbPoint
 10
103247.4421176371
 20
-168639.5236902974
 30
0.0
  0
ENDBLK
  5
D67CA
330
D67C8
100
AcDbEntity
  8
0
 48
5.0
100
AcDbBlockEnd
  0
BLOCK
  5
D67D8
330
D67D7
100
AcDbEntity
  8
0
 48
5.0
100
AcDbBlockBegin
  2
*D14
 70
     1
 10
0.0
 20
0.0
 30
0.0
  3
*D14
  1

  0
LINE
  5
D67E0
330
D67D7
100
AcDbEntity
  8
标注
 48
5.0
370
    -2
100
AcDbLine
 10
102851.4800788935
 20
-168684.0148628549
 30
0.0
 11
102844.553057735
 21
-168676.8026247925
 31
0.0
  0
MTEXT
  5
D67E1
330
D67D7
100
AcDbEntity
  8
标注
 48
5.0
100
AcDbMText
 10
102860.2081255532
 20
-168693.1022828137
 30
0.0
 40
12.0
 41
0.0
 71
     5
 72
     1
  1
\A1;R80
 11
0.6927021158474906
 21
-0.7212238062490796
 31
0.0
 73
     1
 44
1.0
1001
ACAD
1000
MTEXTBEGIN
1070
    73
1070
     1
1070
    44
1040
1.0
1070
    74
1070
     0
1000
MTEXTEND
  0
SOLID
  5
D67E2
330
D67D7
100
AcDbEntity
  8
标注
 48
5.0
100
AcDbTrace
 10
102845.7550974121
 20
-168675.6481212661
 30
0.0
 11
102843.3510180579
 21
-168677.9571283189
 31
0.0
 12
102837.6260365765
 22
-168669.59038673
 32
0.0
 13
102837.6260365765
 23
-168669.59038673
 33
0.0
  0
POINT
  5
D67E3
330
D67D7
100
AcDbEntity
  8
Defpoints
 62
     0
 48
5.0
100
AcDbPoint
 10
102837.6260365765
 20
-168669.59038673
 30
0.0
  0
POINT
  5
D67E4
330
D67D7
100
AcDbEntity
  8
Defpoints
 62
     0
 48
5.0
100
AcDbPoint
 10
102893.0422058444
 20
-168727.2882912299
 30
0.0
  0
ENDBLK
  5
D67D9
330
D67D7
100
AcDbEntity
  8
0
 48
5.0
100
AcDbBlockEnd
  0
BLOCK
  5
D67E8
330
D67E7
100
AcDbEntity
  8
0
 48
5.0
100
AcDbBlockBegin
  2
*D15
 70
     1
 10
0.0
 20
0.0
 30
0.0
  3
*D15
  1

  0
LINE
  5
D67F0
330
D67E7
100
AcDbEntity
  8
标注
 48
5.0
370
    -2
100
AcDbLine
 10
102984.2338338085
 20
-168663.7358236896
 30
0.0
 11
102984.087455984
 21
-168653.7368950704
 31
0.0
  0
MTEXT
  5
D67F1
330
D67E7
100
AcDbEntity
  8
标注
 48
5.0
100
AcDbMText
 10
102984.5431789443
 20
-168684.8668928382
 30
0.0
 40
12.0
 41
0.0
 71
     5
 72
     1
  1
\A1;R2000
 11
0.0146377824508827
 21
-0.9998928619231765
 31
0.0
 73
     1
 44
1.0
1001
ACAD
1000
MTEXTBEGIN
1070
    73
1070
     1
1070
    44
1040
1.0
1070
    74
1070
     0
1000
MTEXTEND
  0
SOLID
  5
D67F2
330
D67E7
100
AcDbEntity
  8
标注
 48
5.0
100
AcDbTrace
 10
102985.7539440872
 20
-168653.7124987663
 30
0.0
 11
102982.4209678808
 21
-168653.7612913744
 31
0.0
 12
102983.9410781595
 22
-168643.7379664511
 32
0.0
 13
102983.9410781595
 23
-168643.7379664511
 33
0.0
  0
POINT
  5
D67F3
330
D67E7
100
AcDbEntity
  8
Defpoints
 62
     0
 48
5.0
100
AcDbPoint
 10
102983.9410781595
 20
-168643.7379664511
 30
0.0
  0
POINT
  5
D67F4
330
D67E7
100
AcDbEntity
  8
Defpoints
 62
     0
 48
5.0
100
AcDbPoint
 10
103013.2166430612
 20
-170643.5236902944
 30
0.0
  0
ENDBLK
  5
D67E9
330
D67E7
100
AcDbEntity
  8
0
 48
5.0
100
AcDbBlockEnd
  0
BLOCK
  5
D67F8
330
D67F7
100
AcDbEntity
  8
0
 48
5.0
100
AcDbBlockBegin
  2
*D16
 70
     1
 10
0.0
 20
0.0
 30
0.0
  3
*D16
  1

  0
LINE
  5
D6800
330
D67F7
100
AcDbEntity
  8
标注
 48
5.0
370
    -2
100
AcDbLine
 10
102831.2450994291
 20
-168848.0705180171
 30
0.0
 11
102821.2486700802
 21
-168848.3377263125
 31
0.0
  0
MTEXT
  5
D6801
330
D67F7
100
AcDbEntity
  8
标注
 48
5.0
100
AcDbMText
 10
102852.3708867864
 20
-168847.5058178195
 30
0.0
 40
12.0
 41
0.0
 71
     5
 72
     1
  1
\A1;R1500
 11
0.999642934886582
 21
0.0267208295406524
 31
0.0
 73
     1
 44
1.0
1001
ACAD
1000
MTEXTBEGIN
1070
    73
1070
     1
1070
    44
1040
1.0
1070
    74
1070
     0
1000
MTEXTEND
  0
SOLID
  5
D6802
330
D67F7
100
AcDbEntity
  8
标注
 48
5.0
100
AcDbTrace
 10
102821.2041353643
 20
-168846.6716547544
 30
0.0
 11
102821.2932047961
 21
-168850.0037978707
 31
0.0
 12
102811.2522407313
 22
-168848.6049346079
 32
0.0
 13
102811.2522407313
 23
-168848.6049346079
 33
0.0
  0
POINT
  5
D6803
330
D67F7
100
AcDbEntity
  8
Defpoints
 62
     0
 48
5.0
100
AcDbPoint
 10
102811.2522407313
 20
-168848.6049346079
 30
0.0
  0
POINT
  5
D6804
330
D67F7
100
AcDbEntity
  8
Defpoints
 62
     0
 48
5.0
100
AcDbPoint
 10
104310.7166430513
 20
-168808.5236902972
 30
0.0
  0
ENDBLK
  5
D67F9
330
D67F7
100
AcDbEntity
  8
0
 48
5.0
100
AcDbBlockEnd
  0
BLOCK
  5
D6808
330
D6807
100
AcDbEntity
  8
0
 48
5.0
100
AcDbBlockBegin
  2
*D17
 70
     1
 10
0.0
 20
0.0
 30
0.0
  3
*D17
  1

  0
LINE
  5
D6810
330
D6807
100
AcDbEntity
  8
标注
 48
5.0
370
    -2
100
AcDbLine
 10
102855.726516312
 20
-168936.7435475904
 30
0.0
 11
102849.5072347234
 21
-168944.574290628
 31
0.0
  0
MTEXT
  5
D6811
330
D6807
100
AcDbEntity
  8
标注
 48
5.0
100
AcDbMText
 10
102863.5628111138
 20
-168926.876811363
 30
0.0
 40
12.0
 41
0.0
 71
     5
 72
     1
  1
\A1;R80
 11
0.6219281588680277
 21
0.7830743037586059
 31
0.0
 73
     1
 44
1.0
1001
ACAD
1000
MTEXTBEGIN
1070
    73
1070
     1
1070
    44
1040
1.0
1070
    74
1070
     0
1000
MTEXTEND
  0
SOLID
  5
D6812
330
D6807
100
AcDbEntity
  8
标注
 48
5.0
100
AcDbTrace
 10
102848.2021108838
 20
-168943.5377436965
 30
0.0
 11
102850.812358563
 21
-168945.6108375594
 31
0.0
 12
102843.2879531347
 22
-168952.4050336656
 32
0.0
 13
102843.2879531347
 23
-168952.4050336656
 33
0.0
  0
POINT
  5
D6813
330
D6807
100
AcDbEntity
  8
Defpoints
 62
     0
 48
5.0
100
AcDbPoint
 10
102843.2879531347
 20
-168952.4050336656
 30
0.0
  0
POINT
  5
D6814
330
D6807
100
AcDbEntity
  8
Defpoints
 62
     0
 48
5.0
100
AcDbPoint
 10
102893.0422058442
 20
-168889.7590893647
 30
0.0
  0
ENDBLK
  5
D6809
330
D6807
100
AcDbEntity
  8
0
 48
5.0
100
AcDbBlockEnd
  0
BLOCK
  5
D6818
330
D6817
100
AcDbEntity
  8
0
 48
5.0
100
AcDbBlockBegin
  2
*D18
 70
     1
 10
0.0
 20
0.0
 30
0.0
  3
*D18
  1

  0
LINE
  5
D6820
330
D6817
100
AcDbEntity
  8
标注
 48
5.0
370
    -2
100
AcDbLine
 10
102996.65958401
 20
-168953.454462773
 30
0.0
 11
102996.5759624996
 21
-168963.454113139
 31
0.0
  0
MTEXT
  5
D6821
330
D6817
100
AcDbEntity
  8
标注
 48
5.0
100
AcDbMText
 10
102996.8363041352
 20
-168932.3218683328
 30
0.0
 40
12.0
 41
0.0
 71
     5
 72
     1
  1
\A1;R2000
 11
0.0083621510360442
 21
0.9999650366038055
 31
0.0
 73
     1
 44
1.0
1001
ACAD
1000
MTEXTBEGIN
1070
    73
1070
     1
1070
    44
1040
1.0
1070
    74
1070
     0
1000
MTEXTEND
  0
SOLID
  5
D6822
330
D6817
100
AcDbEntity
  8
标注
 48
5.0
100
AcDbTrace
 10
102994.9093541053
 20
-168963.4401762206
 30
0.0
 11
102998.242570894
 21
-168963.4680500574
 31
0.0
 12
102996.4923409893
 22
-168973.4537635051
 32
0.0
 13
102996.4923409893
 23
-168973.4537635051
 33
0.0
  0
POINT
  5
D6823
330
D6817
100
AcDbEntity
  8
Defpoints
 62
     0
 48
5.0
100
AcDbPoint
 10
102996.4923409893
 20
-168973.4537635051
 30
0.0
  0
POINT
  5
D6824
330
D6817
100
AcDbEntity
  8
Defpoints
 62
     0
 48
5.0
100
AcDbPoint
 10
103013.2166430613
 20
-166973.5236903006
 30
0.0
  0
ENDBLK
  5
D6819
330
D6817
100
AcDbEntity
  8
0
 48
5.0
100
AcDbBlockEnd
  0
BLOCK
  5
D6828
330
D6827
100
AcDbEntity
  8
0
 48
5.0
100
AcDbBlockBegin
  2
*D19
 70
     1
 10
0.0
 20
0.0
 30
0.0
  3
*D19
  1

  0
LINE
  5
D6830
330
D6827
100
AcDbEntity
  8
标注
 48
5.0
370
    -2
100
AcDbLine
 10
103179.0977943519
 20
-168928.6293387672
 30
0.0
 11
103186.7155800308
 21
-168935.1077136676
 31
0.0
  0
MTEXT
  5
D6831
330
D6827
100
AcDbEntity
  8
标注
 48
5.0
100
AcDbMText
 10
103169.4993843963
 20
-168920.4665863928
 30
0.0
 40
12.0
 41
0.0
 71
     5
 72
     1
  1
\A1;R80
 11
0.7617785678950936
 21
-0.6478374900356573
 31
0.0
 73
     1
 44
1.0
1001
ACAD
1000
MTEXTBEGIN
1070
    73
1070
     1
1070
    44
1040
1.0
1070
    74
1070
     0
1000
MTEXTEND
  0
SOLID
  5
D6832
330
D6827
100
AcDbEntity
  8
标注
 48
5.0
100
AcDbTrace
 10
103187.7953091809
 20
-168933.8380827211
 30
0.0
 11
103185.6358508808
 21
-168936.3773446141
 31
0.0
 12
103194.3333657098
 22
-168941.586088568
 32
0.0
 13
103194.3333657098
 23
-168941.586088568
 33
0.0
  0
POINT
  5
D6833
330
D6827
100
AcDbEntity
  8
Defpoints
 62
     0
 48
5.0
100
AcDbPoint
 10
103194.3333657098
 20
-168941.586088568
 30
0.0
  0
POINT
  5
D6834
330
D6827
100
AcDbEntity
  8
Defpoints
 62
     0
 48
5.0
100
AcDbPoint
 10
103133.3910802782
 20
-168889.7590893651
 30
0.0
  0
ENDBLK
  5
D6829
330
D6827
100
AcDbEntity
  8
0
 48
5.0
100
AcDbBlockEnd
  0
BLOCK
  5
D6838
330
D6837
100
AcDbEntity
  8
0
 48
5.0
100
AcDbBlockBegin
  2
*D20
 70
     1
 10
0.0
 20
0.0
 30
0.0
  3
*D20
  1

  0
LINE
  5
D6840
330
D6837
100
AcDbEntity
  8
标注
 48
5.0
370
    -2
100
AcDbLine
 10
103195.4918558781
 20
-168782.7299016525
 30
0.0
 11
103205.4903370458
 21
-168782.5556192968
 31
0.0
  0
MTEXT
  5
D6841
330
D6837
100
AcDbEntity
  8
标注
 48
5.0
100
AcDbMText
 10
103174.3617323438
 20
-168783.0982183642
 30
0.0
 40
12.0
 41
0.0
 71
     5
 72
     1
  1
\A1;R1500
 11
0.9998481167681829
 21
0.017428235570996
 31
0.0
 73
     1
 44
1.0
1001
ACAD
1000
MTEXTBEGIN
1070
    73
1070
     1
1070
    44
1040
1.0
1070
    74
1070
     0
1000
MTEXTEND
  0
SOLID
  5
D6842
330
D6837
100
AcDbEntity
  8
标注
 48
5.0
100
AcDbTrace
 10
103205.4612899866
 20
-168780.8892057688
 30
0.0
 11
103205.5193841051
 21
-168784.2220328247
 31
0.0
 12
103215.4888182135
 22
-168782.3813369411
 32
0.0
 13
103215.4888182135
 23
-168782.3813369411
 33
0.0
  0
POINT
  5
D6843
330
D6837
100
AcDbEntity
  8
Defpoints
 62
     0
 48
5.0
100
AcDbPoint
 10
103215.4888182135
 20
-168782.3813369411
 30
0.0
  0
POINT
  5
D6844
330
D6837
100
AcDbEntity
  8
Defpoints
 62
     0
 48
5.0
100
AcDbPoint
 10
101715.7166430711
 20
-168808.5236902974
 30
0.0
  0
ENDBLK
  5
D6839
330
D6837
100
AcDbEntity
  8
0
 48
5.0
100
AcDbBlockEnd
  0
BLOCK
  5
D6848
330
D6847
100
AcDbEntity
  8
0
 48
5.0
100
AcDbBlockBegin
  2
*D21
 70
     1
 10
0.0
 20
0.0
 30
0.0
  3
*D21
  1

  0
LINE
  5
D6850
330
D6847
100
AcDbEntity
  8
标注
 48
5.0
370
    -2
100
AcDbLine
 10
103162.2049902092
 20
-168674.6597951988
 30
0.0
 11
103167.007308531
 21
-168665.8883791936
 31
0.0
  0
MTEXT
  5
D6851
330
D6847
100
AcDbEntity
  8
标注
 48
5.0
100
AcDbMText
 10
103156.1540691237
 20
-168685.7117793653
 30
0.0
 40
12.0
 41
0.0
 71
     5
 72
     1
  1
\A1;R80
 11
0.480231832183674
 21
0.8771416005169927
 31
0.0
 73
     1
 44
1.0
1001
ACAD
1000
MTEXTBEGIN
1070
    73
1070
     1
1070
    44
1040
1.0
1070
    74
1070
     0
1000
MTEXTEND
  0
SOLID
  5
D6852
330
D6847
100
AcDbEntity
  8
标注
 48
5.0
100
AcDbTrace
 10
103165.5454058635
 20
-168665.0879928067
 30
0.0
 11
103168.4692111985
 21
-168666.6887655806
 31
0.0
 12
103171.8096268528
 22
-168657.1169631885
 32
0.0
 13
103171.8096268528
 23
-168657.1169631885
 33
0.0
  0
POINT
  5
D6853
330
D6847
100
AcDbEntity
  8
Defpoints
 62
     0
 48
5.0
100
AcDbPoint
 10
103171.8096268528
 20
-168657.1169631885
 30
0.0
  0
POINT
  5
D6854
330
D6847
100
AcDbEntity
  8
Defpoints
 62
     0
 48
5.0
100
AcDbPoint
 10
103133.3910802782
 20
-168727.2882912298
 30
0.0
  0
ENDBLK
  5
D6849
330
D6847
100
AcDbEntity
  8
0
 48
5.0
100
AcDbBlockEnd
  0
ENDSEC
  0
SECTION
  2
ENTITIES
  0
LWPOLYLINE
  5
D6616
102
{ACAD_REACTORS
330
D6638
330
D66A6
330
D67E5
330
D67F5
330
D6805
330
D6815
330
D6825
330
D6835
330
D6845
330
D6855
102
}
330
1F
100
AcDbEntity
  8
虚线
 48
5.0
100
AcDbPolyline
 90
        8
 70
     1
 43
0.0
 10
102813.1732234659
 20
-168894.335731566
 42
0.3795243526153693
 10
102888.0349376269
 20
-168969.6022309927
 42
0.0313261374018749
 10
103138.3983484956
 20
-168969.6022309927
 42
0.3795243526153723
 10
103213.2600626566
 20
-168894.335731566
 42
0.0286274556385673
 10
103213.2600626566
 20
-168722.7116490289
 42
0.3795243526153693
 10
103138.3983484956
 20
-168647.4451496021
 42
0.0313261374018749
 10
102888.0349376269
 20
-168647.4451496021
 42
0.3795243526153724
 10
102813.1732234659
 20
-168722.7116490289
 42
0.0286274556385673
  0
LWPOLYLINE
  5
D661E
102
{ACAD_REACTORS
330
D66C4
330
D673E
330
D67C6
102
}
330
1F
100
AcDbEntity
  8
虚线
  6
Continuous
 62
     7
370
    30
100
AcDbPolyline
 90
        8
 70
     1
 43
0.0
 10
102809.179774347
 20
-168894.5645636761
 42
0.3795243526153545
 10
102887.7845742161
 20
-168973.5943880742
 42
0.031326137401874
 10
103138.6487119064
 20
-168973.5943880742
 42
0.3795243526153574
 10
103217.2535117755
 20
-168894.5645636761
 42
0.0286274556385668
 10
103217.2535117755
 20
-168722.4828169188
 42
0.3795243526153547
 10
103138.6487119064
 20
-168643.4529925207
 42
0.031326137401874
 10
102887.7845742161
 20
-168643.4529925207
 42
0.3795243526153574
 10
102809.179774347
 20
-168722.4828169188
 42
0.0286274556385668
  0
DIMENSION
  5
D661F
102
{ACAD_XDICTIONARY
360
D662D
102
}
102
{ACAD_REACTORS
330
D6638
102
}
330
1F
100
AcDbEntity
  8
标注
 48
5.0
100
AcDbDimension
  2
*D1
 10
103215.7166430613
 20
-169003.2801979077
 30
0.0
 11
103014.2279406683
 21
-169003.2801979077
 31
0.0
 70
   160
 71
     5
 42
405.0000000000436
  3
副本Standard
100
AcDbAlignedDimension
 13
102810.7166430612
 23
-168808.5236902974
 33
0.0
 14
103215.7166430613
 24
-168808.5236902974
 34
0.0
100
AcDbRotatedDimension
1001
ACAD
1000
DSTYLE
1002
{
1070
    41
1040
10.0
1070
    49
1040
8.0
1070
   140
1040
12.0
1070
   147
1040
0.5
1070
   179
1070
     0
1070
   345
1005
15
1002
}
  0
LINE
  5
D663E
330
1F
100
AcDbEntity
  8
虚线
 48
5.0
100
AcDbLine
 10
102827.7166430512
 20
-168808.5236902974
 30
0.0
 11
103010.2166430612
 21
-168808.5236902974
 31
0.0
  0
LINE
  5
D663F
330
1F
100
AcDbEntity
  8
虚线
 48
5.0
100
AcDbLine
 10
103013.2166430612
 20
-168956.5236903075
 30
0.0
 11
103013.2166430612
 21
-168811.5236902974
 31
0.0
  0
CIRCLE
  5
D6640
102
{ACAD_REACTORS
330
D6643
330
D6763
102
}
330
1F
100
AcDbEntity
  8
0
100
AcDbCircle
 10
103013.2166430612
 20
-168808.5236902974
 30
0.0
 40
3.0
  0
DIMENSION
  5
D6641
102
{ACAD_XDICTIONARY
360
D6642
102
}
102
{ACAD_REACTORS
330
D6643
102
}
330
1F
100
AcDbEntity
  8
标注
 48
5.0
100
AcDbDimension
  2
*D2
 10
103015.7280664341
 20
-168806.8827294076
 30
0.0
 11
102978.1856125359
 21
-168831.4129218145
 31
0.0
 70
    35
  1
5-<>
 71
     5
 42
5.999999999869031
  3
副本Standard
100
AcDbDiametricDimension
 15
103010.7052196883
 25
-168810.1646511871
 35
0.0
 40
0.0
1001
ACAD_DSTYLE_DIMRADIAL_EXTENSION
1070
   387
1070
     1
1070
   388
1040
0.0
1070
   390
1040
0.0
1001
ACAD_DSTYLE_DIMINSPECT
1070
   396
1000
100%
1070
   395
1000

1070
   394
1070
    33
1070
   393
1070
     0
1001
ACAD
1000
DSTYLE
1002
{
1070
    41
1040
10.0
1070
    49
1040
8.0
1070
   140
1040
12.0
1070
   147
1040
0.5
1070
   179
1070
     0
1070
   288
1070
     1
1070
   345
1005
15
1002
}
  0
CIRCLE
  5
D664F
102
{ACAD_REACTORS
330
D673E
102
}
330
1F
100
AcDbEntity
  8
0
100
AcDbCircle
 10
103013.2166430612
 20
-168657.5236902874
 30
0.0
 40
3.0
  0
CIRCLE
  5
D665E
102
{ACAD_REACTORS
330
D66C4
102
}
330
1F
100
AcDbEntity
  8
0
100
AcDbCircle
 10
102824.7166430512
 20
-168808.5236902974
 30
0.0
 40
3.0
  0
CIRCLE
  5
D666D
102
{ACAD_REACTORS
330
D6716
102
}
330
1F
100
AcDbEntity
  8
0
100
AcDbCircle
 10
103201.7166430713
 20
-168808.5236902974
 30
0.0
 40
3.0
  0
CIRCLE
  5
D667C
102
{ACAD_REACTORS
330
D677D
102
}
330
1F
100
AcDbEntity
  8
0
100
AcDbCircle
 10
103013.2166430612
 20
-168959.5236903075
 30
0.0
 40
3.0
  0
LINE
  5
D668B
330
1F
100
AcDbEntity
  8
虚线
 48
5.0
100
AcDbLine
 10
103013.2166430612
 20
-168805.5236902974
 30
0.0
 11
103013.2166430612
 21
-168660.5236902874
 31
0.0
  0
LINE
  5
D668C
330
1F
100
AcDbEntity
  8
虚线
 48
5.0
100
AcDbLine
 10
103016.2166430612
 20
-168808.5236902974
 30
0.0
 11
103198.7166430713
 21
-168808.5236902974
 31
0.0
  0
DIMENSION
  5
D668D
102
{ACAD_XDICTIONARY
360
D669B
102
}
102
{ACAD_REACTORS
330
D66A6
102
}
330
1F
100
AcDbEntity
  8
标注
 48
5.0
100
AcDbDimension
  2
*D3
 10
103247.4421176371
 20
-168643.5236902974
 30
0.0
 11
103247.4421176372
 21
-168808.5236902974
 31
0.0
 70
    32
 71
     5
 42
330.0000000000291
  3
副本Standard
100
AcDbAlignedDimension
 13
103013.2166430613
 23
-168973.5236902975
 33
0.0
 14
103013.2166430613
 24
-168643.5236902974
 34
0.0
 50
90.0
100
AcDbRotatedDimension
1001
ACAD
1000
DSTYLE
1002
{
1070
    41
1040
10.0
1070
    49
1040
8.0
1070
   140
1040
12.0
1070
   147
1040
0.5
1070
   179
1070
     0
1070
   345
1005
15
1002
}
  0
DIMENSION
  5
D66A7
102
{ACAD_XDICTIONARY
360
D66B7
102
}
102
{ACAD_REACTORS
330
D66C4
102
}
330
1F
100
AcDbEntity
  8
标注
 48
5.0
100
AcDbDimension
  2
*D4
 10
102806.7166430612
 20
-168782.9995145506
 30
0.0
 11
102779.1499763946
 21
-168782.9995145506
 31
0.0
 70
   160
 71
     5
 42
17.99999999000283
  3
副本Standard
100
AcDbAlignedDimension
 13
102824.7166430512
 23
-168808.5236902974
 33
0.0
 14
102806.7166430612
 24
-168808.5236902974
 34
0.0
100
AcDbRotatedDimension
1001
ACAD
1000
DSTYLE
1002
{
1070
    41
1040
10.0
1070
    49
1040
8.0
1070
   140
1040
12.0
1070
   147
1040
0.5
1070
   179
1070
     0
1070
   345
1005
15
1002
}
  0
DIMENSION
  5
D66EF
330
1F
100
AcDbEntity
  8
标注
 48
5.0
100
AcDbDimension
  2
*D5
 10
103013.2166430612
 20
-168782.9995145506
 30
0.0
 11
102918.9666430562
 21
-168782.9995145506
 31
0.0
 70
    32
 71
     5
 42
188.5000000099826
  3
副本Standard
100
AcDbAlignedDimension
 13
102824.7166430512
 23
-168808.5236902974
 33
0.0
 14
103013.2166430612
 24
-168808.5236902974
 34
0.0
100
AcDbRotatedDimension
1001
ACAD
1000
DSTYLE
1002
{
1070
    41
1040
10.0
1070
    49
1040
8.0
1070
   140
1040
12.0
1070
   147
1040
0.5
1070
   179
1070
     0
1070
   345
1005
15
1002
}
  0
DIMENSION
  5
D66FD
102
{ACAD_XDICTIONARY
360
D670B
102
}
102
{ACAD_REACTORS
330
D6716
102
}
330
1F
100
AcDbEntity
  8
标注
 48
5.0
100
AcDbDimension
  2
*D6
 10
103201.7166430713
 20
-168755.9179254984
 30
0.0
 11
102917.8166430562
 21
-168755.9179254984
 31
0.0
 70
   160
 71
     5
 42
377.000000020038
  3
副本Standard
100
AcDbAlignedDimension
 13
102824.7166430512
 23
-168808.5236902974
 33
0.0
 14
103201.7166430713
 24
-168808.5236902974
 34
0.0
100
AcDbRotatedDimension
1001
ACAD
1000
DSTYLE
1002
{
1070
    41
1040
10.0
1070
    49
1040
8.0
1070
   140
1040
12.0
1070
   147
1040
0.5
1070
   179
1070
     0
1070
   345
1005
15
1002
}
  0
DIMENSION
  5
D6721
102
{ACAD_XDICTIONARY
360
D6731
102
}
102
{ACAD_REACTORS
330
D673E
102
}
330
1F
100
AcDbEntity
  8
标注
 48
5.0
100
AcDbDimension
  2
*D7
 10
103037.2543263949
 20
-168639.5236902974
 30
0.0
 11
103037.2543263949
 21
-168611.9570236307
 31
0.0
 70
   160
 71
     5
 42
17.99999999001738
  3
副本Standard
100
AcDbAlignedDimension
 13
103013.2166430612
 23
-168657.5236902874
 33
0.0
 14
103013.2166430612
 24
-168639.5236902974
 34
0.0
 50
90.0
100
AcDbRotatedDimension
1001
ACAD
1000
DSTYLE
1002
{
1070
    41
1040
10.0
1070
    49
1040
8.0
1070
   140
1040
12.0
1070
   147
1040
0.5
1070
   179
1070
     0
1070
   345
1005
15
1002
}
  0
DIMENSION
  5
D674A
102
{ACAD_XDICTIONARY
360
D6758
102
}
102
{ACAD_REACTORS
330
D6763
102
}
330
1F
100
AcDbEntity
  8
标注
 48
5.0
100
AcDbDimension
  2
*D8
 10
103037.2543263949
 20
-168808.5236902974
 30
0.0
 11
103037.2543263949
 21
-168733.0236902924
 31
0.0
 70
    32
 71
     5
 42
151.0000000100117
  3
副本Standard
100
AcDbAlignedDimension
 13
103013.2166430612
 23
-168657.5236902874
 33
0.0
 14
103013.2166430612
 24
-168808.5236902974
 34
0.0
 50
90.0
100
AcDbRotatedDimension
1001
ACAD
1000
DSTYLE
1002
{
1070
    41
1040
10.0
1070
    49
1040
8.0
1070
   140
1040
12.0
1070
   147
1040
0.5
1070
   179
1070
     0
1070
   345
1005
15
1002
}
  0
DIMENSION
  5
D6764
102
{ACAD_XDICTIONARY
360
D6772
102
}
102
{ACAD_REACTORS
330
D677D
102
}
330
1F
100
AcDbEntity
  8
标注
 48
5.0
100
AcDbDimension
  2
*D9
 10
103064.4290861097
 20
-168959.5236903075
 30
0.0
 11
103064.4290861097
 21
-168731.8903569591
 31
0.0
 70
   160
 71
     5
 42
302.0000000200525
  3
副本Standard
100
AcDbAlignedDimension
 13
103013.2166430612
 23
-168657.5236902874
 33
0.0
 14
103013.2166430612
 24
-168959.5236903075
 34
0.0
 50
90.0
100
AcDbRotatedDimension
1001
ACAD
1000
DSTYLE
1002
{
1070
    41
1040
10.0
1070
    49
1040
8.0
1070
   140
1040
12.0
1070
   147
1040
0.5
1070
   179
1070
     0
1070
   345
1005
15
1002
}
  0
DIMENSION
  5
D6792
330
1F
100
AcDbEntity
  8
标注
 48
5.0
100
AcDbDimension
  2
*D10
 10
103219.7003530794
 20
-169027.0098138854
 30
0.0
 11
103013.2084980703
 21
-169027.0098138854
 31
0.0
 70
    32
 71
     5
 42
412.9837100182048
  3
副本Standard
100
AcDbAlignedDimension
 13
102806.7166430612
 23
-168808.5236902974
 33
0.0
 14
103219.7003530794
 24
-168815.5236902975
 34
0.0
100
AcDbRotatedDimension
1001
ACAD
1000
DSTYLE
1002
{
1070
    41
1040
10.0
1070
    49
1040
8.0
1070
   140
1040
12.0
1070
   147
1040
0.5
1070
   179
1070
     0
1070
   345
1005
15
1002
}
  0
DIMENSION
  5
D67A0
330
1F
100
AcDbEntity
  8
标注
 48
5.0
100
AcDbDimension
  2
*D11
 10
103219.7003530794
 20
-169003.2801979077
 30
0.0
 11
103243.8670197461
 21
-169003.2801979077
 31
0.0
 70
    32
 71
     5
 42
3.983710018161218
  3
副本Standard
100
AcDbAlignedDimension
 13
103215.7166430613
 23
-169003.2801979077
 33
0.0
 14
103219.7003530794
 24
-169003.2801979077
 34
0.0
100
AcDbRotatedDimension
1001
ACAD
1000
DSTYLE
1002
{
1070
    41
1040
10.0
1070
    49
1040
8.0
1070
   140
1040
12.0
1070
   147
1040
0.5
1070
   179
1070
     0
1070
   345
1005
15
1002
}
  0
DIMENSION
  5
D67AD
102
{ACAD_XDICTIONARY
360
D67BB
102
}
102
{ACAD_REACTORS
330
D67C6
102
}
330
1F
100
AcDbEntity
  8
标注
 48
5.0
100
AcDbDimension
  2
*D12
 10
103273.4375820626
 20
-168639.5236902974
 30
0.0
 11
103273.4375820626
 21
-168808.5236902974
 31
0.0
 70
    32
 71
     5
 42
338.0000000000873
  3
副本Standard
100
AcDbAlignedDimension
 13
103013.2166430612
 23
-168977.5236902975
 33
0.0
 14
103013.2166430612
 24
-168639.5236902974
 34
0.0
 50
90.0
100
AcDbRotatedDimension
1001
ACAD
1000
DSTYLE
1002
{
1070
    41
1040
10.0
1070
    49
1040
8.0
1070
   140
1040
12.0
1070
   147
1040
0.5
1070
   179
1070
     0
1070
   345
1005
15
1002
}
  0
DIMENSION
  5
D67C7
330
1F
100
AcDbEntity
  8
标注
 48
5.0
100
AcDbDimension
  2
*D13
 10
103247.4421176371
 20
-168639.5236902974
 30
0.0
 11
103247.4421176372
 21
-168615.3570236307
 31
0.0
 70
    32
 71
     5
 42
4.000000000029102
  3
副本Standard
100
AcDbAlignedDimension
 13
103247.4421176371
 23
-168643.5236902974
 33
0.0
 14
103247.4421176371
 24
-168639.5236902974
 34
0.0
 50
90.0
100
AcDbRotatedDimension
1001
ACAD
1000
DSTYLE
1002
{
1070
    41
1040
10.0
1070
    49
1040
8.0
1070
   140
1040
12.0
1070
   147
1040
0.5
1070
   179
1070
     0
1070
   345
1005
15
1002
}
  0
DIMENSION
  5
D67D6
102
{ACAD_XDICTIONARY
360
D67DF
102
}
102
{ACAD_REACTORS
330
D67E5
102
}
330
1F
100
AcDbEntity
  8
标注
 48
5.0
100
AcDbDimension
  2
*D14
 10
102893.0422058444
 20
-168727.2882912299
 30
0.0
 11
102860.2081255532
 21
-168693.1022828137
 31
0.0
 70
   164
 71
     5
 42
80.00000000005821
  3
副本Standard
100
AcDbRadialDimension
 15
102837.6260365765
 25
-168669.59038673
 35
0.0
 40
0.0
1001
ACAD
1000
DSTYLE
1002
{
1070
    41
1040
10.0
1070
    49
1040
8.0
1070
   140
1040
12.0
1070
   147
1040
0.5
1070
   179
1070
     0
1070
   288
1070
     1
1070
   345
1005
15
1002
}
1001
ACAD_DSTYLE_DIMRADIAL_EXTENSION
1070
   387
1070
     1
1070
   388
1040
1.633428119536471
1070
   390
1040
3.084353375355359
  0
DIMENSION
  5
D67E6
102
{ACAD_XDICTIONARY
360
D67EF
102
}
102
{ACAD_REACTORS
330
D67F5
102
}
330
1F
100
AcDbEntity
  8
标注
 48
5.0
100
AcDbDimension
  2
*D15
 10
103013.2166430612
 20
-170643.5236902944
 30
0.0
 11
102984.5431789443
 21
-168684.8668928382
 31
0.0
 70
   164
 71
     5
 42
1999.999999996886
  3
副本Standard
100
AcDbRadialDimension
 15
102983.9410781595
 25
-168643.7379664511
 35
0.0
 40
0.0
1001
ACAD
1000
DSTYLE
1002
{
1070
    41
1040
10.0
1070
    49
1040
8.0
1070
   140
1040
12.0
1070
   147
1040
0.5
1070
   179
1070
     0
1070
   288
1070
     1
1070
   345
1005
15
1002
}
1001
ACAD_DSTYLE_DIMRADIAL_EXTENSION
1070
   387
1070
     1
1070
   388
1040
1.508164534053283
1070
   390
1040
1.633428119536502
  0
DIMENSION
  5
D67F6
102
{ACAD_XDICTIONARY
360
D67FF
102
}
102
{ACAD_REACTORS
330
D6805
102
}
330
1F
100
AcDbEntity
  8
标注
 48
5.0
100
AcDbDimension
  2
*D16
 10
104310.7166430513
 20
-168808.5236902972
 30
0.0
 11
102852.3708867864
 21
-168847.5058178195
 31
0.0
 70
   164
 71
     5
 42
1499.999999990075
  3
副本Standard
100
AcDbRadialDimension
 15
102811.2522407313
 25
-168848.6049346079
 35
0.0
 40
0.0
1001
ACAD
1000
DSTYLE
1002
{
1070
    41
1040
10.0
1070
    49
1040
8.0
1070
   140
1040
12.0
1070
   147
1040
0.5
1070
   179
1070
     0
1070
   288
1070
     1
1070
   345
1005
15
1002
}
1001
ACAD_DSTYLE_DIMRADIAL_EXTENSION
1070
   387
1070
     1
1070
   388
1040
3.084353375355353
1070
   390
1040
3.19883193182425
  0
DIMENSION
  5
D6806
102
{ACAD_XDICTIONARY
360
D680F
102
}
102
{ACAD_REACTORS
330
D6815
102
}
330
1F
100
AcDbEntity
  8
标注
 48
5.0
100
AcDbDimension
  2
*D17
 10
102893.0422058442
 20
-168889.7590893647
 30
0.0
 11
102863.5628111138
 21
-168926.876811363
 31
0.0
 70
   164
 71
     5
 42
80.00000000017463
  3
副本Standard
100
AcDbRadialDimension
 15
102843.2879531347
 25
-168952.4050336656
 35
0.0
 40
0.0
1001
ACAD
1000
DSTYLE
1002
{
1070
    41
1040
10.0
1070
    49
1040
8.0
1070
   140
1040
12.0
1070
   147
1040
0.5
1070
   179
1070
     0
1070
   288
1070
     1
1070
   345
1005
15
1002
}
1001
ACAD_DSTYLE_DIMRADIAL_EXTENSION
1070
   387
1070
     1
1070
   388
1040
3.198831931824225
1070
   390
1040
4.649757187643112
  0
DIMENSION
  5
D6816
102
{ACAD_XDICTIONARY
360
D681F
102
}
102
{ACAD_REACTORS
330
D6825
102
}
330
1F
100
AcDbEntity
  8
标注
 48
5.0
100
AcDbDimension
  2
*D18
 10
103013.2166430613
 20
-166973.5236903006
 30
0.0
 11
102996.8363041352
 21
-168932.3218683328
 31
0.0
 70
   164
 71
     5
 42
1999.999999996857
  3
副本Standard
100
AcDbRadialDimension
 15
102996.4923409893
 25
-168973.4537635051
 35
0.0
 40
0.0
1001
ACAD
1000
DSTYLE
1002
{
1070
    41
1040
10.0
1070
    49
1040
8.0
1070
   140
1040
12.0
1070
   147
1040
0.5
1070
   179
1070
     0
1070
   288
1070
     1
1070
   345
1005
15
1002
}
1001
ACAD_DSTYLE_DIMRADIAL_EXTENSION
1070
   387
1070
     1
1070
   388
1040
4.649757187643082
1070
   390
1040
4.775020773126303
  0
DIMENSION
  5
D6826
102
{ACAD_XDICTIONARY
360
D682F
102
}
102
{ACAD_REACTORS
330
D6835
102
}
330
1F
100
AcDbEntity
  8
标注
 48
5.0
100
AcDbDimension
  2
*D19
 10
103133.3910802782
 20
-168889.7590893651
 30
0.0
 11
103169.4993843963
 21
-168920.4665863928
 31
0.0
 70
   164
 71
     5
 42
79.99999999991269
  3
副本Standard
100
AcDbRadialDimension
 15
103194.3333657098
 25
-168941.586088568
 35
0.0
 40
0.0
1001
ACAD
1000
DSTYLE
1002
{
1070
    41
1040
10.0
1070
    49
1040
8.0
1070
   140
1040
12.0
1070
   147
1040
0.5
1070
   179
1070
     0
1070
   288
1070
     1
1070
   345
1005
15
1002
}
1001
ACAD_DSTYLE_DIMRADIAL_EXTENSION
1070
   387
1070
     1
1070
   388
1040
4.775020773126082
1070
   390
1040
6.225946028945141
  0
DIMENSION
  5
D6836
102
{ACAD_XDICTIONARY
360
D683F
102
}
102
{ACAD_REACTORS
330
D6845
102
}
330
1F
100
AcDbEntity
  8
标注
 48
5.0
100
AcDbDimension
  2
*D20
 10
101715.7166430711
 20
-168808.5236902974
 30
0.0
 11
103174.3617323438
 21
-168783.0982183642
 31
0.0
 70
   164
 71
     5
 42
1499.999999990104
  3
副本Standard
100
AcDbRadialDimension
 15
103215.4888182135
 25
-168782.3813369411
 35
0.0
 40
0.0
1001
ACAD
1000
DSTYLE
1002
{
1070
    41
1040
10.0
1070
    49
1040
8.0
1070
   140
1040
12.0
1070
   147
1040
0.5
1070
   179
1070
     0
1070
   288
1070
     1
1070
   345
1005
15
1002
}
1001
ACAD_DSTYLE_DIMRADIAL_EXTENSION
1070
   387
1070
     1
1070
   388
1040
6.225946028945127
1070
   390
1040
0.0572392782344384
  0
DIMENSION
  5
D6846
102
{ACAD_XDICTIONARY
360
D684F
102
}
102
{ACAD_REACTORS
330
D6855
102
}
330
1F
100
AcDbEntity
  8
标注
 48
5.0
100
AcDbDimension
  2
*D21
 10
103133.3910802782
 20
-168727.2882912298
 30
0.0
 11
103156.1540691237
 21
-168685.7117793653
 31
0.0
 70
   164
 71
     5
 42
79.99999999985449
  3
副本Standard
100
AcDbRadialDimension
 15
103171.8096268528
 25
-168657.1169631885
 35
0.0
 40
0.0
1001
ACAD
1000
DSTYLE
1002
{
1070
    41
1040
10.0
1070
    49
1040
8.0
1070
   140
1040
12.0
1070
   147
1040
0.5
1070
   179
1070
     0
1070
   288
1070
     1
1070
   345
1005
15
1002
}
1001
ACAD_DSTYLE_DIMRADIAL_EXTENSION
1070
   387
1070
     1
1070
   388
1040
0.0572392782344434
1070
   390
1040
1.508164534053503
  0
ENDSEC
  0
SECTION
  2
OBJECTS
  0
DICTIONARY
  5
C
330
0
100
AcDbDictionary
281
     1
  3
ACAD_2007HEADERVARS_RT
350
D68BE
  3
ACAD_COLOR
350
6C
  3
ACAD_GROUP
350
D
  3
ACAD_LAYOUT
350
1A
  3
ACAD_MATERIAL
350
6B
  3
ACAD_MLEADERSTYLE
350
CEDBA
  3
ACAD_MLINESTYLE
350
17
  3
ACAD_PLOTSETTINGS
350
19
  3
ACAD_PLOTSTYLENAME
350
E
  3
ACAD_SCALELIST
350
CED98
  3
ACAD_TABLESTYLE
350
FAF
  3
ACAD_VISUALSTYLE
350
CED87
  3
AcadDim
350
100FD
  3
ACDB_RECOMPOSE_DATA
350
D0C4C
  3
AcDbVariableDictionary
350
59
  3
ASE_INDEX_DICTIONARY
350
C2668
  3
DWGPROPS
350
D68BD
  3
lxx_dict
350
A9D16
  0
DICTIONARY
  5
AB
330
2
100
AcDbDictionary
280
     1
281
     1
  3
ACAD_LAYERFILTERS
360
176
  3
ACAD_LAYERSTATES
360
AC
  0
DICTIONARY
  5
CF251
330
10
100
AcDbDictionary
280
     1
281
     1
  3
ADSK_XREC_LAYER_RECONCILED
360
CF252
  0
DICTIONARY
  5
CF259
330
9D
100
AcDbDictionary
280
     1
281
     1
  3
ADSK_XREC_LAYER_RECONCILED
360
CF25A
  0
DICTIONARY
  5
CF25B
330
9E
100
AcDbDictionary
280
     1
281
     1
  3
ADSK_XREC_LAYER_RECONCILED
360
CF25C
  0
DICTIONARY
  5
CF25D
330
16DF9
100
AcDbDictionary
280
     1
281
     1
  3
ADSK_XREC_LAYER_RECONCILED
360
CF25E
  0
DICTIONARY
  5
D61F6
330
D61F5
100
AcDbDictionary
280
     1
281
     1
  0
DICTIONARY
  5
118B
330
1F
100
AcDbDictionary
280
     1
281
     1
  3
ACAD_SORTENTS
360
118C
  0
DICTIONARY
  5
D68C8
330
D66E9
100
AcDbDictionary
280
     1
281
     1
  3
ACAD_MTEXT_RT
360
D68C9
  0
DICTIONARY
  5
D662D
330
D661F
100
AcDbDictionary
280
     1
281
     1
  3
ACAD_DIMASSOC
360
D6638
  0
DICTIONARY
  5
D6642
330
D6641
100
AcDbDictionary
280
     1
281
     1
  3
ACAD_DIMASSOC
360
D6643
  0
DICTIONARY
  5
D669B
330
D668D
100
AcDbDictionary
280
     1
281
     1
  3
ACAD_DIMASSOC
360
D66A6
  0
DICTIONARY
  5
D66B7
330
D66A7
100
AcDbDictionary
280
     1
281
     1
  3
ACAD_DIMASSOC
360
D66C4
  0
DICTIONARY
  5
D670B
330
D66FD
100
AcDbDictionary
280
     1
281
     1
  3
ACAD_DIMASSOC
360
D6716
  0
DICTIONARY
  5
D6731
330
D6721
100
AcDbDictionary
280
     1
281
     1
  3
ACAD_DIMASSOC
360
D673E
  0
DICTIONARY
  5
D6758
330
D674A
100
AcDbDictionary
280
     1
281
     1
  3
ACAD_DIMASSOC
360
D6763
  0
DICTIONARY
  5
D6772
330
D6764
100
AcDbDictionary
280
     1
281
     1
  3
ACAD_DIMASSOC
360
D677D
  0
DICTIONARY
  5
D67BB
330
D67AD
100
AcDbDictionary
280
     1
281
     1
  3
ACAD_DIMASSOC
360
D67C6
  0
DICTIONARY
  5
D67DF
330
D67D6
100
AcDbDictionary
280
     1
281
     1
  3
ACAD_DIMASSOC
360
D67E5
  0
DICTIONARY
  5
D67EF
330
D67E6
100
AcDbDictionary
280
     1
281
     1
  3
ACAD_DIMASSOC
360
D67F5
  0
DICTIONARY
  5
D67FF
330
D67F6
100
AcDbDictionary
280
     1
281
     1
  3
ACAD_DIMASSOC
360
D6805
  0
DICTIONARY
  5
D680F
330
D6806
100
AcDbDictionary
280
     1
281
     1
  3
ACAD_DIMASSOC
360
D6815
  0
DICTIONARY
  5
D681F
330
D6816
100
AcDbDictionary
280
     1
281
     1
  3
ACAD_DIMASSOC
360
D6825
  0
DICTIONARY
  5
D682F
330
D6826
100
AcDbDictionary
280
     1
281
     1
  3
ACAD_DIMASSOC
360
D6835
  0
DICTIONARY
  5
D683F
330
D6836
100
AcDbDictionary
280
     1
281
     1
  3
ACAD_DIMASSOC
360
D6845
  0
DICTIONARY
  5
D684F
330
D6846
100
AcDbDictionary
280
     1
281
     1
  3
ACAD_DIMASSOC
360
D6855
  0
DICTIONARY
  5
D68BE
102
{ACAD_REACTORS
330
C
102
}
330
C
100
AcDbDictionary
281
     1
  3
DIMFXL
350
D68BF
  3
DIMLTYPE
350
D68C0
  0
DICTIONARY
  5
6C
102
{ACAD_REACTORS
330
C
102
}
330
C
100
AcDbDictionary
281
     1
  0
DICTIONARY
  5
D
102
{ACAD_REACTORS
330
C
102
}
330
C
100
AcDbDictionary
281
     1
  0
DICTIONARY
  5
1A
102
{ACAD_REACTORS
330
C
102
}
330
C
100
AcDbDictionary
281
     1
  3
Model
350
22
  3
布局1
350
74
  3
布局2
350
79
  0
DICTIONARY
  5
6B
102
{ACAD_REACTORS
330
C
102
}
330
C
100
AcDbDictionary
281
     1
  3
ByBlock
350
CED77
  3
ByLayer
350
CED6F
  3
Global
350
CED7F
  0
DICTIONARY
  5
CEDBA
102
{ACAD_REACTORS
330
C
102
}
330
C
100
AcDbDictionary
281
     1
  3
Standard
350
CEDBB
  0
DICTIONARY
  5
17
102
{ACAD_REACTORS
330
C
102
}
330
C
100
AcDbDictionary
281
     1
  3
Standard
350
18
  0
DICTIONARY
  5
19
102
{ACAD_REACTORS
330
C
102
}
330
C
100
AcDbDictionary
281
     1
  0
ACDBDICTIONARYWDFLT
  5
E
102
{ACAD_REACTORS
330
C
102
}
330
C
100
AcDbDictionary
281
     1
  3
Normal
350
F
100
AcDbDictionaryWithDefault
340
F
  0
DICTIONARY
  5
CED98
102
{ACAD_REACTORS
330
C
102
}
330
C
100
AcDbDictionary
281
     1
  3
A0
350
CED99
  3
A1
350
CED9A
  3
A2
350
CED9B
  3
A3
350
CED9C
  3
A4
350
CED9D
  3
A5
350
CED9E
  3
A6
350
CED9F
  3
A7
350
CEDA0
  3
A8
350
CEDA1
  3
A9
350
CEDA2
  3
B0
350
CEDA3
  3
B1
350
CEDA4
  3
B2
350
CEDA5
  3
B3
350
CEDA6
  3
B4
350
CEDA7
  3
B5
350
CEDA8
  3
B6
350
CEDA9
  3
B7
350
CEDAA
  3
B8
350
CEDAB
  3
B9
350
CEDAC
  3
C0
350
CEDAD
  3
C1
350
CEDAE
  3
C2
350
CEDAF
  3
C3
350
CEDB0
  3
C4
350
CEDB1
  3
C5
350
CEDB2
  3
C6
350
CEDB3
  3
C7
350
CEDB4
  3
C8
350
CEDB5
  3
C9
350
CEDB6
  3
D0
350
CEDB7
  3
D1
350
CEDB8
  3
D2
350
CEDB9
  0
DICTIONARY
  5
FAF
102
{ACAD_REACTORS
330
C
102
}
330
C
100
AcDbDictionary
281
     1
  3
Standard
350
FB0
  0
DICTIONARY
  5
CED87
102
{ACAD_REACTORS
330
C
102
}
330
C
100
AcDbDictionary
281
     1
  3
2dWireframe
350
CED8D
  3
3D Hidden
350
CED8F
  3
3dWireframe
350
CED8E
  3
Basic
350
CED8C
  3
Brighten
350
CED93
  3
ColorChange
350
CED97
  3
Conceptual
350
CED90
  3
Dim
350
CED92
  3
Facepattern
350
CED96
  3
Flat
350
CED88
  3
FlatWithEdges
350
CED89
  3
Gouraud
350
CED8A
  3
GouraudWithEdges
350
CED8B
  3
Linepattern
350
CED95
  3
Realistic
350
CED91
  3
Thicken
350
CED94
  0
XRECORD
  5
100FD
102
{ACAD_REACTORS
330
C
102
}
330
C
100
AcDbXrecord
280
     1
 90
   990106
  3

 60
     0
 61
     0
 62
     1
 63
     3
 64
     0
 65
     0
 66
     0
 67
     3
 68
     1
 69
     0
 70
     0
 71
     0
 72
     0
 40
0.0
170
     0
  0
XRECORD
  5
D0C4C
102
{ACAD_REACTORS
330
C
102
}
330
C
100
AcDbXrecord
280
     1
 90
        1
330
FB0
  0
DICTIONARY
  5
59
102
{ACAD_REACTORS
330
C
102
}
330
C
100
AcDbDictionary
281
     1
  3
CANNOSCALE
350
D0C4F
  3
CMLEADERSTYLE
350
D0C4D
  3
CTABLESTYLE
350
100D
  3
DIMASSOC
350
5A
  3
HIDETEXT
350
5E
  3
INDEXCTL
350
D687B
  3
LIGHTINGUNITS
350
D0C50
  3
MSLTSCALE
350
D0C4E
  3
SORTENTS
350
D687A
  0
DICTIONARY
  5
C2668
102
{ACAD_REACTORS
330
C
102
}
330
C
100
AcDbDictionary
281
     1
  3
ASEBlockHierarchyIndexRecord
350
C2669
1001
DCO15
1040
1779131318.625
  0
XRECORD
  5
D68BD
102
{ACAD_REACTORS
330
C
102
}
330
C
100
AcDbXrecord
280
     1
  1
DWGPROPS COOKIE
  2

  3

  4

  6

  7

  8
Administrator
  9

300
=
301
=
302
=
303
=
304
=
305
=
306
=
307
=
308
=
309
=
 40
8.835682268518517
 41
2454355.343801713
 42
2457938.598017304
  1

 90
        0
  0
DICTIONARY
  5
A9D16
102
{ACAD_REACTORS
330
C
102
}
330
C
100
AcDbDictionary
281
     1
  3
lxx_dimth
350
A9D17
  0
DICTIONARY
  5
176
102
{ACAD_REACTORS
330
AB
102
}
330
AB
100
AcDbDictionary
281
     1
  0
DICTIONARY
  5
AC
102
{ACAD_REACTORS
330
AB
102
}
330
AB
100
AcDbDictionary
281
     1
  0
XRECORD
  5
CF252
102
{ACAD_REACTORS
330
CF251
102
}
330
CF251
100
AcDbXrecord
280
     1
290
     1
  0
XRECORD
  5
CF25A
102
{ACAD_REACTORS
330
CF259
102
}
330
CF259
100
AcDbXrecord
280
     1
290
     1
  0
XRECORD
  5
CF25C
102
{ACAD_REACTORS
330
CF25B
102
}
330
CF25B
100
AcDbXrecord
280
     1
290
     1
  0
XRECORD
  5
CF25E
102
{ACAD_REACTORS
330
CF25D
102
}
330
CF25D
100
AcDbXrecord
280
     1
290
     1
  0
SORTENTSTABLE
  5
118C
102
{ACAD_REACTORS
330
118B
102
}
330
118B
100
AcDbSortentsTable
330
1F
331
D665E
  5
D667C
331
D663F
  5
D6640
331
D661F
  5
D661F
331
D664F
  5
D666D
331
D6640
  5
D664F
331
D6641
  5
D665E
331
D668B
  5
D6641
331
D668C
  5
D663F
331
D667C
  5
D668C
331
D666D
  5
D668B
331
D663E
  5
D663E
331
D661E
  5
D656B
331
D6616
  5
D6568
  0
XRECORD
  5
D68C9
102
{ACAD_REACTORS
330
D68C8
102
}
330
D68C8
100
AcDbXrecord
280
     1
 40
5922.0
  1
\A1;5-\U+22056
  0
DIMASSOC
  5
D6638
102
{ACAD_REACTORS
330
D662D
102
}
330
D662D
100
AcDbDimAssoc
330
D661F
 90
        3
 70
     0
 71
     0
  1
AcDbOsnapPointRef
 72
     2
331
D6616
 73
     2
 91
        8
 40
3.141592653589792
 10
0.0
 20
0.0
 30
0.0
 75
     0
  1
AcDbOsnapPointRef
 72
     2
331
D6616
 73
     2
 91
        4
 40
6.283185307179566
 10
0.0
 20
0.0
 30
0.0
 75
     0
  0
DIMASSOC
  5
D6643
102
{ACAD_REACTORS
330
D6642
102
}
330
D6642
100
AcDbDimAssoc
330
D6641
 90
        2
 70
     0
 71
     0
  1
AcDbOsnapPointRef
 72
     3
331
D6640
 73
     2
 91
        0
 40
0.0
 10
0.0
 20
0.0
 30
0.0
 75
     0
  0
DIMASSOC
  5
D66A6
102
{ACAD_REACTORS
330
D669B
102
}
330
D669B
100
AcDbDimAssoc
330
D668D
 90
        3
 70
     0
 71
     0
  1
AcDbOsnapPointRef
 72
     2
331
D6616
 73
     2
 91
        2
 40
4.712388980384695
 10
0.0
 20
0.0
 30
0.0
 75
     0
  1
AcDbOsnapPointRef
 72
     8
331
D6616
 73
     2
 91
        6
 40
1.570796326794889
 10
0.0
 20
0.0
 30
0.0
 75
     1
  1
AcDbOsnapPointRef
 72
     2
331
D6616
 73
     2
 91
        2
 40
4.712388980384695
 10
0.0
 20
0.0
 30
0.0
 75
     0
  0
DIMASSOC
  5
D66C4
102
{ACAD_REACTORS
330
D66B7
102
}
330
D66B7
100
AcDbDimAssoc
330
D66A7
 90
        3
 70
     0
 71
     0
  1
AcDbOsnapPointRef
 72
     3
331
D665E
 73
     2
 91
        0
 40
0.0
 10
0.0
 20
0.0
 30
0.0
 75
     0
  1
AcDbOsnapPointRef
 72
     2
331
D661E
 73
     2
 91
        8
 40
3.141592653589792
 10
0.0
 20
0.0
 30
0.0
 75
     0
  0
DIMASSOC
  5
D6716
102
{ACAD_REACTORS
330
D670B
102
}
330
D670B
100
AcDbDimAssoc
330
D66FD
 90
        2
 70
     0
 71
     0
  1
AcDbOsnapPointRef
 72
     3
331
D666D
 73
     2
 91
        0
 40
0.0
 10
0.0
 20
0.0
 30
0.0
 75
     0
  0
DIMASSOC
  5
D673E
102
{ACAD_REACTORS
330
D6731
102
}
330
D6731
100
AcDbDimAssoc
330
D6721
 90
        3
 70
     0
 71
     0
  1
AcDbOsnapPointRef
 72
     3
331
D664F
 73
     2
 91
        0
 40
0.0
 10
0.0
 20
0.0
 30
0.0
 75
     0
  1
AcDbOsnapPointRef
 72
     2
331
D661E
 73
     2
 91
        6
 40
1.570796326794896
 10
0.0
 20
0.0
 30
0.0
 75
     0
  0
DIMASSOC
  5
D6763
102
{ACAD_REACTORS
330
D6758
102
}
330
D6758
100
AcDbDimAssoc
330
D674A
 90
        2
 70
     0
 71
     0
  1
AcDbOsnapPointRef
 72
     3
331
D6640
 73
     2
 91
        0
 40
0.0
 10
0.0
 20
0.0
 30
0.0
 75
     0
  0
DIMASSOC
  5
D677D
102
{ACAD_REACTORS
330
D6772
102
}
330
D6772
100
AcDbDimAssoc
330
D6764
 90
        2
 70
     0
 71
     0
  1
AcDbOsnapPointRef
 72
     3
331
D667C
 73
     2
 91
        0
 40
0.0
 10
0.0
 20
0.0
 30
0.0
 75
     0
  0
DIMASSOC
  5
D67C6
102
{ACAD_REACTORS
330
D67BB
102
}
330
D67BB
100
AcDbDimAssoc
330
D67AD
 90
        1
 70
     0
 71
     0
  1
AcDbOsnapPointRef
 72
     2
331
D661E
 73
     2
 91
        2
 40
4.712388980384688
 10
0.0
 20
0.0
 30
0.0
 75
     0
  0
DIMASSOC
  5
D67E5
102
{ACAD_REACTORS
330
D67DF
102
}
330
D67DF
100
AcDbDimAssoc
330
D67D6
 90
        2
 70
     0
 71
     0
  1
AcDbOsnapPointRef
 72
     3
331
D6616
 73
     2
 91
        7
 40
0.0
 10
0.0
 20
0.0
 30
0.0
 75
     0
  0
DIMASSOC
  5
D67F5
102
{ACAD_REACTORS
330
D67EF
102
}
330
D67EF
100
AcDbDimAssoc
330
D67E6
 90
        2
 70
     0
 71
     0
  1
AcDbOsnapPointRef
 72
     3
331
D6616
 73
     2
 91
        6
 40
0.0
 10
0.0
 20
0.0
 30
0.0
 75
     0
  0
DIMASSOC
  5
D6805
102
{ACAD_REACTORS
330
D67FF
102
}
330
D67FF
100
AcDbDimAssoc
330
D67F6
 90
        2
 70
     0
 71
     0
  1
AcDbOsnapPointRef
 72
     3
331
D6616
 73
     2
 91
        8
 40
0.0
 10
0.0
 20
0.0
 30
0.0
 75
     0
  0
DIMASSOC
  5
D6815
102
{ACAD_REACTORS
330
D680F
102
}
330
D680F
100
AcDbDimAssoc
330
D6806
 90
        2
 70
     0
 71
     0
  1
AcDbOsnapPointRef
 72
     3
331
D6616
 73
     2
 91
        1
 40
0.0
 10
0.0
 20
0.0
 30
0.0
 75
     0
  0
DIMASSOC
  5
D6825
102
{ACAD_REACTORS
330
D681F
102
}
330
D681F
100
AcDbDimAssoc
330
D6816
 90
        2
 70
     0
 71
     0
  1
AcDbOsnapPointRef
 72
     3
331
D6616
 73
     2
 91
        2
 40
0.0
 10
0.0
 20
0.0
 30
0.0
 75
     0
  0
DIMASSOC
  5
D6835
102
{ACAD_REACTORS
330
D682F
102
}
330
D682F
100
AcDbDimAssoc
330
D6826
 90
        2
 70
     0
 71
     0
  1
AcDbOsnapPointRef
 72
     3
331
D6616
 73
     2
 91
        3
 40
0.0
 10
0.0
 20
0.0
 30
0.0
 75
     0
  0
DIMASSOC
  5
D6845
102
{ACAD_REACTORS
330
D683F
102
}
330
D683F
100
AcDbDimAssoc
330
D6836
 90
        2
 70
     0
 71
     0
  1
AcDbOsnapPointRef
 72
     3
331
D6616
 73
     2
 91
        4
 40
0.0
 10
0.0
 20
0.0
 30
0.0
 75
     0
  0
DIMASSOC
  5
D6855
102
{ACAD_REACTORS
330
D684F
102
}
330
D684F
100
AcDbDimAssoc
330
D6846
 90
        2
 70
     0
 71
     0
  1
AcDbOsnapPointRef
 72
     3
331
D6616
 73
     2
 91
        5
 40
0.0
 10
0.0
 20
0.0
 30
0.0
 75
     0
  0
XRECORD
  5
D68BF
102
{ACAD_REACTORS
330
D68BE
102
}
330
D68BE
100
AcDbXrecord
280
     1
 40
8.0
  0
XRECORD
  5
D68C0
102
{ACAD_REACTORS
330
D68BE
102
}
330
D68BE
100
AcDbXrecord
280
     1
340
15
  0
LAYOUT
  5
22
102
{ACAD_XDICTIONARY
360
D68C1
102
}
102
{ACAD_REACTORS
330
1A
102
}
330
1A
100
AcDbPlotSettings
  1

  2
\\PC-201204061032\Canon LBP2900
  4
A4
  6

 40
5.873749732971191
 41
6.805091857910156
 42
5.873748779296875
 43
4.857757568359375
 44
209.9733276367186
 45
296.9259948730469
 46
-5.889999999999998
 47
-5.87
 48
85766.02374884076
 49
-163980.7810393121
140
88736.02374884079
141
-161880.7810393122
142
1.0
143
10.0
 70
 11940
 72
     1
 73
     1
 74
     4
  7
yanxiu.ctb
 75
     0
147
0.1
148
-85766.02374884076
149
163980.7810393121
100
AcDbLayout
  1
Model
 70
     1
 71
     0
 10
0.0
 20
0.0
 11
12.0
 21
9.0
 12
0.0
 22
0.0
 32
0.0
 14
0.0
 24
0.0
 34
0.0
 15
0.0
 25
0.0
 35
0.0
146
0.0
 13
0.0
 23
0.0
 33
0.0
 16
1.0
 26
0.0
 36
0.0
 17
0.0
 27
1.0
 37
0.0
 76
     0
330
1F
331
CED6D
  0
LAYOUT
  5
74
102
{ACAD_XDICTIONARY
360
D68C3
102
}
102
{ACAD_REACTORS
330
1A
102
}
330
1A
100
AcDbPlotSettings
  1

  2
\\ADSCCNDC1\hq601xrx1
  4

  6

 40
0.0
 41
0.0
 42
0.0
 43
0.0
 44
0.0
 45
0.0
 46
0.0
 47
0.0
 48
0.0
 49
0.0
140
0.0
141
0.0
142
1.0
143
1.0
 70
   688
 72
     0
 73
     0
 74
     5
  7
yanxiu.ctb
 75
    16
147
1.0
148
0.0
149
0.0
100
AcDbLayout
  1
布局1
 70
     1
 71
     1
 10
0.0
 20
0.0
 11
12.0
 21
9.0
 12
0.0
 22
0.0
 32
0.0
 14
0.0
 24
0.0
 34
0.0
 15
0.0
 25
0.0
 35
0.0
146
0.0
 13
0.0
 23
0.0
 33
0.0
 16
1.0
 26
0.0
 36
0.0
 17
0.0
 27
1.0
 37
0.0
 76
     0
330
73
  0
LAYOUT
  5
79
102
{ACAD_XDICTIONARY
360
D68C5
102
}
102
{ACAD_REACTORS
330
1A
102
}
330
1A
100
AcDbPlotSettings
  1

  2
\\ADSCCNDC1\hq601xrx1
  4

  6

 40
0.0
 41
0.0
 42
0.0
 43
0.0
 44
0.0
 45
0.0
 46
0.0
 47
0.0
 48
0.0
 49
0.0
140
0.0
141
0.0
142
1.0
143
1.0
 70
   688
 72
     0
 73
     0
 74
     5
  7
yanxiu.ctb
 75
    16
147
1.0
148
0.0
149
0.0
100
AcDbLayout
  1
布局2
 70
     1
 71
     2
 10
0.0
 20
0.0
 11
12.0
 21
9.0
 12
0.0
 22
0.0
 32
0.0
 14
0.0
 24
0.0
 34
0.0
 15
0.0
 25
0.0
 35
0.0
146
0.0
 13
0.0
 23
0.0
 33
0.0
 16
1.0
 26
0.0
 36
0.0
 17
0.0
 27
1.0
 37
0.0
 76
     0
330
78
  0
MATERIAL
  5
CED77
102
{ACAD_XDICTIONARY
360
CED78
102
}
102
{ACAD_REACTORS
330
6B
102
}
330
6B
100
AcDbMaterial
  1
ByBlock
 72
     0
 43
0.0208333333333333
 43
0.0
 43
0.0
 43
0.0
 43
0.0
 43
0.0208333333333333
 43
0.0
 43
0.0
 43
0.0
 43
0.0
 43
1.0
 43
0.0
 43
0.0
 43
0.0
 43
0.0
 43
1.0
 77
     0
 47
0.0208333333333333
 47
0.0
 47
0.0
 47
0.0
 47
0.0
 47
0.0208333333333333
 47
0.0
 47
0.0
 47
0.0
 47
0.0
 47
1.0
 47
0.0
 47
0.0
 47
0.0
 47
0.0
 47
1.0
171
     0
 49
0.0208333333333333
 49
0.0
 49
0.0
 49
0.0
 49
0.0
 49
0.0208333333333333
 49
0.0
 49
0.0
 49
0.0
 49
0.0
 49
1.0
 49
0.0
 49
0.0
 49
0.0
 49
0.0
 49
1.0
175
     0
142
0.0208333333333333
142
0.0
142
0.0
142
0.0
142
0.0
142
0.0208333333333333
142
0.0
142
0.0
142
0.0
142
0.0
142
1.0
142
0.0
142
0.0
142
0.0
142
0.0
142
1.0
179
     0
144
0.0208333333333333
144
0.0
144
0.0
144
0.0
144
0.0
144
0.0208333333333333
144
0.0
144
0.0
144
0.0
144
0.0
144
1.0
144
0.0
144
0.0
144
0.0
144
0.0
144
1.0
147
0.0208333333333333
147
0.0
147
0.0
147
0.0
147
0.0
147
0.0208333333333333
147
0.0
147
0.0
147
0.0
147
0.0
147
1.0
147
0.0
147
0.0
147
0.0
147
0.0
147
1.0
  0
MATERIAL
  5
CED6F
102
{ACAD_XDICTIONARY
360
CED70
102
}
102
{ACAD_REACTORS
330
6B
102
}
330
6B
100
AcDbMaterial
  1
ByLayer
 72
     0
 43
0.0208333333333333
 43
0.0
 43
0.0
 43
0.0
 43
0.0
 43
0.0208333333333333
 43
0.0
 43
0.0
 43
0.0
 43
0.0
 43
1.0
 43
0.0
 43
0.0
 43
0.0
 43
0.0
 43
1.0
 77
     0
 47
0.0208333333333333
 47
0.0
 47
0.0
 47
0.0
 47
0.0
 47
0.0208333333333333
 47
0.0
 47
0.0
 47
0.0
 47
0.0
 47
1.0
 47
0.0
 47
0.0
 47
0.0
 47
0.0
 47
1.0
171
     0
 49
0.0208333333333333
 49
0.0
 49
0.0
 49
0.0
 49
0.0
 49
0.0208333333333333
 49
0.0
 49
0.0
 49
0.0
 49
0.0
 49
1.0
 49
0.0
 49
0.0
 49
0.0
 49
0.0
 49
1.0
175
     0
142
0.0208333333333333
142
0.0
142
0.0
142
0.0
142
0.0
142
0.0208333333333333
142
0.0
142
0.0
142
0.0
142
0.0
142
1.0
142
0.0
142
0.0
142
0.0
142
0.0
142
1.0
179
     0
144
0.0208333333333333
144
0.0
144
0.0
144
0.0
144
0.0
144
0.0208333333333333
144
0.0
144
0.0
144
0.0
144
0.0
144
1.0
144
0.0
144
0.0
144
0.0
144
0.0
144
1.0
147
0.0208333333333333
147
0.0
147
0.0
147
0.0
147
0.0
147
0.0208333333333333
147
0.0
147
0.0
147
0.0
147
0.0
147
1.0
147
0.0
147
0.0
147
0.0
147
0.0
147
1.0
  0
MATERIAL
  5
CED7F
102
{ACAD_XDICTIONARY
360
CED80
102
}
102
{ACAD_REACTORS
330
6B
102
}
330
6B
100
AcDbMaterial
  1
Global
 72
     0
 43
0.0208333333333333
 43
0.0
 43
0.0
 43
0.0
 43
0.0
 43
0.0208333333333333
 43
0.0
 43
0.0
 43
0.0
 43
0.0
 43
1.0
 43
0.0
 43
0.0
 43
0.0
 43
0.0
 43
1.0
 77
     0
 47
0.0208333333333333
 47
0.0
 47
0.0
 47
0.0
 47
0.0
 47
0.0208333333333333
 47
0.0
 47
0.0
 47
0.0
 47
0.0
 47
1.0
 47
0.0
 47
0.0
 47
0.0
 47
0.0
 47
1.0
171
     0
 49
0.0208333333333333
 49
0.0
 49
0.0
 49
0.0
 49
0.0
 49
0.0208333333333333
 49
0.0
 49
0.0
 49
0.0
 49
0.0
 49
1.0
 49
0.0
 49
0.0
 49
0.0
 49
0.0
 49
1.0
175
     0
142
0.0208333333333333
142
0.0
142
0.0
142
0.0
142
0.0
142
0.0208333333333333
142
0.0
142
0.0
142
0.0
142
0.0
142
1.0
142
0.0
142
0.0
142
0.0
142
0.0
142
1.0
179
     0
144
0.0208333333333333
144
0.0
144
0.0
144
0.0
144
0.0
144
0.0208333333333333
144
0.0
144
0.0
144
0.0
144
0.0
144
1.0
144
0.0
144
0.0
144
0.0
144
0.0
144
1.0
147
0.0208333333333333
147
0.0
147
0.0
147
0.0
147
0.0
147
0.0208333333333333
147
0.0
147
0.0
147
0.0
147
0.0
147
1.0
147
0.0
147
0.0
147
0.0
147
0.0
147
1.0
  0
MLEADERSTYLE
  5
CEDBB
102
{ACAD_REACTORS
330
CEDBA
102
}
330
CEDBA
100
AcDbMLeaderStyle
170
     2
171
     1
172
     0
 90
        2
 40
0.0
 41
0.0
173
     1
 91
-1056964608
340
14
 92
       -2
290
     1
 42
0.09
291
     1
 43
0.36
  3
Standard
 44
0.18
300

342
11
174
     1
178
     6
175
     1
176
     0
 93
-1056964608
 45
0.18
292
     0
297
     0
 46
0.18
 94
-1056964608
 47
1.0
 49
1.0
140
1.0
293
     1
141
0.0
294
     1
177
     0
142
1.0
295
     0
296
     0
143
0.125
1001
ACAD_MLEADERVER
1070
     2
  0
MLINESTYLE
  5
18
102
{ACAD_REACTORS
330
17
102
}
330
17
100
AcDbMlineStyle
  2
STANDARD
 70
     0
  3

 62
   256
 51
90.0
 52
90.0
 71
     2
 49
0.5
 62
   256
  6
BYLAYER
 49
-0.5
 62
   256
  6
BYLAYER
  0
ACDBPLACEHOLDER
  5
F
102
{ACAD_REACTORS
330
E
102
}
330
E
  0
SCALE
  5
CED99
102
{ACAD_REACTORS
330
CED98
102
}
330
CED98
100
AcDbScale
 70
     0
300
1:1
140
1.0
141
1.0
290
     1
  0
SCALE
  5
CED9A
102
{ACAD_REACTORS
330
CED98
102
}
330
CED98
100
AcDbScale
 70
     0
300
1:2
140
1.0
141
2.0
290
     0
  0
SCALE
  5
CED9B
102
{ACAD_REACTORS
330
CED98
102
}
330
CED98
100
AcDbScale
 70
     0
300
1:4
140
1.0
141
4.0
290
     0
  0
SCALE
  5
CED9C
102
{ACAD_REACTORS
330
CED98
102
}
330
CED98
100
AcDbScale
 70
     0
300
1:5
140
1.0
141
5.0
290
     0
  0
SCALE
  5
CED9D
102
{ACAD_REACTORS
330
CED98
102
}
330
CED98
100
AcDbScale
 70
     0
300
1:8
140
1.0
141
8.0
290
     0
  0
SCALE
  5
CED9E
102
{ACAD_REACTORS
330
CED98
102
}
330
CED98
100
AcDbScale
 70
     0
300
1:10
140
1.0
141
10.0
290
     0
  0
SCALE
  5
CED9F
102
{ACAD_REACTORS
330
CED98
102
}
330
CED98
100
AcDbScale
 70
     0
300
1:16
140
1.0
141
16.0
290
     0
  0
SCALE
  5
CEDA0
102
{ACAD_REACTORS
330
CED98
102
}
330
CED98
100
AcDbScale
 70
     0
300
1:20
140
1.0
141
20.0
290
     0
  0
SCALE
  5
CEDA1
102
{ACAD_REACTORS
330
CED98
102
}
330
CED98
100
AcDbScale
 70
     0
300
1:30
140
1.0
141
30.0
290
     0
  0
SCALE
  5
CEDA2
102
{ACAD_REACTORS
330
CED98
102
}
330
CED98
100
AcDbScale
 70
     0
300
1:40
140
1.0
141
40.0
290
     0
  0
SCALE
  5
CEDA3
102
{ACAD_REACTORS
330
CED98
102
}
330
CED98
100
AcDbScale
 70
     0
300
1:50
140
1.0
141
50.0
290
     0
  0
SCALE
  5
CEDA4
102
{ACAD_REACTORS
330
CED98
102
}
330
CED98
100
AcDbScale
 70
     0
300
1:100
140
1.0
141
100.0
290
     0
  0
SCALE
  5
CEDA5
102
{ACAD_REACTORS
330
CED98
102
}
330
CED98
100
AcDbScale
 70
     0
300
2:1
140
2.0
141
1.0
290
     0
  0
SCALE
  5
CEDA6
102
{ACAD_REACTORS
330
CED98
102
}
330
CED98
100
AcDbScale
 70
     0
300
4:1
140
4.0
141
1.0
290
     0
  0
SCALE
  5
CEDA7
102
{ACAD_REACTORS
330
CED98
102
}
330
CED98
100
AcDbScale
 70
     0
300
8:1
140
8.0
141
1.0
290
     0
  0
SCALE
  5
CEDA8
102
{ACAD_REACTORS
330
CED98
102
}
330
CED98
100
AcDbScale
 70
     0
300
10:1
140
10.0
141
1.0
290
     0
  0
SCALE
  5
CEDA9
102
{ACAD_REACTORS
330
CED98
102
}
330
CED98
100
AcDbScale
 70
     0
300
100:1
140
100.0
141
1.0
290
     0
  0
SCALE
  5
CEDAA
102
{ACAD_REACTORS
330
CED98
102
}
330
CED98
100
AcDbScale
 70
     0
300
1/128" = 1'-0"
140
0.0078125
141
12.0
290
     0
  0
SCALE
  5
CEDAB
102
{ACAD_REACTORS
330
CED98
102
}
330
CED98
100
AcDbScale
 70
     0
300
1/64" = 1'-0"
140
0.015625
141
12.0
290
     0
  0
SCALE
  5
CEDAC
102
{ACAD_REACTORS
330
CED98
102
}
330
CED98
100
AcDbScale
 70
     0
300
1/32" = 1'-0"
140
0.03125
141
12.0
290
     0
  0
SCALE
  5
CEDAD
102
{ACAD_REACTORS
330
CED98
102
}
330
CED98
100
AcDbScale
 70
     0
300
1/16" = 1'-0"
140
0.0625
141
12.0
290
     0
  0
SCALE
  5
CEDAE
102
{ACAD_REACTORS
330
CED98
102
}
330
CED98
100
AcDbScale
 70
     0
300
3/32" = 1'-0"
140
0.09375
141
12.0
290
     0
  0
SCALE
  5
CEDAF
102
{ACAD_REACTORS
330
CED98
102
}
330
CED98
100
AcDbScale
 70
     0
300
1/8" = 1'-0"
140
0.125
141
12.0
290
     0
  0
SCALE
  5
CEDB0
102
{ACAD_REACTORS
330
CED98
102
}
330
CED98
100
AcDbScale
 70
     0
300
3/16" = 1'-0"
140
0.1875
141
12.0
290
     0
  0
SCALE
  5
CEDB1
102
{ACAD_REACTORS
330
CED98
102
}
330
CED98
100
AcDbScale
 70
     0
300
1/4" = 1'-0"
140
0.25
141
12.0
290
     0
  0
SCALE
  5
CEDB2
102
{ACAD_REACTORS
330
CED98
102
}
330
CED98
100
AcDbScale
 70
     0
300
3/8" = 1'-0"
140
0.375
141
12.0
290
     0
  0
SCALE
  5
CEDB3
102
{ACAD_REACTORS
330
CED98
102
}
330
CED98
100
AcDbScale
 70
     0
300
1/2" = 1'-0"
140
0.5
141
12.0
290
     0
  0
SCALE
  5
CEDB4
102
{ACAD_REACTORS
330
CED98
102
}
330
CED98
100
AcDbScale
 70
     0
300
3/4" = 1'-0"
140
0.75
141
12.0
290
     0
  0
SCALE
  5
CEDB5
102
{ACAD_REACTORS
330
CED98
102
}
330
CED98
100
AcDbScale
 70
     0
300
1" = 1'-0"
140
1.0
141
12.0
290
     0
  0
SCALE
  5
CEDB6
102
{ACAD_REACTORS
330
CED98
102
}
330
CED98
100
AcDbScale
 70
     0
300
1-1/2" = 1'-0"
140
1.5
141
12.0
290
     0
  0
SCALE
  5
CEDB7
102
{ACAD_REACTORS
330
CED98
102
}
330
CED98
100
AcDbScale
 70
     0
300
3" = 1'-0"
140
3.0
141
12.0
290
     0
  0
SCALE
  5
CEDB8
102
{ACAD_REACTORS
330
CED98
102
}
330
CED98
100
AcDbScale
 70
     0
300
6" = 1'-0"
140
6.0
141
12.0
290
     0
  0
SCALE
  5
CEDB9
102
{ACAD_REACTORS
330
CED98
102
}
330
CED98
100
AcDbScale
 70
     0
300
1'-0" = 1'-0"
140
12.0
141
12.0
290
     0
  0
TABLESTYLE
  5
FB0
102
{ACAD_XDICTIONARY
360
D0C45
102
}
102
{ACAD_REACTORS
330
FAF
102
}
330
FAF
100
AcDbTableStyle
  3
Standard
 70
     0
 71
     0
 40
0.06
 41
0.06
280
     0
281
     0
  7
Standard
140
0.18
170
     2
 62
     0
 63
     7
283
     0
274
    -2
284
     1
 64
     0
275
    -2
285
     1
 65
     0
276
    -2
286
     1
 66
     0
277
    -2
287
     1
 67
     0
278
    -2
288
     1
 68
     0
279
    -2
289
     1
 69
     0
  7
Standard
140
0.25
170
     5
 62
     0
 63
     7
283
     0
274
    -2
284
     1
 64
     0
275
    -2
285
     1
 65
     0
276
    -2
286
     1
 66
     0
277
    -2
287
     1
 67
     0
278
    -2
288
     1
 68
     0
279
    -2
289
     1
 69
     0
  7
Standard
140
0.18
170
     5
 62
     0
 63
     7
283
     0
274
    -2
284
     1
 64
     0
275
    -2
285
     1
 65
     0
276
    -2
286
     1
 66
     0
277
    -2
287
     1
 67
     0
278
    -2
288
     1
 68
     0
279
    -2
289
     1
 69
     0
  0
VISUALSTYLE
  5
CED8D
102
{ACAD_REACTORS
330
CED87
102
}
330
CED87
100
AcDbVisualStyle
  2
2dWireframe
 70
     4
 71
     0
 72
     2
 73
     0
 90
        0
 40
-0.6
 41
-30.0
 62
     5
 63
     7
 74
     1
 91
        4
 64
     7
 65
   257
 75
     1
175
     1
 42
1.0
 92
        0
 66
   257
 43
1.0
 76
     1
 77
     6
 78
     2
 67
     7
 79
     5
170
     0
171
     0
290
     0
174
     0
 93
        1
 44
0.0
173
     0
291
     0
 45
0.0
1001
ACAD
1000
AcDbSavedByObjectVersion
1070
     0
1000
AcDbSavedByObjectVersion
1070
     0
  0
VISUALSTYLE
  5
CED8F
102
{ACAD_REACTORS
330
CED87
102
}
330
CED87
100
AcDbVisualStyle
  2
3D Hidden
 70
     6
 71
     1
 72
     2
 73
     2
 90
        0
 40
-0.6
 41
-30.0
 62
     5
 63
     7
 74
     2
 91
        2
 64
     7
 65
   257
 75
     2
175
     1
 42
40.0
 92
        0
 66
   257
 43
1.0
 76
     1
 77
     6
 78
     2
 67
     7
 79
     3
170
     0
171
     0
290
     0
174
     0
 93
        1
 44
0.0
173
     0
291
     0
 45
0.0
1001
ACAD
1000
AcDbSavedByObjectVersion
1070
     0
1000
AcDbSavedByObjectVersion
1070
     0
  0
VISUALSTYLE
  5
CED8E
102
{ACAD_REACTORS
330
CED87
102
}
330
CED87
100
AcDbVisualStyle
  2
3dWireframe
 70
     5
 71
     0
 72
     2
 73
     0
 90
        0
 40
-0.6
 41
-30.0
 62
     5
 63
     7
 74
     1
 91
        4
 64
     7
 65
   257
 75
     1
175
     1
 42
1.0
 92
        0
 66
   257
 43
1.0
 76
     1
 77
     6
 78
     2
 67
     7
 79
     5
170
     0
171
     0
290
     0
174
     0
 93
        1
 44
0.0
173
     0
291
     0
 45
0.0
1001
ACAD
1000
AcDbSavedByObjectVersion
1070
     0
1000
AcDbSavedByObjectVersion
1070
     0
  0
VISUALSTYLE
  5
CED8C
102
{ACAD_REACTORS
330
CED87
102
}
330
CED87
100
AcDbVisualStyle
  2
Basic
 70
     7
 71
     1
 72
     0
 73
     1
 90
        0
 40
-0.6
 41
-30.0
 62
     5
 63
     7
 74
     0
 91
        4
 64
     7
 65
   257
 75
     1
175
     1
 42
1.0
 92
        8
 66
     7
 43
1.0
 76
     1
 77
     6
 78
     2
 67
     7
 79
     5
170
     0
171
     0
290
     0
174
     0
 93
        1
 44
0.0
173
     0
291
     1
 45
0.0
1001
ACAD
1000
AcDbSavedByObjectVersion
1070
     0
1000
AcDbSavedByObjectVersion
1070
     0
  0
VISUALSTYLE
  5
CED93
102
{ACAD_REACTORS
330
CED87
102
}
330
CED87
100
AcDbVisualStyle
  2
Brighten
 70
    12
 71
     2
 72
     2
 73
     0
 90
        0
 40
-0.6
 41
-30.0
 62
     5
 63
     7
 74
     1
 91
        4
 64
     7
 65
   257
 75
     1
175
     1
 42
1.0
 92
        8
 66
     7
 43
1.0
 76
     1
 77
     6
 78
     2
 67
     7
 79
     5
170
     0
171
     0
290
     0
174
     0
 93
        1
 44
50.0
173
     0
291
     1
 45
0.0
1001
ACAD
1000
AcDbSavedByObjectVersion
1070
     0
1000
AcDbSavedByObjectVersion
1070
     0
  0
VISUALSTYLE
  5
CED97
102
{ACAD_REACTORS
330
CED87
102
}
330
CED87
100
AcDbVisualStyle
  2
ColorChange
 70
    16
 71
     2
 72
     2
 73
     3
 90
        0
 40
-0.6
 41
-30.0
 62
     5
 63
     8
 74
     1
 91
        4
 64
     7
 65
   257
 75
     1
175
     1
 42
1.0
 92
        8
 66
     8
 43
1.0
 76
     1
 77
     6
 78
     2
 67
     7
 79
     5
170
     0
171
     0
290
     0
174
     0
 93
        1
 44
0.0
173
     0
291
     1
 45
0.0
1001
ACAD
1000
AcDbSavedByObjectVersion
1070
     0
1000
AcDbSavedByObjectVersion
1070
     0
  0
VISUALSTYLE
  5
CED90
102
{ACAD_REACTORS
330
CED87
102
}
330
CED87
100
AcDbVisualStyle
  2
Conceptual
 70
     9
 71
     3
 72
     2
 73
     0
 90
        0
 40
-0.6
 41
-30.0
 62
     5
 63
     7
 74
     2
 91
        2
 64
     7
 65
   257
 75
     1
175
     1
 42
40.0
 92
        8
 66
     7
 43
1.0
 76
     1
 77
     6
 78
     2
 67
     7
 79
     3
170
     0
171
     0
290
     0
174
     0
 93
        1
 44
0.0
173
     0
291
     0
 45
0.0
1001
ACAD
1000
AcDbSavedByObjectVersion
1070
     0
1000
AcDbSavedByObjectVersion
1070
     0
  0
VISUALSTYLE
  5
CED92
102
{ACAD_REACTORS
330
CED87
102
}
330
CED87
100
AcDbVisualStyle
  2
Dim
 70
    11
 71
     2
 72
     2
 73
     0
 90
        0
 40
-0.6
 41
-30.0
 62
     5
 63
     7
 74
     1
 91
        4
 64
     7
 65
   257
 75
     1
175
     1
 42
1.0
 92
        8
 66
     7
 43
1.0
 76
     1
 77
     6
 78
     2
 67
     7
 79
     5
170
     0
171
     0
290
     0
174
     0
 93
        1
 44
-50.0
173
     0
291
     1
 45
0.0
1001
ACAD
1000
AcDbSavedByObjectVersion
1070
     0
1000
AcDbSavedByObjectVersion
1070
     0
  0
VISUALSTYLE
  5
CED96
102
{ACAD_REACTORS
330
CED87
102
}
330
CED87
100
AcDbVisualStyle
  2
Facepattern
 70
    15
 71
     2
 72
     2
 73
     0
 90
        0
 40
-0.6
 41
-30.0
 62
     5
 63
     7
 74
     1
 91
        4
 64
     7
 65
   257
 75
     1
175
     1
 42
1.0
 92
        8
 66
     7
 43
1.0
 76
     1
 77
     6
 78
     2
 67
     7
 79
     5
170
     0
171
     0
290
     0
174
     0
 93
        1
 44
0.0
173
     0
291
     1
 45
0.0
1001
ACAD
1000
AcDbSavedByObjectVersion
1070
     0
1000
AcDbSavedByObjectVersion
1070
     0
  0
VISUALSTYLE
  5
CED88
102
{ACAD_REACTORS
330
CED87
102
}
330
CED87
100
AcDbVisualStyle
  2
Flat
 70
     0
 71
     2
 72
     1
 73
     1
 90
        2
 40
-0.6
 41
30.0
 62
     5
 63
     7
 74
     0
 91
        4
 64
     7
 65
   257
 75
     1
175
     1
 42
1.0
 92
        8
 66
     7
 43
1.0
 76
     1
 77
     6
 78
     2
 67
     7
 79
     5
170
     0
171
     0
290
     0
174
     0
 93
       13
 44
0.0
173
     0
291
     1
 45
0.0
1001
ACAD
1000
AcDbSavedByObjectVersion
1070
     0
1000
AcDbSavedByObjectVersion
1070
     0
  0
VISUALSTYLE
  5
CED89
102
{ACAD_REACTORS
330
CED87
102
}
330
CED87
100
AcDbVisualStyle
  2
FlatWithEdges
 70
     1
 71
     2
 72
     1
 73
     1
 90
        2
 40
-0.6
 41
30.0
 62
     5
 63
     7
 74
     1
 91
        4
 64
     7
 65
   257
 75
     1
175
     1
 42
1.0
 92
        0
 66
   257
 43
1.0
 76
     1
 77
     6
 78
     2
 67
     7
 79
     5
170
     0
171
     0
290
     0
174
     0
 93
       13
 44
0.0
173
     0
291
     1
 45
0.0
1001
ACAD
1000
AcDbSavedByObjectVersion
1070
     0
1000
AcDbSavedByObjectVersion
1070
     0
  0
VISUALSTYLE
  5
CED8A
102
{ACAD_REACTORS
330
CED87
102
}
330
CED87
100
AcDbVisualStyle
  2
Gouraud
 70
     2
 71
     2
 72
     2
 73
     1
 90
        2
 40
-0.6
 41
30.0
 62
     5
 63
     7
 74
     0
 91
        4
 64
     7
 65
   257
 75
     1
175
     1
 42
1.0
 92
        0
 66
     7
 43
1.0
 76
     1
 77
     6
 78
     2
 67
     7
 79
     5
170
     0
171
     0
290
     0
174
     0
 93
       13
 44
0.0
173
     0
291
     1
 45
0.0
1001
ACAD
1000
AcDbSavedByObjectVersion
1070
     0
1000
AcDbSavedByObjectVersion
1070
     0
  0
VISUALSTYLE
  5
CED8B
102
{ACAD_REACTORS
330
CED87
102
}
330
CED87
100
AcDbVisualStyle
  2
GouraudWithEdges
 70
     3
 71
     2
 72
     2
 73
     1
 90
        2
 40
-0.6
 41
30.0
 62
     5
 63
     7
 74
     1
 91
        4
 64
     7
 65
   257
 75
     1
175
     1
 42
1.0
 92
        0
 66
   257
 43
1.0
 76
     1
 77
     6
 78
     2
 67
     7
 79
     5
170
     0
171
     0
290
     0
174
     0
 93
       13
 44
0.0
173
     0
291
     1
 45
0.0
1001
ACAD
1000
AcDbSavedByObjectVersion
1070
     0
1000
AcDbSavedByObjectVersion
1070
     0
  0
VISUALSTYLE
  5
CED95
102
{ACAD_REACTORS
330
CED87
102
}
330
CED87
100
AcDbVisualStyle
  2
Linepattern
 70
    14
 71
     2
 72
     2
 73
     0
 90
        0
 40
-0.6
 41
-30.0
 62
     5
 63
     7
 74
     1
 91
        4
 64
     7
 65
   257
 75
     7
175
     7
 42
1.0
 92
        8
 66
     7
 43
1.0
 76
     1
 77
     6
 78
     2
 67
     7
 79
     5
170
     0
171
     0
290
     0
174
     0
 93
        1
 44
0.0
173
     0
291
     1
 45
0.0
1001
ACAD
1000
AcDbSavedByObjectVersion
1070
     0
1000
AcDbSavedByObjectVersion
1070
     0
  0
VISUALSTYLE
  5
CED91
102
{ACAD_REACTORS
330
CED87
102
}
330
CED87
100
AcDbVisualStyle
  2
Realistic
 70
     8
 71
     2
 72
     2
 73
     0
 90
        0
 40
-0.6
 41
-30.0
 62
     5
 63
     7
 74
     1
 91
        0
 64
     7
 65
   257
 75
     1
175
     1
 42
1.0
 92
        8
 66
     8
 43
1.0
 76
     1
 77
     6
 78
     2
 67
     7
 79
     5
170
     0
171
     0
290
     0
174
     0
 93
       13
 44
0.0
173
     0
291
     0
 45
0.0
1001
ACAD
1000
AcDbSavedByObjectVersion
1070
     0
1000
AcDbSavedByObjectVersion
1070
     0
  0
VISUALSTYLE
  5
CED94
102
{ACAD_REACTORS
330
CED87
102
}
330
CED87
100
AcDbVisualStyle
  2
Thicken
 70
    13
 71
     2
 72
     2
 73
     0
 90
        0
 40
-0.6
 41
-30.0
 62
     5
 63
     7
 74
     1
 91
        4
 64
     7
 65
   257
 75
     1
175
     1
 42
1.0
 92
       12
 66
     7
 43
1.0
 76
     1
 77
     6
 78
     2
 67
     7
 79
     5
170
     0
171
     0
290
     0
174
     0
 93
        1
 44
0.0
173
     0
291
     1
 45
0.0
1001
ACAD
1000
AcDbSavedByObjectVersion
1070
     0
1000
AcDbSavedByObjectVersion
1070
     0
  0
DICTIONARYVAR
  5
D0C4F
102
{ACAD_REACTORS
330
59
102
}
330
59
100
DictionaryVariables
280
     0
  1
1:1
  0
DICTIONARYVAR
  5
D0C4D
102
{ACAD_REACTORS
330
59
102
}
330
59
100
DictionaryVariables
280
     0
  1
STANDARD
  0
DICTIONARYVAR
  5
100D
102
{ACAD_REACTORS
330
59
102
}
330
59
100
DictionaryVariables
280
     0
  1
STANDARD
  0
DICTIONARYVAR
  5
5A
102
{ACAD_REACTORS
330
59
102
}
330
59
100
DictionaryVariables
280
     0
  1
2
  0
DICTIONARYVAR
  5
5E
102
{ACAD_REACTORS
330
59
102
}
330
59
100
DictionaryVariables
280
     0
  1
1
  0
DICTIONARYVAR
  5
D687B
102
{ACAD_REACTORS
330
59
102
}
330
59
100
DictionaryVariables
280
     0
  1
0
  0
DICTIONARYVAR
  5
D0C50
102
{ACAD_REACTORS
330
59
102
}
330
59
100
DictionaryVariables
280
     0
  1
0
  0
DICTIONARYVAR
  5
D0C4E
102
{ACAD_REACTORS
330
59
102
}
330
59
100
DictionaryVariables
280
     0
  1
0
  0
DICTIONARYVAR
  5
D687A
102
{ACAD_REACTORS
330
59
102
}
330
59
100
DictionaryVariables
280
     0
  1
127
  0
XRECORD
  5
C2669
102
{ACAD_REACTORS
330
C2668
102
}
330
C2668
100
AcDbXrecord
280
     1
330
0
330
0
330
0
330
0
330
0
330
0
330
0
330
0
330
0
330
0
330
0
330
0
330
0
330
0
330
0
330
0
330
0
330
0
330
0
330
0
330
0
330
0
330
0
330
0
330
0
330
0
330
0
330
0
330
0
330
0
330
0
330
0
330
0
  0
VLO-VL
  5
A9D17
102
{ACAD_REACTORS
330
A9D16
102
}
330
A9D16
100
vlo_VL
 90
   -64512
 91
       12
 92
        1
 40
2.5
300
(&VLO-R . 0)
  0
DICTIONARY
  5
D68C1
330
22
100
AcDbDictionary
280
     1
281
     1
  3
ACAD_XREC_ROUNDTRIP
360
D68C2
  0
DICTIONARY
  5
D68C3
330
74
100
AcDbDictionary
280
     1
281
     1
  3
ACAD_XREC_ROUNDTRIP
360
D68C4
  0
DICTIONARY
  5
D68C5
330
79
100
AcDbDictionary
280
     1
281
     1
  3
ACAD_XREC_ROUNDTRIP
360
D68C6
  0
DICTIONARY
  5
CED78
330
CED77
100
AcDbDictionary
280
     1
281
     1
  3
ACAD_XREC_ROUNDTRIP
360
D68A4
  3
BUMPTILE
360
CED7A
  3
DIFFUSETILE
360
CED79
  3
OPACITYTILE
360
CED7D
  3
REFLECTIONTILE
360
CED7C
  3
REFRACTIONTILE
360
CED7E
  3
SPECULARTILE
360
CED7B
  0
DICTIONARY
  5
CED70
330
CED6F
100
AcDbDictionary
280
     1
281
     1
  3
ACAD_XREC_ROUNDTRIP
360
D68A3
  3
BUMPTILE
360
CED72
  3
DIFFUSETILE
360
CED71
  3
OPACITYTILE
360
CED75
  3
REFLECTIONTILE
360
CED74
  3
REFRACTIONTILE
360
CED76
  3
SPECULARTILE
360
CED73
  0
DICTIONARY
  5
CED80
330
CED7F
100
AcDbDictionary
280
     1
281
     1
  3
ACAD_XREC_ROUNDTRIP
360
D68A5
  3
BUMPTILE
360
CED82
  3
DIFFUSETILE
360
CED81
  3
OPACITYTILE
360
CED85
  3
REFLECTIONTILE
360
CED84
  3
REFRACTIONTILE
360
CED86
  3
SPECULARTILE
360
CED83
  0
DICTIONARY
  5
D0C45
330
FB0
100
AcDbDictionary
280
     1
281
     1
  3
ACAD_ROUNDTRIP_2008_TABLESTYLE_CELLSTYLEMAP
360
D68BC
  3
ACAD_XREC_ROUNDTRIP
360
D68C7
  0
XRECORD
  5
D68C2
102
{ACAD_REACTORS
330
D68C1
102
}
330
D68C1
100
AcDbXrecord
280
     1
102
SHADEPLOT
 70
     0
102
SHADEPLOTRESLEVEL
 70
     2
102
SHADEPLOTCUSTOMDPI
 70
   300
  0
XRECORD
  5
D68C4
102
{ACAD_REACTORS
330
D68C3
102
}
330
D68C3
100
AcDbXrecord
280
     1
102
SHADEPLOT
 70
     0
102
SHADEPLOTRESLEVEL
 70
     2
102
SHADEPLOTCUSTOMDPI
 70
   300
  0
XRECORD
  5
D68C6
102
{ACAD_REACTORS
330
D68C5
102
}
330
D68C5
100
AcDbXrecord
280
     1
102
SHADEPLOT
 70
     0
102
SHADEPLOTRESLEVEL
 70
     2
102
SHADEPLOTCUSTOMDPI
 70
   300
  0
XRECORD
  5
D68A4
102
{ACAD_REACTORS
330
CED78
102
}
330
CED78
100
AcDbXrecord
280
     1
102
MATERIAL
148
0.0
149
0.0
149
0.0
 93
        0
 94
      127
282
     0
 72
     0
 77
     0
171
     0
175
     0
179
     0
273
     0
  0
XRECORD
  5
CED7A
102
{ACAD_REACTORS
330
CED78
102
}
330
CED78
100
AcDbXrecord
280
     1
270
     1
271
     1
  0
XRECORD
  5
CED79
102
{ACAD_REACTORS
330
CED78
102
}
330
CED78
100
AcDbXrecord
280
     1
270
     1
271
     1
  0
XRECORD
  5
CED7D
102
{ACAD_REACTORS
330
CED78
102
}
330
CED78
100
AcDbXrecord
280
     1
270
     1
271
     1
  0
XRECORD
  5
CED7C
102
{ACAD_REACTORS
330
CED78
102
}
330
CED78
100
AcDbXrecord
280
     1
270
     1
271
     1
  0
XRECORD
  5
CED7E
102
{ACAD_REACTORS
330
CED78
102
}
330
CED78
100
AcDbXrecord
280
     1
270
     1
271
     1
  0
XRECORD
  5
CED7B
102
{ACAD_REACTORS
330
CED78
102
}
330
CED78
100
AcDbXrecord
280
     1
270
     1
271
     1
  0
XRECORD
  5
D68A3
102
{ACAD_REACTORS
330
CED70
102
}
330
CED70
100
AcDbXrecord
280
     1
102
MATERIAL
148
0.0
149
0.0
149
0.0
 93
        0
 94
      127
282
     0
 72
     0
 77
     0
171
     0
175
     0
179
     0
273
     0
  0
XRECORD
  5
CED72
102
{ACAD_REACTORS
330
CED70
102
}
330
CED70
100
AcDbXrecord
280
     1
270
     1
271
     1
  0
XRECORD
  5
CED71
102
{ACAD_REACTORS
330
CED70
102
}
330
CED70
100
AcDbXrecord
280
     1
270
     1
271
     1
  0
XRECORD
  5
CED75
102
{ACAD_REACTORS
330
CED70
102
}
330
CED70
100
AcDbXrecord
280
     1
270
     1
271
     1
  0
XRECORD
  5
CED74
102
{ACAD_REACTORS
330
CED70
102
}
330
CED70
100
AcDbXrecord
280
     1
270
     1
271
     1
  0
XRECORD
  5
CED76
102
{ACAD_REACTORS
330
CED70
102
}
330
CED70
100
AcDbXrecord
280
     1
270
     1
271
     1
  0
XRECORD
  5
CED73
102
{ACAD_REACTORS
330
CED70
102
}
330
CED70
100
AcDbXrecord
280
     1
270
     1
271
     1
  0
XRECORD
  5
D68A5
102
{ACAD_REACTORS
330
CED80
102
}
330
CED80
100
AcDbXrecord
280
     1
102
MATERIAL
148
0.0
149
0.0
149
0.0
 93
        0
 94
      127
282
     0
 72
     0
 77
     0
171
     0
175
     0
179
     0
273
     0
  0
XRECORD
  5
CED82
102
{ACAD_REACTORS
330
CED80
102
}
330
CED80
100
AcDbXrecord
280
     1
270
     1
271
     1
  0
XRECORD
  5
CED81
102
{ACAD_REACTORS
330
CED80
102
}
330
CED80
100
AcDbXrecord
280
     1
270
     1
271
     1
  0
XRECORD
  5
CED85
102
{ACAD_REACTORS
330
CED80
102
}
330
CED80
100
AcDbXrecord
280
     1
270
     1
271
     1
  0
XRECORD
  5
CED84
102
{ACAD_REACTORS
330
CED80
102
}
330
CED80
100
AcDbXrecord
280
     1
270
     1
271
     1
  0
XRECORD
  5
CED86
102
{ACAD_REACTORS
330
CED80
102
}
330
CED80
100
AcDbXrecord
280
     1
270
     1
271
     1
  0
XRECORD
  5
CED83
102
{ACAD_REACTORS
330
CED80
102
}
330
CED80
100
AcDbXrecord
280
     1
270
     1
271
     1
  0
CELLSTYLEMAP
  5
D68BC
102
{ACAD_REACTORS
330
D0C45
102
}
330
D0C45
100
AcDbCellStyleMap
 90
        3
300
CELLSTYLE
  1
TABLEFORMAT_BEGIN
 90
        5
170
     1
 91
        0
 92
    32768
 62
   257
 93
        1
300
CONTENTFORMAT
  1
CONTENTFORMAT_BEGIN
 90
        0
 91
        0
 92
        4
 93
        0
300

 40
0.0
140
1.0
 94
        5
 62
     0
340
11
144
0.25
309
CONTENTFORMAT_END
171
     1
301
MARGIN
  1
CELLMARGIN_BEGIN
 40
0.06
 40
0.06
 40
0.06
 40
0.06
 40
0.18
 40
0.18
309
CELLMARGIN_END
 94
        6
 95
        1
302
GRIDFORMAT
  1
GRIDFORMAT_BEGIN
 90
        0
 91
        1
 62
     0
 92
       -2
340
0
 93
        0
 40
0.045
309
GRIDFORMAT_END
 95
        2
302
GRIDFORMAT
  1
GRIDFORMAT_BEGIN
 90
        0
 91
        1
 62
     0
 92
       -2
340
0
 93
        0
 40
0.045
309
GRIDFORMAT_END
 95
        4
302
GRIDFORMAT
  1
GRIDFORMAT_BEGIN
 90
        0
 91
        1
 62
     0
 92
       -2
340
0
 93
        0
 40
0.045
309
GRIDFORMAT_END
 95
        8
302
GRIDFORMAT
  1
GRIDFORMAT_BEGIN
 90
        0
 91
        1
 62
     0
 92
       -2
340
0
 93
        0
 40
0.045
309
GRIDFORMAT_END
 95
       16
302
GRIDFORMAT
  1
GRIDFORMAT_BEGIN
 90
        0
 91
        1
 62
     0
 92
       -2
340
0
 93
        0
 40
0.045
309
GRIDFORMAT_END
 95
       32
302
GRIDFORMAT
  1
GRIDFORMAT_BEGIN
 90
        0
 91
        1
 62
     0
 92
       -2
340
0
 93
        0
 40
0.045
309
GRIDFORMAT_END
309
TABLEFORMAT_END
  1
CELLSTYLE_BEGIN
 90
        1
 91
        1
300
_TITLE
309
CELLSTYLE_END
300
CELLSTYLE
  1
TABLEFORMAT_BEGIN
 90
        5
170
     1
 91
        0
 92
        0
 62
   257
 93
        1
300
CONTENTFORMAT
  1
CONTENTFORMAT_BEGIN
 90
        0
 91
        0
 92
        4
 93
        0
300

 40
0.0
140
1.0
 94
        5
 62
     0
340
11
144
0.18
309
CONTENTFORMAT_END
171
     1
301
MARGIN
  1
CELLMARGIN_BEGIN
 40
0.06
 40
0.06
 40
0.06
 40
0.06
 40
0.18
 40
0.18
309
CELLMARGIN_END
 94
        6
 95
        1
302
GRIDFORMAT
  1
GRIDFORMAT_BEGIN
 90
        0
 91
        1
 62
     0
 92
       -2
340
0
 93
        0
 40
0.045
309
GRIDFORMAT_END
 95
        2
302
GRIDFORMAT
  1
GRIDFORMAT_BEGIN
 90
        0
 91
        1
 62
     0
 92
       -2
340
0
 93
        0
 40
0.045
309
GRIDFORMAT_END
 95
        4
302
GRIDFORMAT
  1
GRIDFORMAT_BEGIN
 90
        0
 91
        1
 62
     0
 92
       -2
340
0
 93
        0
 40
0.045
309
GRIDFORMAT_END
 95
        8
302
GRIDFORMAT
  1
GRIDFORMAT_BEGIN
 90
        0
 91
        1
 62
     0
 92
       -2
340
0
 93
        0
 40
0.045
309
GRIDFORMAT_END
 95
       16
302
GRIDFORMAT
  1
GRIDFORMAT_BEGIN
 90
        0
 91
        1
 62
     0
 92
       -2
340
0
 93
        0
 40
0.045
309
GRIDFORMAT_END
 95
       32
302
GRIDFORMAT
  1
GRIDFORMAT_BEGIN
 90
        0
 91
        1
 62
     0
 92
       -2
340
0
 93
        0
 40
0.045
309
GRIDFORMAT_END
309
TABLEFORMAT_END
  1
CELLSTYLE_BEGIN
 90
        2
 91
        1
300
_HEADER
309
CELLSTYLE_END
300
CELLSTYLE
  1
TABLEFORMAT_BEGIN
 90
        5
170
     1
 91
        0
 92
        0
 62
   257
 93
        1
300
CONTENTFORMAT
  1
CONTENTFORMAT_BEGIN
 90
        0
 91
        0
 92
        4
 93
        0
300

 40
0.0
140
1.0
 94
        2
 62
     0
340
11
144
0.18
309
CONTENTFORMAT_END
171
     1
301
MARGIN
  1
CELLMARGIN_BEGIN
 40
0.06
 40
0.06
 40
0.06
 40
0.06
 40
0.18
 40
0.18
309
CELLMARGIN_END
 94
        6
 95
        1
302
GRIDFORMAT
  1
GRIDFORMAT_BEGIN
 90
        0
 91
        1
 62
     0
 92
       -2
340
0
 93
        0
 40
0.045
309
GRIDFORMAT_END
 95
        2
302
GRIDFORMAT
  1
GRIDFORMAT_BEGIN
 90
        0
 91
        1
 62
     0
 92
       -2
340
0
 93
        0
 40
0.045
309
GRIDFORMAT_END
 95
        4
302
GRIDFORMAT
  1
GRIDFORMAT_BEGIN
 90
        0
 91
        1
 62
     0
 92
       -2
340
0
 93
        0
 40
0.045
309
GRIDFORMAT_END
 95
        8
302
GRIDFORMAT
  1
GRIDFORMAT_BEGIN
 90
        0
 91
        1
 62
     0
 92
       -2
340
0
 93
        0
 40
0.045
309
GRIDFORMAT_END
 95
       16
302
GRIDFORMAT
  1
GRIDFORMAT_BEGIN
 90
        0
 91
        1
 62
     0
 92
       -2
340
0
 93
        0
 40
0.045
309
GRIDFORMAT_END
 95
       32
302
GRIDFORMAT
  1
GRIDFORMAT_BEGIN
 90
        0
 91
        1
 62
     0
 92
       -2
340
0
 93
        0
 40
0.045
309
GRIDFORMAT_END
309
TABLEFORMAT_END
  1
CELLSTYLE_BEGIN
 90
        3
 91
        2
300
_DATA
309
CELLSTYLE_END
  0
XRECORD
  5
D68C7
102
{ACAD_REACTORS
330
D0C45
102
}
330
D0C45
100
AcDbXrecord
280
     1
102
ACAD_ROUNDTRIP_PRE2007_TABLESTYLE
 90
        4
 91
        0
  1

 92
        4
 93
        0
  2

 94
        4
 95
        0
  3

  0
ENDSEC
  0
EOF
