  0
SECTION
  2
HEADER
  9
$ACADVER
  1
AC1015
  9
$ACADMAINTVER
 70
    20
  9
$DWGCODEPAGE
  3
ANSI_936
  9
$INSBASE
 10
0.0
 20
0.0
 30
0.0
  9
$EXTMIN
 10
103894.9391278324
 20
-169590.2095685353
 30
-0.0015258207003583
  9
$EXTMAX
 10
105465.7361363208
 20
-167984.9167214821
 30
0.0000000349246037
  9
$LIMMIN
 10
0.0
 20
0.0
  9
$LIMMAX
 10
12.0
 20
9.0
  9
$ORTHOMODE
 70
     0
  9
$REGENMODE
 70
     1
  9
$FILLMODE
 70
     1
  9
$QTEXTMODE
 70
     0
  9
$MIRRTEXT
 70
     0
  9
$LTSCALE
 40
1.0
  9
$ATTMODE
 70
     1
  9
$TEXTSIZE
 40
0.2
  9
$TRACEWID
 40
0.05
  9
$TEXTSTYLE
  7
Standard
  9
$CLAYER
  8
标注
  9
$CELTYPE
  6
ByLayer
  9
$CECOLOR
 62
   256
  9
$CELTSCALE
 40
5.0
  9
$DISPSILH
 70
     0
  9
$DIMSCALE
 40
1.0
  9
$DIMASZ
 40
16.0
  9
$DIMEXO
 40
7.0
  9
$DIMDLI
 40
0.38
  9
$DIMRND
 40
0.0
  9
$DIMDLE
 40
0.0
  9
$DIMEXE
 40
7.0
  9
$DIMTP
 40
0.0
  9
$DIMTM
 40
0.0
  9
$DIMTXT
 40
20.0
  9
$DIMCEN
 40
2.5
  9
$DIMTSZ
 40
0.0
  9
$DIMTOL
 70
     0
  9
$DIMLIM
 70
     0
  9
$DIMTIH
 70
     0
  9
$DIMTOH
 70
     0
  9
$DIMSE1
 70
     0
  9
$DIMSE2
 70
     0
  9
$DIMTAD
 70
     0
  9
$DIMZIN
 70
     8
  9
$DIMBLK
  1

  9
$DIMASO
 70
     1
  9
$DIMSHO
 70
     1
  9
$DIMPOST
  1

  9
$DIMAPOST
  1
"
  9
$DIMALT
 70
     0
  9
$DIMALTD
 70
     3
  9
$DIMALTF
 40
0.03937
  9
$DIMLFAC
 40
1.0
  9
$DIMTOFL
 70
     1
  9
$DIMTVP
 40
0.0
  9
$DIMTIX
 70
     0
  9
$DIMSOXD
 70
     0
  9
$DIMSAH
 70
     0
  9
$DIMBLK1
  1

  9
$DIMBLK2
  1

  9
$DIMSTYLE
  2
副本Standard
  9
$DIMCLRD
 70
   256
  9
$DIMCLRE
 70
   256
  9
$DIMCLRT
 70
   256
  9
$DIMTFAC
 40
1.0
  9
$DIMGAP
 40
1.0
  9
$DIMJUST
 70
     0
  9
$DIMSD1
 70
     0
  9
$DIMSD2
 70
     0
  9
$DIMTOLJ
 70
     1
  9
$DIMTZIN
 70
     0
  9
$DIMALTZ
 70
     0
  9
$DIMALTTZ
 70
     0
  9
$DIMUPT
 70
     0
  9
$DIMDEC
 70
     1
  9
$DIMTDEC
 70
     1
  9
$DIMALTU
 70
     7
  9
$DIMALTTD
 70
     3
  9
$DIMTXSTY
  7
Standard
  9
$DIMAUNIT
 70
     0
  9
$DIMADEC
 70
     1
  9
$DIMALTRND
 40
0.0
  9
$DIMAZIN
 70
     2
  9
$DIMDSEP
 70
    44
  9
$DIMATFIT
 70
     3
  9
$DIMFRAC
 70
     0
  9
$DIMLDRBLK
  1

  9
$DIMLUNIT
 70
     2
  9
$DIMLWD
 70
    -2
  9
$DIMLWE
 70
    -2
  9
$DIMTMOVE
 70
     0
  9
$LUNITS
 70
     2
  9
$LUPREC
 70
     4
  9
$SKETCHINC
 40
0.1
  9
$FILLETRAD
 40
35.0
  9
$AUNITS
 70
     0
  9
$AUPREC
 70
     0
  9
$MENU
  1
.
  9
$ELEVATION
 40
0.0
  9
$PELEVATION
 40
0.0
  9
$THICKNESS
 40
0.0
  9
$LIMCHECK
 70
     0
  9
$CHAMFERA
 40
26.6
  9
$CHAMFERB
 40
26.6
  9
$CHAMFERC
 40
0.0
  9
$CHAMFERD
 40
0.0
  9
$SKPOLY
 70
     0
  9
$TDCREATE
 40
2454355.343801713
  9
$TDUCREATE
 40
2454355.010468380
  9
$TDUPDATE
 40
2457938.593187732
  9
$TDUUPDATE
 40
2457938.259854398
  9
$TDINDWG
 40
8.8450028356
  9
$TDUSRTIMER
 40
8.8450027546
  9
$USRTIMER
 70
     1
  9
$ANGBASE
 50
0.0
  9
$ANGDIR
 70
     0
  9
$PDMODE
 70
     0
  9
$PDSIZE
 40
0.0
  9
$PLINEWID
 40
0.0
  9
$SPLFRAME
 70
     0
  9
$SPLINETYPE
 70
     6
  9
$SPLINESEGS
 70
     8
  9
$HANDSEED
  5
D7F21
  9
$SURFTAB1
 70
     6
  9
$SURFTAB2
 70
     6
  9
$SURFTYPE
 70
     6
  9
$SURFU
 70
     6
  9
$SURFV
 70
     6
  9
$UCSBASE
  2

  9
$UCSNAME
  2

  9
$UCSORG
 10
0.0
 20
0.0
 30
0.0
  9
$UCSXDIR
 10
1.0
 20
0.0
 30
0.0
  9
$UCSYDIR
 10
0.0
 20
1.0
 30
0.0
  9
$UCSORTHOREF
  2

  9
$UCSORTHOVIEW
 70
     0
  9
$UCSORGTOP
 10
0.0
 20
0.0
 30
0.0
  9
$UCSORGBOTTOM
 10
0.0
 20
0.0
 30
0.0
  9
$UCSORGLEFT
 10
0.0
 20
0.0
 30
0.0
  9
$UCSORGRIGHT
 10
0.0
 20
0.0
 30
0.0
  9
$UCSORGFRONT
 10
0.0
 20
0.0
 30
0.0
  9
$UCSORGBACK
 10
0.0
 20
0.0
 30
0.0
  9
$PUCSBASE
  2

  9
$PUCSNAME
  2

  9
$PUCSORG
 10
0.0
 20
0.0
 30
0.0
  9
$PUCSXDIR
 10
1.0
 20
0.0
 30
0.0
  9
$PUCSYDIR
 10
0.0
 20
1.0
 30
0.0
  9
$PUCSORTHOREF
  2

  9
$PUCSORTHOVIEW
 70
     0
  9
$PUCSORGTOP
 10
0.0
 20
0.0
 30
0.0
  9
$PUCSORGBOTTOM
 10
0.0
 20
0.0
 30
0.0
  9
$PUCSORGLEFT
 10
0.0
 20
0.0
 30
0.0
  9
$PUCSORGRIGHT
 10
0.0
 20
0.0
 30
0.0
  9
$PUCSORGFRONT
 10
0.0
 20
0.0
 30
0.0
  9
$PUCSORGBACK
 10
0.0
 20
0.0
 30
0.0
  9
$USERI1
 70
     0
  9
$USERI2
 70
     0
  9
$USERI3
 70
     0
  9
$USERI4
 70
     0
  9
$USERI5
 70
     0
  9
$USERR1
 40
0.0
  9
$USERR2
 40
0.0
  9
$USERR3
 40
0.0
  9
$USERR4
 40
0.0
  9
$USERR5
 40
2.5
  9
$WORLDVIEW
 70
     1
  9
$SHADEDGE
 70
     3
  9
$SHADEDIF
 70
    70
  9
$TILEMODE
 70
     1
  9
$MAXACTVP
 70
    64
  9
$PINSBASE
 10
0.0
 20
0.0
 30
0.0
  9
$PLIMCHECK
 70
     0
  9
$PEXTMIN
 10
0.0
 20
0.0
 30
0.0
  9
$PEXTMAX
 10
0.0
 20
0.0
 30
0.0
  9
$PLIMMIN
 10
0.0
 20
0.0
  9
$PLIMMAX
 10
12.0
 20
9.0
  9
$UNITMODE
 70
     0
  9
$VISRETAIN
 70
     1
  9
$PLINEGEN
 70
     0
  9
$PSLTSCALE
 70
     1
  9
$TREEDEPTH
 70
  3020
  9
$CMLSTYLE
  2
Standard
  9
$CMLJUST
 70
     0
  9
$CMLSCALE
 40
1.0
  9
$PROXYGRAPHICS
 70
     1
  9
$MEASUREMENT
 70
     0
  9
$CELWEIGHT
370
    -1
  9
$ENDCAPS
280
     0
  9
$JOINSTYLE
280
     0
  9
$LWDISPLAY
290
     0
  9
$INSUNITS
 70
     4
  9
$HYPERLINKBASE
  1

  9
$STYLESHEET
  1
MONOCHROME.CTB
  9
$XEDIT
290
     1
  9
$CEPSNTYPE
380
     0
  9
$PSTYLEMODE
290
     1
  9
$FINGERPRINTGUID
  2
{35BD88C0-9548-11D2-9A29-0060089B3A3F}
  9
$VERSIONGUID
  2
{7A48535B-1AAE-49DC-9A2A-52709D4238B1}
  9
$EXTNAMES
290
     1
  9
$PSVPSCALE
 40
0.0
  9
$OLESTARTUP
290
     0
  0
ENDSEC
  0
SECTION
  2
CLASSES
  0
CLASS
  1
ACDBDICTIONARYWDFLT
  2
AcDbDictionaryWithDefault
  3
ObjectDBX Classes
 90
        0
280
     0
281
     0
  0
CLASS
  1
ACDBPLACEHOLDER
  2
AcDbPlaceHolder
  3
ObjectDBX Classes
 90
        0
280
     0
281
     0
  0
CLASS
  1
LAYOUT
  2
AcDbLayout
  3
ObjectDBX Classes
 90
        0
280
     0
281
     0
  0
CLASS
  1
DICTIONARYVAR
  2
AcDbDictionaryVar
  3
ObjectDBX Classes
 90
        0
280
     0
281
     0
  0
CLASS
  1
SORTENTSTABLE
  2
AcDbSortentsTable
  3
ObjectDBX Classes
 90
        0
280
     0
281
     0
  0
CLASS
  1
DIMASSOC
  2
AcDbDimAssoc
  3
"AcDbDimAssoc|Product Desc:     AcDim ARX App For Dimension|Company:          Autodesk, Inc.|WEB Address:      www.autodesk.com"
 90
        0
280
     0
281
     0
  0
CLASS
  1
TABLESTYLE
  2
AcDbTableStyle
  3
ObjectDBX Classes
 90
     4095
280
     0
281
     0
  0
CLASS
  1
VLO-VL
  2
vlo_VL
  3
VL|AutoLISP based application
 90
      129
280
     0
281
     0
  0
CLASS
  1
MATERIAL
  2
AcDbMaterial
  3
ObjectDBX Classes
 90
     1153
280
     0
281
     0
  0
CLASS
  1
VISUALSTYLE
  2
AcDbVisualStyle
  3
ObjectDBX Classes
 90
     4095
280
     0
281
     0
  0
CLASS
  1
SCALE
  2
AcDbScale
  3
ObjectDBX Classes
 90
     1153
280
     0
281
     0
  0
CLASS
  1
MLEADERSTYLE
  2
AcDbMLeaderStyle
  3
ACDB_MLEADERSTYLE_CLASS
 90
     4095
280
     0
281
     0
  0
CLASS
  1
CELLSTYLEMAP
  2
AcDbCellStyleMap
  3
ObjectDBX Classes
 90
     1152
280
     0
281
     0
  0
ENDSEC
  0
SECTION
  2
TABLES
  0
TABLE
  2
VPORT
  5
8
330
0
100
AcDbSymbolTable
 70
     1
  0
VPORT
  5
CED6D
330
8
100
AcDbSymbolTableRecord
100
AcDbViewportTableRecord
  2
*Active
 70
     0
 10
0.0
 20
0.0
 11
1.0
 21
1.0
 12
104680.3376320766
 22
-168787.5631450087
 13
0.0
 23
0.0
 14
0.5
 24
0.5
 15
0.5
 25
0.5
 16
0.0
 26
0.0
 36
1.0
 17
0.0
 27
0.0
 37
0.0
 40
1617.154616858985
 41
2.241676942046855
 42
50.0
 43
0.0
 44
0.0
 50
0.0
 51
0.0
 71
     0
 72
  1000
 73
     1
 74
     3
 75
     0
 76
     0
 77
     0
 78
     0
281
     0
 65
     1
110
0.0
120
0.0
130
0.0
111
1.0
121
0.0
131
0.0
112
0.0
122
1.0
132
0.0
 79
     0
146
0.0
  0
ENDTAB
  0
TABLE
  2
LTYPE
  5
5
330
0
100
AcDbSymbolTable
 70
     3
  0
LTYPE
  5
14
330
5
100
AcDbSymbolTableRecord
100
AcDbLinetypeTableRecord
  2
ByBlock
 70
     0
  3

 72
    65
 73
     0
 40
0.0
  0
LTYPE
  5
15
330
5
100
AcDbSymbolTableRecord
100
AcDbLinetypeTableRecord
  2
ByLayer
 70
     0
  3

 72
    65
 73
     0
 40
0.0
  0
LTYPE
  5
16
330
5
100
AcDbSymbolTableRecord
100
AcDbLinetypeTableRecord
  2
Continuous
 70
     0
  3
Solid line
 72
    65
 73
     0
 40
0.0
  0
LTYPE
  5
98
330
5
100
AcDbSymbolTableRecord
100
AcDbLinetypeTableRecord
  2
HIDDEN2
 70
     0
  3
Hidden (.5x) _ _ _ _ _ _ _ _ _ _ _ _ _ _ _ _ _
 72
    65
 73
     2
 40
4.762499999999998
 49
3.174999999999998
 74
     0
 49
-1.587499999999999
 74
     0
  0
ENDTAB
  0
TABLE
  2
LAYER
  5
2
102
{ACAD_XDICTIONARY
360
AB
102
}
330
0
100
AcDbSymbolTable
 70
     6
  0
LAYER
  5
10
102
{ACAD_XDICTIONARY
360
CF251
102
}
330
2
100
AcDbSymbolTableRecord
100
AcDbLayerTableRecord
  2
0
 70
     0
 62
     7
  6
Continuous
370
    18
390
F
  0
LAYER
  5
9D
102
{ACAD_XDICTIONARY
360
CF259
102
}
330
2
100
AcDbSymbolTableRecord
100
AcDbLayerTableRecord
  2
虚线
 70
     0
 62
     4
  6
HIDDEN2
370
    18
390
F
  0
LAYER
  5
582
330
2
100
AcDbSymbolTableRecord
100
AcDbLayerTableRecord
  2
Defpoints
 70
     0
 62
     7
  6
Continuous
290
     0
370
     9
390
F
  0
LAYER
  5
16DF9
102
{ACAD_XDICTIONARY
360
CF25D
102
}
330
2
100
AcDbSymbolTableRecord
100
AcDbLayerTableRecord
  2
标注
 70
     0
 62
    80
  6
Continuous
370
     5
390
F
1001
AcAecLayerStandard
1000

1000

  0
LAYER
  5
D5CE8
330
2
100
AcDbSymbolTableRecord
100
AcDbLayerTableRecord
  2
粗实线
 70
     0
 62
     7
  6
Continuous
370
    25
390
F
1001
AcAecLayerStandard
1000

1000

  0
ENDTAB
  0
TABLE
  2
STYLE
  5
3
330
0
100
AcDbSymbolTable
 70
     2
  0
STYLE
  5
11
330
3
100
AcDbSymbolTableRecord
100
AcDbTextStyleTableRecord
  2
Standard
 70
     0
 40
0.0
 41
1.0
 50
0.0
 71
     0
 42
0.2
  3
SimSun.ttf
  4

1001
ACAD
1000
SimSun
1071
    34306
  0
ENDTAB
  0
TABLE
  2
VIEW
  5
6
330
0
100
AcDbSymbolTable
 70
     0
  0
ENDTAB
  0
TABLE
  2
UCS
  5
7
330
0
100
AcDbSymbolTable
 70
     0
  0
ENDTAB
  0
TABLE
  2
APPID
  5
9
330
0
100
AcDbSymbolTable
 70
    19
  0
APPID
  5
12
330
9
100
AcDbSymbolTableRecord
100
AcDbRegAppTableRecord
  2
ACAD
 70
     0
  0
APPID
  5
A5
330
9
100
AcDbSymbolTableRecord
100
AcDbRegAppTableRecord
  2
AcAecLayerStandard
 70
     0
  0
APPID
  5
A6
330
9
100
AcDbSymbolTableRecord
100
AcDbRegAppTableRecord
  2
ACAD_DSTYLE_DIMEXT_LENGTH
 70
     0
  0
APPID
  5
A7
330
9
100
AcDbSymbolTableRecord
100
AcDbRegAppTableRecord
  2
ACAD_DSTYLE_DIMEXT_ENABLED
 70
     0
  0
APPID
  5
A8
330
9
100
AcDbSymbolTableRecord
100
AcDbRegAppTableRecord
  2
ACAD_DSTYLE_DIMJOGGED_JOGANGLE_SYMBOL
 70
     0
  0
APPID
  5
A9
330
9
100
AcDbSymbolTableRecord
100
AcDbRegAppTableRecord
  2
ACAD_DSTYLE_DIMARC_LENGTH_SYMBOL
 70
     0
  0
APPID
  5
AA
330
9
100
AcDbSymbolTableRecord
100
AcDbRegAppTableRecord
  2
ACAD_PSEXT
 70
     0
  0
APPID
  5
173
330
9
100
AcDbSymbolTableRecord
100
AcDbRegAppTableRecord
  2
DCO15
 70
     0
  0
APPID
  5
11D5
330
9
100
AcDbSymbolTableRecord
100
AcDbRegAppTableRecord
  2
ACAD_EXEMPT_FROM_CAD_STANDARDS
 70
     0
  0
APPID
  5
B456
330
9
100
AcDbSymbolTableRecord
100
AcDbRegAppTableRecord
  2
ACAD_DSTYLE_DIMTEXT_FILL
 70
     0
  0
APPID
  5
B459
330
9
100
AcDbSymbolTableRecord
100
AcDbRegAppTableRecord
  2
ACAD_DSTYLE_DIM_LINETYPE
 70
     0
  0
APPID
  5
B45A
330
9
100
AcDbSymbolTableRecord
100
AcDbRegAppTableRecord
  2
ACAD_DSTYLE_DIM_EXT1_LINETYPE
 70
     0
  0
APPID
  5
B45B
330
9
100
AcDbSymbolTableRecord
100
AcDbRegAppTableRecord
  2
ACAD_DSTYLE_DIM_EXT2_LINETYPE
 70
     0
  0
APPID
  5
CEDBC
330
9
100
AcDbSymbolTableRecord
100
AcDbRegAppTableRecord
  2
ACAD_MLEADERVER
 70
     0
  0
APPID
  5
CF35C
330
9
100
AcDbSymbolTableRecord
100
AcDbRegAppTableRecord
  2
ACAD_DSTYLE_DIMRADIAL_EXTENSION
 70
     0
  0
APPID
  5
CF43A
330
9
100
AcDbSymbolTableRecord
100
AcDbRegAppTableRecord
  2
ACAD_DSTYLE_DIMJAG
 70
     0
  0
APPID
  5
CF43B
330
9
100
AcDbSymbolTableRecord
100
AcDbRegAppTableRecord
  2
ACAD_DSTYLE_DIMTALN
 70
     0
  0
APPID
  5
D5B36
330
9
100
AcDbSymbolTableRecord
100
AcDbRegAppTableRecord
  2
AcDbBlockRepETag
 70
     0
  0
APPID
  5
D6F8C
330
9
100
AcDbSymbolTableRecord
100
AcDbRegAppTableRecord
  2
ACAD_DSTYLE_DIMBREAK
 70
     0
  0
ENDTAB
  0
TABLE
  2
DIMSTYLE
  5
A
330
0
100
AcDbSymbolTable
 70
     9
100
AcDbDimStyleTable
 71
     2
340
3BDB5
340
27
  0
DIMSTYLE
105
27
330
A
100
AcDbSymbolTableRecord
100
AcDbDimStyleTableRecord
  2
Standard
 70
     0
 41
20.0
 42
25.0
 44
8.0
 73
     0
 74
     0
 78
     8
 79
     2
140
20.0
147
5.0
172
     1
176
     3
177
     3
178
     3
179
     1
271
     1
272
     1
278
    44
340
11
1001
ACAD_DSTYLE_DIMJOGGED_JOGANGLE_SYMBOL
1070
   384
1040
0.7853981633974483
1001
ACAD_DSTYLE_DIMEXT_LENGTH
1070
   378
1040
8.0
  0
DIMSTYLE
105
3BDB5
102
{ACAD_REACTORS
330
D7B98
330
D7B9F
330
D7BA2
330
D7BA5
330
D7BA8
330
D7BAB
330
D7BAC
330
D7BAF
330
D7BB2
330
D7BB5
330
D7BB8
330
D7BBB
330
D7BBE
330
D7BC1
330
D7BC4
330
D7BC7
330
D7BC8
330
D7BCB
330
D7BCE
330
D7BCF
330
D7E26
330
D7E36
330
D7E46
330
D7E56
102
}
330
A
100
AcDbSymbolTableRecord
100
AcDbDimStyleTableRecord
  2
副本Standard
 70
     0
  4
"
 41
16.0
 42
7.0
 44
7.0
 73
     0
 74
     0
 78
     8
 79
     2
140
20.0
141
2.5
143
0.03937
147
1.0
171
     3
172
     1
176
   256
177
   256
178
   256
179
     1
271
     1
272
     1
273
     7
274
     3
278
    44
340
11
1001
ACAD_DSTYLE_DIMJAG
1070
   388
1040
1.5
1001
ACAD_DSTYLE_DIMTALN
1070
   392
1070
     0
  0
ENDTAB
  0
TABLE
  2
BLOCK_RECORD
  5
1
330
0
100
AcDbSymbolTable
 70
    52
  0
BLOCK_RECORD
  5
1F
102
{ACAD_XDICTIONARY
360
118B
102
}
330
1
100
AcDbSymbolTableRecord
100
AcDbBlockTableRecord
  2
*Model_Space
340
22
  0
BLOCK_RECORD
  5
73
330
1
100
AcDbSymbolTableRecord
100
AcDbBlockTableRecord
  2
*Paper_Space
340
74
  0
BLOCK_RECORD
  5
78
330
1
100
AcDbSymbolTableRecord
100
AcDbBlockTableRecord
  2
*Paper_Space0
340
79
  0
BLOCK_RECORD
  5
D7BD2
330
1
100
AcDbSymbolTableRecord
100
AcDbBlockTableRecord
  2
*D28
340
0
  0
BLOCK_RECORD
  5
D7BDE
330
1
100
AcDbSymbolTableRecord
100
AcDbBlockTableRecord
  2
*D29
340
0
  0
BLOCK_RECORD
  5
D7BEB
330
1
100
AcDbSymbolTableRecord
100
AcDbBlockTableRecord
  2
*D30
340
0
  0
BLOCK_RECORD
  5
D7BF8
330
1
100
AcDbSymbolTableRecord
100
AcDbBlockTableRecord
  2
*D31
340
0
  0
BLOCK_RECORD
  5
D7C03
330
1
100
AcDbSymbolTableRecord
100
AcDbBlockTableRecord
  2
*D32
340
0
  0
BLOCK_RECORD
  5
D7C10
330
1
100
AcDbSymbolTableRecord
100
AcDbBlockTableRecord
  2
*D33
340
0
  0
BLOCK_RECORD
  5
D7C1D
330
1
100
AcDbSymbolTableRecord
100
AcDbBlockTableRecord
  2
*D34
340
0
  0
BLOCK_RECORD
  5
D7C2A
330
1
100
AcDbSymbolTableRecord
100
AcDbBlockTableRecord
  2
*D35
340
0
  0
BLOCK_RECORD
  5
D7C40
330
1
100
AcDbSymbolTableRecord
100
AcDbBlockTableRecord
  2
*D36
340
0
  0
BLOCK_RECORD
  5
D7C4D
330
1
100
AcDbSymbolTableRecord
100
AcDbBlockTableRecord
  2
*D37
340
0
  0
BLOCK_RECORD
  5
D7C5A
330
1
100
AcDbSymbolTableRecord
100
AcDbBlockTableRecord
  2
*D38
340
0
  0
BLOCK_RECORD
  5
D7C63
330
1
100
AcDbSymbolTableRecord
100
AcDbBlockTableRecord
  2
*D39
340
0
  0
BLOCK_RECORD
  5
D7C6C
330
1
100
AcDbSymbolTableRecord
100
AcDbBlockTableRecord
  2
*D40
340
0
  0
BLOCK_RECORD
  5
D7C75
330
1
100
AcDbSymbolTableRecord
100
AcDbBlockTableRecord
  2
*D41
340
0
  0
BLOCK_RECORD
  5
D7C7E
330
1
100
AcDbSymbolTableRecord
100
AcDbBlockTableRecord
  2
*D42
340
0
  0
BLOCK_RECORD
  5
D7C87
330
1
100
AcDbSymbolTableRecord
100
AcDbBlockTableRecord
  2
*D43
340
0
  0
BLOCK_RECORD
  5
D7C90
330
1
100
AcDbSymbolTableRecord
100
AcDbBlockTableRecord
  2
*D44
340
0
  0
BLOCK_RECORD
  5
D7CA7
330
1
100
AcDbSymbolTableRecord
100
AcDbBlockTableRecord
  2
*D45
340
0
  0
BLOCK_RECORD
  5
D7CB5
330
1
100
AcDbSymbolTableRecord
100
AcDbBlockTableRecord
  2
*D46
340
0
  0
BLOCK_RECORD
  5
D7CCD
330
1
100
AcDbSymbolTableRecord
100
AcDbBlockTableRecord
  2
*D47
340
0
  0
BLOCK_RECORD
  5
D7E27
330
1
100
AcDbSymbolTableRecord
100
AcDbBlockTableRecord
  2
*D48
340
0
  0
BLOCK_RECORD
  5
D7E37
330
1
100
AcDbSymbolTableRecord
100
AcDbBlockTableRecord
  2
*D49
340
0
  0
BLOCK_RECORD
  5
D7E47
330
1
100
AcDbSymbolTableRecord
100
AcDbBlockTableRecord
  2
*D50
340
0
  0
BLOCK_RECORD
  5
D7E57
330
1
100
AcDbSymbolTableRecord
100
AcDbBlockTableRecord
  2
*D51
340
0
  0
ENDTAB
  0
ENDSEC
  0
SECTION
  2
BLOCKS
  0
BLOCK
  5
20
330
1F
100
AcDbEntity
  8
0
100
AcDbBlockBegin
  2
*Model_Space
 70
     0
 10
0.0
 20
0.0
 30
0.0
  3
*Model_Space
  1

  0
ENDBLK
  5
21
330
1F
100
AcDbEntity
  8
0
100
AcDbBlockEnd
  0
BLOCK
  5
75
330
73
100
AcDbEntity
 67
     1
  8
0
100
AcDbBlockBegin
  2
*Paper_Space
 70
     0
 10
0.0
 20
0.0
 30
0.0
  3
*Paper_Space
  1

  0
ENDBLK
  5
76
330
73
100
AcDbEntity
 67
     1
  8
0
100
AcDbBlockEnd
  0
BLOCK
  5
7A
330
78
100
AcDbEntity
 67
     1
  8
0
100
AcDbBlockBegin
  2
*Paper_Space0
 70
     0
 10
0.0
 20
0.0
 30
0.0
  3
*Paper_Space0
  1

  0
ENDBLK
  5
7B
330
78
100
AcDbEntity
 67
     1
  8
0
100
AcDbBlockEnd
  0
BLOCK
  5
D7BD3
330
D7BD2
100
AcDbEntity
  8
0
 48
5.0
100
AcDbBlockBegin
  2
*D28
 70
     1
 10
0.0
 20
0.0
 30
0.0
  3
*D28
  1

  0
LINE
  5
D7D59
330
D7BD2
100
AcDbEntity
  8
标注
 48
5.0
370
    -2
100
AcDbLine
 10
105145.9029193792
 20
-168599.2158451792
 30
0.0
 11
105145.9029193792
 21
-168615.2158451792
 31
0.0
  0
LINE
  5
D7D5A
330
D7BD2
100
AcDbEntity
  8
标注
 48
5.0
370
    -2
100
AcDbLine
 10
105145.9029193792
 20
-168563.2158451792
 30
0.0
 11
105145.9029193792
 21
-168547.2158451792
 31
0.0
  0
LINE
  5
D7D5B
330
D7BD2
100
AcDbEntity
  8
标注
 48
5.0
370
    -2
100
AcDbLine
 10
105145.9029193792
 20
-168583.2158451791
 30
0.0
 11
105145.9029193792
 21
-168579.2158451792
 31
0.0
  0
SOLID
  5
D7D5C
330
D7BD2
100
AcDbEntity
  8
标注
 48
5.0
100
AcDbTrace
 10
105143.2362527125
 20
-168599.2158451792
 30
0.0
 11
105148.5695860459
 21
-168599.2158451792
 31
0.0
 12
105145.9029193792
 22
-168583.2158451791
 32
0.0
 13
105145.9029193792
 23
-168583.2158451791
 33
0.0
  0
SOLID
  5
D7D5D
330
D7BD2
100
AcDbEntity
  8
标注
 48
5.0
100
AcDbTrace
 10
105143.2362527125
 20
-168563.2158451792
 30
0.0
 11
105148.5695860459
 21
-168563.2158451792
 31
0.0
 12
105145.9029193792
 22
-168579.2158451792
 32
0.0
 13
105145.9029193792
 23
-168579.2158451792
 33
0.0
  0
MTEXT
  5
D7D5E
330
D7BD2
100
AcDbEntity
  8
标注
 48
5.0
100
AcDbMText
 10
105145.9029193792
 20
-168540.104734068
 30
0.0
 40
20.0
 41
0.0
 71
     5
 72
     1
  1
\A1;4
 11
0.0000000000000001
 21
1.0
 31
0.0
 73
     1
 44
1.0
1001
ACAD
1000
MTEXTBEGIN
1070
    73
1070
     1
1070
    44
1040
1.0
1070
    74
1070
     0
1000
MTEXTEND
  0
POINT
  5
D7D5F
330
D7BD2
100
AcDbEntity
  8
Defpoints
 62
     0
 48
5.0
100
AcDbPoint
 10
105145.9029193792
 20
-168583.2158451791
 30
0.0
  0
POINT
  5
D7D60
330
D7BD2
100
AcDbEntity
  8
Defpoints
 62
     0
 48
5.0
100
AcDbPoint
 10
105145.9029193792
 20
-168579.2158451792
 30
0.0
  0
POINT
  5
D7D61
330
D7BD2
100
AcDbEntity
  8
Defpoints
 62
     0
 48
5.0
100
AcDbPoint
 10
105145.9029193792
 20
-168579.2158451792
 30
0.0
  0
ENDBLK
  5
D7BD4
330
D7BD2
100
AcDbEntity
  8
0
 48
5.0
100
AcDbBlockEnd
  0
BLOCK
  5
D7BDF
330
D7BDE
100
AcDbEntity
  8
0
 48
5.0
100
AcDbBlockBegin
  2
*D29
 70
     1
 10
0.0
 20
0.0
 30
0.0
  3
*D29
  1

  0
LINE
  5
D7D9E
330
D7BDE
100
AcDbEntity
  8
标注
 48
5.0
370
    -2
100
AcDbLine
 10
105080.9613820747
 20
-168779.7158451791
 30
0.0
 11
105080.9613820747
 21
-168746.3542137623
 31
0.0
  0
LINE
  5
D7D9F
330
D7BDE
100
AcDbEntity
  8
标注
 48
5.0
370
    -2
100
AcDbLine
 10
104777.4613820648
 20
-168779.715845179
 30
0.0
 11
104777.4613820648
 21
-168746.3542137623
 31
0.0
  0
LINE
  5
D7DA0
330
D7BDE
100
AcDbEntity
  8
标注
 48
5.0
370
    -2
100
AcDbLine
 10
105064.9613820747
 20
-168753.3542137623
 30
0.0
 11
104964.0447154031
 21
-168753.3542137623
 31
0.0
  0
LINE
  5
D7DA1
330
D7BDE
100
AcDbEntity
  8
标注
 48
5.0
370
    -2
100
AcDbLine
 10
104793.4613820648
 20
-168753.3542137623
 30
0.0
 11
104894.3780487364
 21
-168753.3542137623
 31
0.0
  0
SOLID
  5
D7DA2
330
D7BDE
100
AcDbEntity
  8
标注
 48
5.0
100
AcDbTrace
 10
105064.9613820747
 20
-168750.6875470956
 30
0.0
 11
105064.9613820747
 21
-168756.0208804289
 31
0.0
 12
105080.9613820747
 22
-168753.3542137623
 32
0.0
 13
105080.9613820747
 23
-168753.3542137623
 33
0.0
  0
SOLID
  5
D7DA3
330
D7BDE
100
AcDbEntity
  8
标注
 48
5.0
100
AcDbTrace
 10
104793.4613820648
 20
-168750.6875470956
 30
0.0
 11
104793.4613820648
 21
-168756.0208804289
 31
0.0
 12
104777.4613820648
 22
-168753.3542137623
 32
0.0
 13
104777.4613820648
 23
-168753.3542137623
 33
0.0
  0
MTEXT
  5
D7DA4
330
D7BDE
100
AcDbEntity
  8
标注
 48
5.0
100
AcDbMText
 10
104929.2113820697
 20
-168753.3542137623
 30
0.0
 40
20.0
 41
0.0
 71
     5
 72
     1
  1
\A1;303,5
 73
     1
 44
1.0
1001
ACAD
1000
MTEXTBEGIN
1070
    73
1070
     1
1070
    44
1040
1.0
1070
    74
1070
     0
1000
MTEXTEND
  0
POINT
  5
D7DA5
330
D7BDE
100
AcDbEntity
  8
Defpoints
 62
     0
 48
5.0
100
AcDbPoint
 10
105080.9613820747
 20
-168786.7158451792
 30
0.0
  0
POINT
  5
D7DA6
330
D7BDE
100
AcDbEntity
  8
Defpoints
 62
     0
 48
5.0
100
AcDbPoint
 10
104777.4613820648
 20
-168786.7158451791
 30
0.0
  0
POINT
  5
D7DA7
330
D7BDE
100
AcDbEntity
  8
Defpoints
 62
     0
 48
5.0
100
AcDbPoint
 10
104777.4613820648
 20
-168753.3542137623
 30
0.0
  0
ENDBLK
  5
D7BE0
330
D7BDE
100
AcDbEntity
  8
0
 48
5.0
100
AcDbBlockEnd
  0
BLOCK
  5
D7BEC
330
D7BEB
100
AcDbEntity
  8
0
 48
5.0
100
AcDbBlockBegin
  2
*D30
 70
     1
 10
0.0
 20
0.0
 30
0.0
  3
*D30
  1

  0
LINE
  5
D7DBE
330
D7BEB
100
AcDbEntity
  8
标注
 48
5.0
370
    -2
100
AcDbLine
 10
104770.4613820647
 20
-168976.2158451891
 30
0.0
 11
104706.7501532936
 21
-168976.2158451891
 31
0.0
  0
LINE
  5
D7DBF
330
D7BEB
100
AcDbEntity
  8
标注
 48
5.0
370
    -2
100
AcDbLine
 10
104770.4613820648
 20
-168786.7158451791
 30
0.0
 11
104706.7501532936
 21
-168786.7158451791
 31
0.0
  0
LINE
  5
D7DC0
330
D7BEB
100
AcDbEntity
  8
标注
 48
5.0
370
    -2
100
AcDbLine
 10
104713.7501532936
 20
-168960.2158451891
 30
0.0
 11
104713.7501532936
 21
-168915.5214007396
 31
0.0
  0
LINE
  5
D7DC1
330
D7BEB
100
AcDbEntity
  8
标注
 48
5.0
370
    -2
100
AcDbLine
 10
104713.7501532936
 20
-168802.7158451791
 30
0.0
 11
104713.7501532936
 21
-168847.4102896285
 31
0.0
  0
SOLID
  5
D7DC2
330
D7BEB
100
AcDbEntity
  8
标注
 48
5.0
100
AcDbTrace
 10
104711.0834866269
 20
-168960.2158451891
 30
0.0
 11
104716.4168199602
 21
-168960.2158451891
 31
0.0
 12
104713.7501532936
 22
-168976.2158451891
 32
0.0
 13
104713.7501532936
 23
-168976.2158451891
 33
0.0
  0
SOLID
  5
D7DC3
330
D7BEB
100
AcDbEntity
  8
标注
 48
5.0
100
AcDbTrace
 10
104711.0834866269
 20
-168802.7158451791
 30
0.0
 11
104716.4168199602
 21
-168802.7158451791
 31
0.0
 12
104713.7501532936
 22
-168786.7158451791
 32
0.0
 13
104713.7501532936
 23
-168786.7158451791
 33
0.0
  0
MTEXT
  5
D7DC4
330
D7BEB
100
AcDbEntity
  8
标注
 48
5.0
100
AcDbMText
 10
104713.7501532936
 20
-168881.465845184
 30
0.0
 40
20.0
 41
0.0
 71
     5
 72
     1
  1
\A1;189,5
 11
0.0000000000000001
 21
1.0
 31
0.0
 73
     1
 44
1.0
1001
ACAD
1000
MTEXTBEGIN
1070
    73
1070
     1
1070
    44
1040
1.0
1070
    74
1070
     0
1000
MTEXTEND
  0
POINT
  5
D7DC5
330
D7BEB
100
AcDbEntity
  8
Defpoints
 62
     0
 48
5.0
100
AcDbPoint
 10
104777.4613820647
 20
-168976.2158451891
 30
0.0
  0
POINT
  5
D7DC6
330
D7BEB
100
AcDbEntity
  8
Defpoints
 62
     0
 48
5.0
100
AcDbPoint
 10
104777.4613820648
 20
-168786.7158451791
 30
0.0
  0
POINT
  5
D7DC7
330
D7BEB
100
AcDbEntity
  8
Defpoints
 62
     0
 48
5.0
100
AcDbPoint
 10
104713.7501532936
 20
-168786.7158451791
 30
0.0
  0
ENDBLK
  5
D7BED
330
D7BEB
100
AcDbEntity
  8
0
 48
5.0
100
AcDbBlockEnd
  0
BLOCK
  5
D7BF9
330
D7BF8
100
AcDbEntity
  8
0
 48
5.0
100
AcDbBlockBegin
  2
*D31
 70
     1
 10
0.0
 20
0.0
 30
0.0
  3
*D31
  1

  0
LINE
  5
D7D29
330
D7BF8
100
AcDbEntity
  8
标注
 48
5.0
370
    -2
100
AcDbLine
 10
104804.3420054181
 20
-168809.1308421262
 30
0.0
 11
104792.0537204566
 21
-168798.8839863789
 31
0.0
  0
LINE
  5
D7D2A
330
D7BF8
100
AcDbEntity
  8
标注
 48
5.0
370
    -2
100
AcDbLine
 10
104762.869043673
 20
-168774.5477039792
 30
0.0
 11
104750.5807587115
 21
-168764.300848232
 31
0.0
  0
MTEXT
  5
D7D2B
102
{ACAD_XDICTIONARY
360
D7F1F
102
}
330
D7BF8
100
AcDbEntity
  8
标注
 48
5.0
100
AcDbMText
 10
104830.7685676426
 20
-168831.1672102491
 30
0.0
 40
20.0
 41
0.0
 71
     5
 72
     1
  1
\A1;{\fGulim|b0|i0|c129|p34;5-\U+22056}
 11
0.7680178100938893
 21
-0.6404284842030271
 31
0.0
 73
     1
 44
1.0
1001
ACAD
1000
MTEXTBEGIN
1070
    73
1070
     1
1070
    44
1040
1.0
1070
    74
1070
     0
1000
MTEXTEND
  0
LINE
  5
D7D2C
330
D7BF8
100
AcDbEntity
  8
标注
 48
5.0
370
    -2
100
AcDbLine
 10
104775.1573286345
 20
-168784.7945597265
 30
0.0
 11
104779.765435495
 21
-168788.6371306317
 31
0.0
  0
SOLID
  5
D7D2D
330
D7BF8
100
AcDbEntity
  8
标注
 48
5.0
100
AcDbTrace
 10
104764.5768529642
 20
-168772.4996564856
 30
0.0
 11
104761.1612343818
 21
-168776.5957514728
 31
0.0
 12
104775.1573286345
 22
-168784.7945597265
 32
0.0
 13
104775.1573286345
 23
-168784.7945597265
 33
0.0
  0
SOLID
  5
D7D2E
330
D7BF8
100
AcDbEntity
  8
标注
 48
5.0
100
AcDbTrace
 10
104793.7615297478
 20
-168796.8359388854
 30
0.0
 11
104790.3459111654
 21
-168800.9320338726
 31
0.0
 12
104779.765435495
 22
-168788.6371306317
 32
0.0
 13
104779.765435495
 23
-168788.6371306317
 33
0.0
  0
POINT
  5
D7D2F
330
D7BF8
100
AcDbEntity
  8
Defpoints
 62
     0
 48
5.0
100
AcDbPoint
 10
104779.765435495
 20
-168788.6371306317
 30
0.0
  0
POINT
  5
D7D30
330
D7BF8
100
AcDbEntity
  8
Defpoints
 62
     0
 48
5.0
100
AcDbPoint
 10
104775.1573286345
 20
-168784.7945597265
 30
0.0
  0
ENDBLK
  5
D7BFA
330
D7BF8
100
AcDbEntity
  8
0
 48
5.0
100
AcDbBlockEnd
  0
BLOCK
  5
D7C04
330
D7C03
100
AcDbEntity
  8
0
 48
5.0
100
AcDbBlockBegin
  2
*D32
 70
     1
 10
0.0
 20
0.0
 30
0.0
  3
*D32
  1

  0
LINE
  5
D7D31
330
D7C03
100
AcDbEntity
  8
标注
 48
5.0
370
    -2
100
AcDbLine
 10
104579.9613820612
 20
-168990.215845179
 30
0.0
 11
104410.7169528413
 21
-168990.215845179
 31
0.0
  0
LINE
  5
D7D32
330
D7C03
100
AcDbEntity
  8
标注
 48
5.0
370
    -2
100
AcDbLine
 10
104579.9613820625
 20
-168634.215845179
 30
0.0
 11
104410.7169528413
 21
-168634.215845179
 31
0.0
  0
LINE
  5
D7D33
330
D7C03
100
AcDbEntity
  8
标注
 48
5.0
370
    -2
100
AcDbLine
 10
104417.7169528413
 20
-168974.215845179
 30
0.0
 11
104417.7169528413
 21
-168832.9936229568
 31
0.0
  0
LINE
  5
D7D34
330
D7C03
100
AcDbEntity
  8
标注
 48
5.0
370
    -2
100
AcDbLine
 10
104417.7169528413
 20
-168650.215845179
 30
0.0
 11
104417.7169528413
 21
-168791.4380674012
 31
0.0
  0
SOLID
  5
D7D35
330
D7C03
100
AcDbEntity
  8
标注
 48
5.0
100
AcDbTrace
 10
104415.0502861746
 20
-168974.215845179
 30
0.0
 11
104420.383619508
 21
-168974.215845179
 31
0.0
 12
104417.7169528413
 22
-168990.215845179
 32
0.0
 13
104417.7169528413
 23
-168990.215845179
 33
0.0
  0
SOLID
  5
D7D36
330
D7C03
100
AcDbEntity
  8
标注
 48
5.0
100
AcDbTrace
 10
104415.0502861746
 20
-168650.215845179
 30
0.0
 11
104420.383619508
 21
-168650.215845179
 31
0.0
 12
104417.7169528413
 22
-168634.215845179
 32
0.0
 13
104417.7169528413
 23
-168634.215845179
 33
0.0
  0
MTEXT
  5
D7D37
330
D7C03
100
AcDbEntity
  8
标注
 48
5.0
100
AcDbMText
 10
104417.7169528413
 20
-168812.215845179
 30
0.0
 40
20.0
 41
0.0
 71
     5
 72
     1
  1
\A1;356
 11
0.0000000000000001
 21
1.0
 31
0.0
 73
     1
 44
1.0
1001
ACAD
1000
MTEXTBEGIN
1070
    73
1070
     1
1070
    44
1040
1.0
1070
    74
1070
     0
1000
MTEXTEND
  0
POINT
  5
D7D38
330
D7C03
100
AcDbEntity
  8
Defpoints
 62
     0
 48
5.0
100
AcDbPoint
 10
104586.9613820612
 20
-168990.215845179
 30
0.0
  0
POINT
  5
D7D39
330
D7C03
100
AcDbEntity
  8
Defpoints
 62
     0
 48
5.0
100
AcDbPoint
 10
104586.9613820624
 20
-168634.215845179
 30
0.0
  0
POINT
  5
D7D3A
330
D7C03
100
AcDbEntity
  8
Defpoints
 62
     0
 48
5.0
100
AcDbPoint
 10
104417.7169528413
 20
-168634.215845179
 30
0.0
  0
ENDBLK
  5
D7C05
330
D7C03
100
AcDbEntity
  8
0
 48
5.0
100
AcDbBlockEnd
  0
BLOCK
  5
D7C11
330
D7C10
100
AcDbEntity
  8
0
 48
5.0
100
AcDbBlockBegin
  2
*D33
 70
     1
 10
0.0
 20
0.0
 30
0.0
  3
*D33
  1

  0
LINE
  5
D7D3B
330
D7C10
100
AcDbEntity
  8
标注
 48
5.0
370
    -2
100
AcDbLine
 10
104579.9613820624
 20
-168994.215845179
 30
0.0
 11
104364.8543675962
 21
-168994.215845179
 31
0.0
  0
LINE
  5
D7D3C
330
D7C10
100
AcDbEntity
  8
标注
 48
5.0
370
    -2
100
AcDbLine
 10
104579.9613820619
 20
-168630.215845179
 30
0.0
 11
104364.8543675962
 21
-168630.215845179
 31
0.0
  0
LINE
  5
D7D3D
330
D7C10
100
AcDbEntity
  8
标注
 48
5.0
370
    -2
100
AcDbLine
 10
104371.8543675962
 20
-168978.215845179
 30
0.0
 11
104371.8543675962
 21
-168833.215845179
 31
0.0
  0
LINE
  5
D7D3E
330
D7C10
100
AcDbEntity
  8
标注
 48
5.0
370
    -2
100
AcDbLine
 10
104371.8543675962
 20
-168646.215845179
 30
0.0
 11
104371.8543675962
 21
-168791.215845179
 31
0.0
  0
SOLID
  5
D7D3F
330
D7C10
100
AcDbEntity
  8
标注
 48
5.0
100
AcDbTrace
 10
104369.1877009295
 20
-168978.215845179
 30
0.0
 11
104374.5210342629
 21
-168978.215845179
 31
0.0
 12
104371.8543675962
 22
-168994.215845179
 32
0.0
 13
104371.8543675962
 23
-168994.215845179
 33
0.0
  0
SOLID
  5
D7D40
330
D7C10
100
AcDbEntity
  8
标注
 48
5.0
100
AcDbTrace
 10
104369.1877009295
 20
-168646.215845179
 30
0.0
 11
104374.5210342629
 21
-168646.215845179
 31
0.0
 12
104371.8543675962
 22
-168630.215845179
 32
0.0
 13
104371.8543675962
 23
-168630.215845179
 33
0.0
  0
MTEXT
  5
D7D41
330
D7C10
100
AcDbEntity
  8
标注
 48
5.0
100
AcDbMText
 10
104371.8543675962
 20
-168812.215845179
 30
0.0
 40
20.0
 41
0.0
 71
     5
 72
     1
  1
\A1;364
 11
0.0000000000000001
 21
1.0
 31
0.0
 73
     1
 44
1.0
1001
ACAD
1000
MTEXTBEGIN
1070
    73
1070
     1
1070
    44
1040
1.0
1070
    74
1070
     0
1000
MTEXTEND
  0
POINT
  5
D7D42
330
D7C10
100
AcDbEntity
  8
Defpoints
 62
     0
 48
5.0
100
AcDbPoint
 10
104586.9613820624
 20
-168994.215845179
 30
0.0
  0
POINT
  5
D7D43
330
D7C10
100
AcDbEntity
  8
Defpoints
 62
     0
 48
5.0
100
AcDbPoint
 10
104586.9613820619
 20
-168630.215845179
 30
0.0
  0
POINT
  5
D7D44
330
D7C10
100
AcDbEntity
  8
Defpoints
 62
     0
 48
5.0
100
AcDbPoint
 10
104371.8543675962
 20
-168630.215845179
 30
0.0
  0
ENDBLK
  5
D7C12
330
D7C10
100
AcDbEntity
  8
0
 48
5.0
100
AcDbBlockEnd
  0
BLOCK
  5
D7C1E
330
D7C1D
100
AcDbEntity
  8
0
 48
5.0
100
AcDbBlockBegin
  2
*D34
 70
     1
 10
0.0
 20
0.0
 30
0.0
  3
*D34
  1

  0
LINE
  5
D7D45
330
D7C1D
100
AcDbEntity
  8
标注
 48
5.0
370
    -2
100
AcDbLine
 10
104924.9613820621
 20
-168990.215845179
 30
0.0
 11
105185.691919655
 21
-168990.215845179
 31
0.0
  0
LINE
  5
D7D46
330
D7C1D
100
AcDbEntity
  8
标注
 48
5.0
370
    -2
100
AcDbLine
 10
104924.9613820604
 20
-168583.2158451791
 30
0.0
 11
105185.691919655
 21
-168583.2158451791
 31
0.0
  0
LINE
  5
D7D47
330
D7C1D
100
AcDbEntity
  8
标注
 48
5.0
370
    -2
100
AcDbLine
 10
105178.691919655
 20
-168974.215845179
 30
0.0
 11
105178.691919655
 21
-168806.3320481174
 31
0.0
  0
LINE
  5
D7D48
330
D7C1D
100
AcDbEntity
  8
标注
 48
5.0
370
    -2
100
AcDbLine
 10
105178.691919655
 20
-168599.2158451792
 30
0.0
 11
105178.691919655
 21
-168764.3320481174
 31
0.0
  0
SOLID
  5
D7D49
330
D7C1D
100
AcDbEntity
  8
标注
 48
5.0
100
AcDbTrace
 10
105176.0252529884
 20
-168974.215845179
 30
0.0
 11
105181.3585863217
 21
-168974.215845179
 31
0.0
 12
105178.691919655
 22
-168990.215845179
 32
0.0
 13
105178.691919655
 23
-168990.215845179
 33
0.0
  0
SOLID
  5
D7D4A
330
D7C1D
100
AcDbEntity
  8
标注
 48
5.0
100
AcDbTrace
 10
105176.0252529884
 20
-168599.2158451792
 30
0.0
 11
105181.3585863217
 21
-168599.2158451792
 31
0.0
 12
105178.691919655
 22
-168583.2158451791
 32
0.0
 13
105178.691919655
 23
-168583.2158451791
 33
0.0
  0
MTEXT
  5
D7D4B
330
D7C1D
100
AcDbEntity
  8
标注
 48
5.0
100
AcDbMText
 10
105178.6919196551
 20
-168785.3320481174
 30
0.0
 40
20.0
 41
0.0
 71
     5
 72
     1
  1
\A1;407
 11
0.0000000000000001
 21
1.0
 31
0.0
 73
     1
 44
1.0
1001
ACAD
1000
MTEXTBEGIN
1070
    73
1070
     1
1070
    44
1040
1.0
1070
    74
1070
     0
1000
MTEXTEND
  0
POINT
  5
D7D4C
330
D7C1D
100
AcDbEntity
  8
Defpoints
 62
     0
 48
5.0
100
AcDbPoint
 10
104917.9613820621
 20
-168990.215845179
 30
0.0
  0
POINT
  5
D7D4D
330
D7C1D
100
AcDbEntity
  8
Defpoints
 62
     0
 48
5.0
100
AcDbPoint
 10
104917.9613820604
 20
-168583.2158451791
 30
0.0
  0
POINT
  5
D7D4E
330
D7C1D
100
AcDbEntity
  8
Defpoints
 62
     0
 48
5.0
100
AcDbPoint
 10
105178.691919655
 20
-168583.2158451791
 30
0.0
  0
ENDBLK
  5
D7C1F
330
D7C1D
100
AcDbEntity
  8
0
 48
5.0
100
AcDbBlockEnd
  0
BLOCK
  5
D7C2B
330
D7C2A
100
AcDbEntity
  8
0
 48
5.0
100
AcDbBlockBegin
  2
*D35
 70
     1
 10
0.0
 20
0.0
 30
0.0
  3
*D35
  1

  0
LINE
  5
D7D4F
330
D7C2A
100
AcDbEntity
  8
标注
 48
5.0
370
    -2
100
AcDbLine
 10
104924.9613820621
 20
-168994.215845179
 30
0.0
 11
105226.970691881
 21
-168994.215845179
 31
0.0
  0
LINE
  5
D7D50
330
D7C2A
100
AcDbEntity
  8
标注
 48
5.0
370
    -2
100
AcDbLine
 10
104924.9613820671
 20
-168579.2158451792
 30
0.0
 11
105226.970691881
 21
-168579.2158451792
 31
0.0
  0
LINE
  5
D7D51
330
D7C2A
100
AcDbEntity
  8
标注
 48
5.0
370
    -2
100
AcDbLine
 10
105219.970691881
 20
-168978.215845179
 30
0.0
 11
105219.970691881
 21
-168810.2056485815
 31
0.0
  0
LINE
  5
D7D52
330
D7C2A
100
AcDbEntity
  8
标注
 48
5.0
370
    -2
100
AcDbLine
 10
105219.970691881
 20
-168595.2158451792
 30
0.0
 11
105219.970691881
 21
-168768.3167596926
 31
0.0
  0
SOLID
  5
D7D53
330
D7C2A
100
AcDbEntity
  8
标注
 48
5.0
100
AcDbTrace
 10
105217.3040252144
 20
-168978.215845179
 30
0.0
 11
105222.6373585477
 21
-168978.215845179
 31
0.0
 12
105219.970691881
 22
-168994.215845179
 32
0.0
 13
105219.970691881
 23
-168994.215845179
 33
0.0
  0
SOLID
  5
D7D54
330
D7C2A
100
AcDbEntity
  8
标注
 48
5.0
100
AcDbTrace
 10
105217.3040252144
 20
-168595.2158451792
 30
0.0
 11
105222.6373585477
 21
-168595.2158451792
 31
0.0
 12
105219.970691881
 22
-168579.2158451792
 32
0.0
 13
105219.970691881
 23
-168579.2158451792
 33
0.0
  0
MTEXT
  5
D7D55
330
D7C2A
100
AcDbEntity
  8
标注
 48
5.0
100
AcDbMText
 10
105219.9706918811
 20
-168789.261204137
 30
0.0
 40
20.0
 41
0.0
 71
     5
 72
     1
  1
\A1;415
 11
0.0000000000000001
 21
1.0
 31
0.0
 73
     1
 44
1.0
1001
ACAD
1000
MTEXTBEGIN
1070
    73
1070
     1
1070
    44
1040
1.0
1070
    74
1070
     0
1000
MTEXTEND
  0
POINT
  5
D7D56
330
D7C2A
100
AcDbEntity
  8
Defpoints
 62
     0
 48
5.0
100
AcDbPoint
 10
104917.9613820621
 20
-168994.215845179
 30
0.0
  0
POINT
  5
D7D57
330
D7C2A
100
AcDbEntity
  8
Defpoints
 62
     0
 48
5.0
100
AcDbPoint
 10
104917.9613820671
 20
-168579.2158451792
 30
0.0
  0
POINT
  5
D7D58
330
D7C2A
100
AcDbEntity
  8
Defpoints
 62
     0
 48
5.0
100
AcDbPoint
 10
105219.970691881
 20
-168579.2158451792
 30
0.0
  0
ENDBLK
  5
D7C2C
330
D7C2A
100
AcDbEntity
  8
0
 48
5.0
100
AcDbBlockEnd
  0
BLOCK
  5
D7C41
330
D7C40
100
AcDbEntity
  8
0
 48
5.0
100
AcDbBlockBegin
  2
*D36
 70
     1
 10
0.0
 20
0.0
 30
0.0
  3
*D36
  1

  0
LINE
  5
D7D62
330
D7C40
100
AcDbEntity
  8
标注
 48
5.0
370
    -2
100
AcDbLine
 10
105094.9613820647
 20
-168793.7158451766
 30
0.0
 11
105094.9613820647
 21
-169079.495637386
 31
0.0
  0
LINE
  5
D7D63
330
D7C40
100
AcDbEntity
  8
标注
 48
5.0
370
    -2
100
AcDbLine
 10
104459.9613820648
 20
-168819.2158451782
 30
0.0
 11
104459.9613820648
 21
-169079.495637386
 31
0.0
  0
LINE
  5
D7D64
330
D7C40
100
AcDbEntity
  8
标注
 48
5.0
370
    -2
100
AcDbLine
 10
105078.9613820647
 20
-169072.495637386
 30
0.0
 11
104798.0770678991
 21
-169072.495637386
 31
0.0
  0
LINE
  5
D7D65
330
D7C40
100
AcDbEntity
  8
标注
 48
5.0
370
    -2
100
AcDbLine
 10
104475.9613820648
 20
-169072.495637386
 30
0.0
 11
104756.5215123436
 21
-169072.495637386
 31
0.0
  0
SOLID
  5
D7D66
330
D7C40
100
AcDbEntity
  8
标注
 48
5.0
100
AcDbTrace
 10
105078.9613820647
 20
-169069.8289707193
 30
0.0
 11
105078.9613820647
 21
-169075.1623040526
 31
0.0
 12
105094.9613820647
 22
-169072.495637386
 32
0.0
 13
105094.9613820647
 23
-169072.495637386
 33
0.0
  0
SOLID
  5
D7D67
330
D7C40
100
AcDbEntity
  8
标注
 48
5.0
100
AcDbTrace
 10
104475.9613820648
 20
-169069.8289707193
 30
0.0
 11
104475.9613820648
 21
-169075.1623040526
 31
0.0
 12
104459.9613820648
 22
-169072.495637386
 32
0.0
 13
104459.9613820648
 23
-169072.495637386
 33
0.0
  0
MTEXT
  5
D7D68
330
D7C40
100
AcDbEntity
  8
标注
 48
5.0
100
AcDbMText
 10
104777.2992901214
 20
-169072.495637386
 30
0.0
 40
20.0
 41
0.0
 71
     5
 72
     1
  1
\A1;635
 73
     1
 44
1.0
1001
ACAD
1000
MTEXTBEGIN
1070
    73
1070
     1
1070
    44
1040
1.0
1070
    74
1070
     0
1000
MTEXTEND
  0
POINT
  5
D7D69
330
D7C40
100
AcDbEntity
  8
Defpoints
 62
     0
 48
5.0
100
AcDbPoint
 10
105094.9613820647
 20
-168786.7158451766
 30
0.0
  0
POINT
  5
D7D6A
330
D7C40
100
AcDbEntity
  8
Defpoints
 62
     0
 48
5.0
100
AcDbPoint
 10
104459.9613820648
 20
-168812.2158451782
 30
0.0
  0
POINT
  5
D7D6B
330
D7C40
100
AcDbEntity
  8
Defpoints
 62
     0
 48
5.0
100
AcDbPoint
 10
104459.9613820648
 20
-169072.495637386
 30
0.0
  0
ENDBLK
  5
D7C42
330
D7C40
100
AcDbEntity
  8
0
 48
5.0
100
AcDbBlockEnd
  0
BLOCK
  5
D7C4E
330
D7C4D
100
AcDbEntity
  8
0
 48
5.0
100
AcDbBlockBegin
  2
*D37
 70
     1
 10
0.0
 20
0.0
 30
0.0
  3
*D37
  1

  0
LINE
  5
D7D6C
330
D7C4D
100
AcDbEntity
  8
标注
 48
5.0
370
    -2
100
AcDbLine
 10
105098.9613820648
 20
-168793.7158451765
 30
0.0
 11
105098.9613820648
 21
-169117.5893194944
 31
0.0
  0
LINE
  5
D7D6D
330
D7C4D
100
AcDbEntity
  8
标注
 48
5.0
370
    -2
100
AcDbLine
 10
104455.9613820648
 20
-168819.2158451782
 30
0.0
 11
104455.9613820648
 21
-169117.5893194944
 31
0.0
  0
LINE
  5
D7D6E
330
D7C4D
100
AcDbEntity
  8
标注
 48
5.0
370
    -2
100
AcDbLine
 10
105082.9613820647
 20
-169110.5893194944
 30
0.0
 11
104796.3755169557
 21
-169110.5893194944
 31
0.0
  0
LINE
  5
D7D6F
330
D7C4D
100
AcDbEntity
  8
标注
 48
5.0
370
    -2
100
AcDbLine
 10
104471.9613820648
 20
-169110.5893194944
 30
0.0
 11
104754.8199614001
 21
-169110.5893194944
 31
0.0
  0
SOLID
  5
D7D70
330
D7C4D
100
AcDbEntity
  8
标注
 48
5.0
100
AcDbTrace
 10
105082.9613820647
 20
-169107.9226528277
 30
0.0
 11
105082.9613820647
 21
-169113.255986161
 31
0.0
 12
105098.9613820648
 22
-169110.5893194944
 32
0.0
 13
105098.9613820648
 23
-169110.5893194944
 33
0.0
  0
SOLID
  5
D7D71
330
D7C4D
100
AcDbEntity
  8
标注
 48
5.0
100
AcDbTrace
 10
104471.9613820648
 20
-169107.9226528277
 30
0.0
 11
104471.9613820648
 21
-169113.255986161
 31
0.0
 12
104455.9613820648
 22
-169110.5893194944
 32
0.0
 13
104455.9613820648
 23
-169110.5893194944
 33
0.0
  0
MTEXT
  5
D7D72
330
D7C4D
100
AcDbEntity
  8
标注
 48
5.0
100
AcDbMText
 10
104775.5977391779
 20
-169110.5893194944
 30
0.0
 40
20.0
 41
0.0
 71
     5
 72
     1
  1
\A1;643
 73
     1
 44
1.0
1001
ACAD
1000
MTEXTBEGIN
1070
    73
1070
     1
1070
    44
1040
1.0
1070
    74
1070
     0
1000
MTEXTEND
  0
POINT
  5
D7D73
330
D7C4D
100
AcDbEntity
  8
Defpoints
 62
     0
 48
5.0
100
AcDbPoint
 10
105098.9613820648
 20
-168786.7158451765
 30
0.0
  0
POINT
  5
D7D74
330
D7C4D
100
AcDbEntity
  8
Defpoints
 62
     0
 48
5.0
100
AcDbPoint
 10
104455.9613820648
 20
-168812.2158451782
 30
0.0
  0
POINT
  5
D7D75
330
D7C4D
100
AcDbEntity
  8
Defpoints
 62
     0
 48
5.0
100
AcDbPoint
 10
104455.9613820648
 20
-169110.5893194944
 30
0.0
  0
ENDBLK
  5
D7C4F
330
D7C4D
100
AcDbEntity
  8
0
 48
5.0
100
AcDbBlockEnd
  0
BLOCK
  5
D7C5B
330
D7C5A
100
AcDbEntity
  8
0
 48
5.0
100
AcDbBlockBegin
  2
*D38
 70
     1
 10
0.0
 20
0.0
 30
0.0
  3
*D38
  1

  0
LINE
  5
D7DD7
330
D7C5A
100
AcDbEntity
  8
标注
 48
5.0
370
    -2
100
AcDbLine
 10
105038.677215881
 20
-168943.1616351266
 30
0.0
 11
105048.6965626035
 21
-168955.6361167292
 31
0.0
  0
MTEXT
  5
D7DD8
330
D7C5A
100
AcDbEntity
  8
标注
 48
5.0
100
AcDbMText
 10
105025.4224551128
 20
-168926.6589355063
 30
0.0
 40
20.0
 41
0.0
 71
     5
 72
     1
  1
\A1;R80
 11
0.6262091701529288
 21
-0.7796551001669779
 31
0.0
 73
     1
 44
1.0
1001
ACAD
1000
MTEXTBEGIN
1070
    73
1070
     1
1070
    44
1040
1.0
1070
    74
1070
     0
1000
MTEXTEND
  0
SOLID
  5
D7DD9
330
D7C5A
100
AcDbEntity
  8
标注
 48
5.0
100
AcDbTrace
 10
105050.7756428706
 20
-168953.9662256088
 30
0.0
 11
105046.6174823364
 21
-168957.3060078496
 31
0.0
 12
105058.7159093259
 22
-168968.1105983319
 32
0.0
 13
105058.7159093259
 23
-168968.1105983319
 33
0.0
  0
POINT
  5
D7DDA
330
D7C5A
100
AcDbEntity
  8
Defpoints
 62
     0
 48
5.0
100
AcDbPoint
 10
105058.7159093259
 20
-168968.1105983319
 30
0.0
  0
POINT
  5
D7DDB
330
D7C5A
100
AcDbEntity
  8
Defpoints
 62
     0
 48
5.0
100
AcDbPoint
 10
105008.6191757119
 20
-168905.7381903163
 30
0.0
  0
ENDBLK
  5
D7C5C
330
D7C5A
100
AcDbEntity
  8
0
 48
5.0
100
AcDbBlockEnd
  0
BLOCK
  5
D7C64
330
D7C63
100
AcDbEntity
  8
0
 48
5.0
100
AcDbBlockBegin
  2
*D39
 70
     1
 10
0.0
 20
0.0
 30
0.0
  3
*D39
  1

  0
LINE
  5
D7DE1
330
D7C63
100
AcDbEntity
  8
标注
 48
5.0
370
    -2
100
AcDbLine
 10
105043.1932329667
 20
-168634.3973356172
 30
0.0
 11
105054.7179187172
 21
-168623.2986141434
 31
0.0
  0
MTEXT
  5
D7DE2
330
D7C63
100
AcDbEntity
  8
标注
 48
5.0
100
AcDbMText
 10
105027.9470341093
 20
-168649.0800192335
 30
0.0
 40
20.0
 41
0.0
 71
     5
 72
     1
  1
\A1;R80
 11
0.7202928594067312
 21
0.6936700921098408
 31
0.0
 73
     1
 44
1.0
1001
ACAD
1000
MTEXTBEGIN
1070
    73
1070
     1
1070
    44
1040
1.0
1070
    74
1070
     0
1000
MTEXTEND
  0
SOLID
  5
D7DE3
330
D7C63
100
AcDbEntity
  8
标注
 48
5.0
100
AcDbTrace
 10
105052.8681318049
 20
-168621.377833185
 30
0.0
 11
105056.5677056295
 21
-168625.2193951019
 31
0.0
 12
105066.2426044677
 22
-168612.1998926697
 32
0.0
 13
105066.2426044677
 23
-168612.1998926697
 33
0.0
  0
POINT
  5
D7DE4
330
D7C63
100
AcDbEntity
  8
Defpoints
 62
     0
 48
5.0
100
AcDbPoint
 10
105066.2426044677
 20
-168612.1998926697
 30
0.0
  0
POINT
  5
D7DE5
330
D7C63
100
AcDbEntity
  8
Defpoints
 62
     0
 48
5.0
100
AcDbPoint
 10
105008.6191757174
 20
-168667.6935000363
 30
0.0
  0
ENDBLK
  5
D7C65
330
D7C63
100
AcDbEntity
  8
0
 48
5.0
100
AcDbBlockEnd
  0
BLOCK
  5
D7C6D
330
D7C6C
100
AcDbEntity
  8
0
 48
5.0
100
AcDbBlockBegin
  2
*D40
 70
     1
 10
0.0
 20
0.0
 30
0.0
  3
*D40
  1

  0
LINE
  5
D7DEB
330
D7C6C
100
AcDbEntity
  8
标注
 48
5.0
370
    -2
100
AcDbLine
 10
104810.357871021
 20
-168622.7842285914
 30
0.0
 11
104804.7092985559
 21
-168607.8144714422
 31
0.0
  0
MTEXT
  5
D7DEC
330
D7C6C
100
AcDbEntity
  8
标注
 48
5.0
100
AcDbMText
 10
104817.8304616779
 20
-168642.5879698201
 30
0.0
 40
20.0
 41
0.0
 71
     5
 72
     1
  1
\A1;R80
 11
0.3530357790684237
 21
-0.9356098218261454
 31
0.0
 73
     1
 44
1.0
1001
ACAD
1000
MTEXTBEGIN
1070
    73
1070
     1
1070
    44
1040
1.0
1070
    74
1070
     0
1000
MTEXTEND
  0
SOLID
  5
D7DED
330
D7C6C
100
AcDbEntity
  8
标注
 48
5.0
100
AcDbTrace
 10
104807.2042580808
 20
-168606.873042698
 30
0.0
 11
104802.214339031
 21
-168608.7559001864
 31
0.0
 12
104799.0607260908
 22
-168592.844714293
 32
0.0
 13
104799.0607260908
 23
-168592.844714293
 33
0.0
  0
POINT
  5
D7DEE
330
D7C6C
100
AcDbEntity
  8
Defpoints
 62
     0
 48
5.0
100
AcDbPoint
 10
104799.0607260908
 20
-168592.844714293
 30
0.0
  0
POINT
  5
D7DEF
330
D7C6C
100
AcDbEntity
  8
Defpoints
 62
     0
 48
5.0
100
AcDbPoint
 10
104827.3035884173
 20
-168667.6935000418
 30
0.0
  0
ENDBLK
  5
D7C6E
330
D7C6C
100
AcDbEntity
  8
0
 48
5.0
100
AcDbBlockEnd
  0
BLOCK
  5
D7C76
330
D7C75
100
AcDbEntity
  8
0
 48
5.0
100
AcDbBlockBegin
  2
*D41
 70
     1
 10
0.0
 20
0.0
 30
0.0
  3
*D41
  1

  0
LINE
  5
D7DF0
330
D7C75
100
AcDbEntity
  8
标注
 48
5.0
370
    -2
100
AcDbLine
 10
104736.3080794223
 20
-168601.8723322857
 30
0.0
 11
104743.7424404886
 21
-168616.0402635226
 31
0.0
  0
MTEXT
  5
D7DF1
330
D7C75
100
AcDbEntity
  8
标注
 48
5.0
100
AcDbMText
 10
104726.5504805227
 20
-168583.2769225372
 30
0.0
 40
20.0
 41
0.0
 71
     5
 72
     1
  1
\A1;R35
 11
0.4646475666457895
 21
-0.8854957023103763
 31
0.0
 73
     1
 44
1.0
1001
ACAD
1000
MTEXTBEGIN
1070
    73
1070
     1
1070
    44
1040
1.0
1070
    74
1070
     0
1000
MTEXTEND
  0
SOLID
  5
D7DF2
330
D7C75
100
AcDbEntity
  8
标注
 48
5.0
100
AcDbTrace
 10
104746.1037623615
 20
-168614.8012033449
 30
0.0
 11
104741.3811186158
 21
-168617.2793237004
 31
0.0
 12
104751.1768015549
 22
-168630.2081947596
 32
0.0
 13
104751.1768015549
 23
-168630.2081947596
 33
0.0
  0
POINT
  5
D7DF3
330
D7C75
100
AcDbEntity
  8
Defpoints
 62
     0
 48
5.0
100
AcDbPoint
 10
104751.1768015549
 20
-168630.2081947596
 30
0.0
  0
POINT
  5
D7DF4
330
D7C75
100
AcDbEntity
  8
Defpoints
 62
     0
 48
5.0
100
AcDbPoint
 10
104734.9141367225
 20
-168599.2158451789
 30
0.0
  0
ENDBLK
  5
D7C77
330
D7C75
100
AcDbEntity
  8
0
 48
5.0
100
AcDbBlockEnd
  0
BLOCK
  5
D7C7F
330
D7C7E
100
AcDbEntity
  8
0
 48
5.0
100
AcDbBlockBegin
  2
*D42
 70
     1
 10
0.0
 20
0.0
 30
0.0
  3
*D42
  1

  0
LINE
  5
D7DF5
330
D7C7E
100
AcDbEntity
  8
标注
 48
5.0
370
    -2
100
AcDbLine
 10
104524.7675896535
 20
-168673.1673220159
 30
0.0
 11
104517.2642708936
 21
-168659.0357896295
 31
0.0
  0
MTEXT
  5
D7DF6
330
D7C7E
100
AcDbEntity
  8
标注
 48
5.0
100
AcDbMText
 10
104534.6156955258
 20
-168691.7149582731
 30
0.0
 40
20.0
 41
0.0
 71
     5
 72
     1
  1
\A1;R85
 11
0.4689574224907645
 21
-0.8832207741503925
 31
0.0
 73
     1
 44
1.0
1001
ACAD
1000
MTEXTBEGIN
1070
    73
1070
     1
1070
    44
1040
1.0
1070
    74
1070
     0
1000
MTEXTEND
  0
SOLID
  5
D7DF7
330
D7C7E
100
AcDbEntity
  8
标注
 48
5.0
100
AcDbTrace
 10
104519.6195262913
 20
-168657.7852365029
 30
0.0
 11
104514.9090154959
 21
-168660.2863427562
 31
0.0
 12
104509.7609521338
 22
-168644.9042572431
 32
0.0
 13
104509.7609521338
 23
-168644.9042572431
 33
0.0
  0
POINT
  5
D7DF8
330
D7C7E
100
AcDbEntity
  8
Defpoints
 62
     0
 48
5.0
100
AcDbPoint
 10
104509.7609521338
 20
-168644.9042572431
 30
0.0
  0
POINT
  5
D7DF9
330
D7C7E
100
AcDbEntity
  8
Defpoints
 62
     0
 48
5.0
100
AcDbPoint
 10
104549.6223330447
 20
-168719.9780230443
 30
0.0
  0
ENDBLK
  5
D7C80
330
D7C7E
100
AcDbEntity
  8
0
 48
5.0
100
AcDbBlockEnd
  0
BLOCK
  5
D7C88
330
D7C87
100
AcDbEntity
  8
0
 48
5.0
100
AcDbBlockBegin
  2
*D43
 70
     1
 10
0.0
 20
0.0
 30
0.0
  3
*D43
  1

  0
LINE
  5
D7E04
330
D7C87
100
AcDbEntity
  8
标注
 48
5.0
370
    -2
100
AcDbLine
 10
104518.3342774192
 20
-168947.2328395234
 30
0.0
 11
104508.8888266639
 21
-168960.1473066061
 31
0.0
  0
MTEXT
  5
D7E05
330
D7C87
100
AcDbEntity
  8
标注
 48
5.0
100
AcDbMText
 10
104530.7314315356
 20
-168930.2826014775
 30
0.0
 40
20.0
 41
0.0
 71
     5
 72
     1
  1
\A1;R85
 11
0.5903406722076764
 21
0.8071541926654342
 31
0.0
 73
     1
 44
1.0
1001
ACAD
1000
MTEXTBEGIN
1070
    73
1070
     1
1070
    44
1040
1.0
1070
    74
1070
     0
1000
MTEXTEND
  0
SOLID
  5
D7E06
330
D7C87
100
AcDbEntity
  8
标注
 48
5.0
100
AcDbTrace
 10
104506.7364154835
 20
-168958.5730648135
 30
0.0
 11
104511.0412378443
 21
-168961.7215483986
 31
0.0
 12
104499.4433759086
 22
-168973.0617736887
 32
0.0
 13
104499.4433759086
 23
-168973.0617736887
 33
0.0
  0
POINT
  5
D7E07
330
D7C87
100
AcDbEntity
  8
Defpoints
 62
     0
 48
5.0
100
AcDbPoint
 10
104499.4433759086
 20
-168973.0617736887
 30
0.0
  0
POINT
  5
D7E08
330
D7C87
100
AcDbEntity
  8
Defpoints
 62
     0
 48
5.0
100
AcDbPoint
 10
104549.622333047
 20
-168904.4536673112
 30
0.0
  0
ENDBLK
  5
D7C89
330
D7C87
100
AcDbEntity
  8
0
 48
5.0
100
AcDbBlockEnd
  0
BLOCK
  5
D7C91
330
D7C90
100
AcDbEntity
  8
0
 48
5.0
100
AcDbBlockBegin
  2
*D44
 70
     1
 10
0.0
 20
0.0
 30
0.0
  3
*D44
  1

  0
LINE
  5
D7D94
330
D7C90
100
AcDbEntity
  8
标注
 48
5.0
370
    -2
100
AcDbLine
 10
105080.9613820747
 20
-168779.7158451791
 30
0.0
 11
105080.9613820747
 21
-168709.3132695351
 31
0.0
  0
LINE
  5
D7D95
330
D7C90
100
AcDbEntity
  8
标注
 48
5.0
370
    -2
100
AcDbLine
 10
104473.9613820548
 20
-168779.7158451791
 30
0.0
 11
104473.9613820548
 21
-168709.3132695351
 31
0.0
  0
LINE
  5
D7D96
330
D7C90
100
AcDbEntity
  8
标注
 48
5.0
370
    -2
100
AcDbLine
 10
105064.9613820747
 20
-168716.3132695351
 30
0.0
 11
104934.9639519198
 21
-168716.3132695351
 31
0.0
  0
LINE
  5
D7D97
330
D7C90
100
AcDbEntity
  8
标注
 48
5.0
370
    -2
100
AcDbLine
 10
104489.9613820548
 20
-168716.3132695351
 30
0.0
 11
104893.2972852531
 21
-168716.3132695351
 31
0.0
  0
SOLID
  5
D7D98
330
D7C90
100
AcDbEntity
  8
标注
 48
5.0
100
AcDbTrace
 10
105064.9613820747
 20
-168713.6466028684
 30
0.0
 11
105064.9613820747
 21
-168718.9799362018
 31
0.0
 12
105080.9613820747
 22
-168716.3132695351
 32
0.0
 13
105080.9613820747
 23
-168716.3132695351
 33
0.0
  0
SOLID
  5
D7D99
330
D7C90
100
AcDbEntity
  8
标注
 48
5.0
100
AcDbTrace
 10
104489.9613820548
 20
-168713.6466028684
 30
0.0
 11
104489.9613820548
 21
-168718.9799362018
 31
0.0
 12
104473.9613820548
 22
-168716.3132695351
 32
0.0
 13
104473.9613820548
 23
-168716.3132695351
 33
0.0
  0
MTEXT
  5
D7D9A
330
D7C90
100
AcDbEntity
  8
标注
 48
5.0
100
AcDbMText
 10
104914.1306185864
 20
-168716.3132695351
 30
0.0
 40
20.0
 41
0.0
 71
     5
 72
     1
  1
\A1;607
 73
     1
 44
1.0
1001
ACAD
1000
MTEXTBEGIN
1070
    73
1070
     1
1070
    44
1040
1.0
1070
    74
1070
     0
1000
MTEXTEND
  0
POINT
  5
D7D9B
330
D7C90
100
AcDbEntity
  8
Defpoints
 62
     0
 48
5.0
100
AcDbPoint
 10
105080.9613820747
 20
-168786.7158451792
 30
0.0
  0
POINT
  5
D7D9C
330
D7C90
100
AcDbEntity
  8
Defpoints
 62
     0
 48
5.0
100
AcDbPoint
 10
104473.9613820548
 20
-168786.7158451792
 30
0.0
  0
POINT
  5
D7D9D
330
D7C90
100
AcDbEntity
  8
Defpoints
 62
     0
 48
5.0
100
AcDbPoint
 10
104473.9613820548
 20
-168716.3132695351
 30
0.0
  0
ENDBLK
  5
D7C92
330
D7C90
100
AcDbEntity
  8
0
 48
5.0
100
AcDbBlockEnd
  0
BLOCK
  5
D7CA8
330
D7CA7
100
AcDbEntity
  8
0
 48
5.0
100
AcDbBlockBegin
  2
*D45
 70
     1
 10
0.0
 20
0.0
 30
0.0
  3
*D45
  1

  0
LINE
  5
D7E0E
330
D7CA7
100
AcDbEntity
  8
标注
 48
5.0
370
    -2
100
AcDbLine
 10
105080.9613820747
 20
-168779.7158451791
 30
0.0
 11
105080.9613820747
 21
-168707.9739310306
 31
0.0
  0
LINE
  5
D7E0F
330
D7CA7
100
AcDbEntity
  8
标注
 48
5.0
370
    -2
100
AcDbLine
 10
105098.3494964723
 20
-168741.3355624475
 30
0.0
 11
105098.3494964723
 21
-168707.9739310306
 31
0.0
  0
LINE
  5
D7E10
330
D7CA7
100
AcDbEntity
  8
标注
 48
5.0
370
    -2
100
AcDbLine
 10
105064.9613820747
 20
-168714.9739310306
 30
0.0
 11
105048.9613820747
 21
-168714.9739310306
 31
0.0
  0
LINE
  5
D7E11
330
D7CA7
100
AcDbEntity
  8
标注
 48
5.0
370
    -2
100
AcDbLine
 10
105114.3494964723
 20
-168714.9739310306
 30
0.0
 11
105130.3494964723
 21
-168714.9739310306
 31
0.0
  0
LINE
  5
D7E12
330
D7CA7
100
AcDbEntity
  8
标注
 48
5.0
370
    -2
100
AcDbLine
 10
105080.9613820747
 20
-168714.9739310306
 30
0.0
 11
105098.3494964723
 21
-168714.9739310306
 31
0.0
  0
SOLID
  5
D7E13
330
D7CA7
100
AcDbEntity
  8
标注
 48
5.0
100
AcDbTrace
 10
105064.9613820747
 20
-168712.3072643639
 30
0.0
 11
105064.9613820747
 21
-168717.6405976973
 31
0.0
 12
105080.9613820747
 22
-168714.9739310306
 32
0.0
 13
105080.9613820747
 23
-168714.9739310306
 33
0.0
  0
SOLID
  5
D7E14
330
D7CA7
100
AcDbEntity
  8
标注
 48
5.0
100
AcDbTrace
 10
105114.3494964723
 20
-168712.3072643639
 30
0.0
 11
105114.3494964723
 21
-168717.6405976973
 31
0.0
 12
105098.3494964723
 22
-168714.9739310306
 32
0.0
 13
105098.3494964723
 23
-168714.9739310306
 33
0.0
  0
MTEXT
  5
D7E15
330
D7CA7
100
AcDbEntity
  8
标注
 48
5.0
100
AcDbMText
 10
105157.6828298056
 20
-168714.9739310306
 30
0.0
 40
20.0
 41
0.0
 71
     5
 72
     1
  1
\A1;17,4
 73
     1
 44
1.0
1001
ACAD
1000
MTEXTBEGIN
1070
    73
1070
     1
1070
    44
1040
1.0
1070
    74
1070
     0
1000
MTEXTEND
  0
POINT
  5
D7E16
330
D7CA7
100
AcDbEntity
  8
Defpoints
 62
     0
 48
5.0
100
AcDbPoint
 10
105080.9613820747
 20
-168786.7158451792
 30
0.0
  0
POINT
  5
D7E17
330
D7CA7
100
AcDbEntity
  8
Defpoints
 62
     0
 48
5.0
100
AcDbPoint
 10
105098.3494964723
 20
-168748.3355624475
 30
0.0
  0
POINT
  5
D7E18
330
D7CA7
100
AcDbEntity
  8
Defpoints
 62
     0
 48
5.0
100
AcDbPoint
 10
105098.3494964723
 20
-168714.9739310306
 30
0.0
  0
ENDBLK
  5
D7CA9
330
D7CA7
100
AcDbEntity
  8
0
 48
5.0
100
AcDbBlockEnd
  0
BLOCK
  5
D7CB6
330
D7CB5
100
AcDbEntity
  8
0
 48
5.0
100
AcDbBlockBegin
  2
*D46
 70
     1
 10
0.0
 20
0.0
 30
0.0
  3
*D46
  1

  0
LINE
  5
D7DB3
330
D7CB5
100
AcDbEntity
  8
标注
 48
5.0
370
    -2
100
AcDbLine
 10
104770.4613820647
 20
-168976.2158451891
 30
0.0
 11
104740.7142981577
 21
-168976.2158451891
 31
0.0
  0
LINE
  5
D7DB4
330
D7CB5
100
AcDbEntity
  8
标注
 48
5.0
370
    -2
100
AcDbLine
 10
104770.4613820647
 20
-168994.215845179
 30
0.0
 11
104740.7142981577
 21
-168994.215845179
 31
0.0
  0
LINE
  5
D7DB5
330
D7CB5
100
AcDbEntity
  8
标注
 48
5.0
370
    -2
100
AcDbLine
 10
104747.7142981577
 20
-168960.2158451891
 30
0.0
 11
104747.7142981577
 21
-168944.2158451891
 31
0.0
  0
LINE
  5
D7DB6
330
D7CB5
100
AcDbEntity
  8
标注
 48
5.0
370
    -2
100
AcDbLine
 10
104747.7142981577
 20
-169010.215845179
 30
0.0
 11
104747.7142981577
 21
-169026.215845179
 31
0.0
  0
LINE
  5
D7DB7
330
D7CB5
100
AcDbEntity
  8
标注
 48
5.0
370
    -2
100
AcDbLine
 10
104747.7142981577
 20
-168976.2158451891
 30
0.0
 11
104747.7142981577
 21
-168994.215845179
 31
0.0
  0
SOLID
  5
D7DB8
330
D7CB5
100
AcDbEntity
  8
标注
 48
5.0
100
AcDbTrace
 10
104745.0476314911
 20
-168960.2158451891
 30
0.0
 11
104750.3809648244
 21
-168960.2158451891
 31
0.0
 12
104747.7142981577
 22
-168976.2158451891
 32
0.0
 13
104747.7142981577
 23
-168976.2158451891
 33
0.0
  0
SOLID
  5
D7DB9
330
D7CB5
100
AcDbEntity
  8
标注
 48
5.0
100
AcDbTrace
 10
104745.0476314911
 20
-169010.215845179
 30
0.0
 11
104750.3809648244
 21
-169010.215845179
 31
0.0
 12
104747.7142981577
 22
-168994.215845179
 32
0.0
 13
104747.7142981577
 23
-168994.215845179
 33
0.0
  0
MTEXT
  5
D7DBA
330
D7CB5
100
AcDbEntity
  8
标注
 48
5.0
100
AcDbMText
 10
104747.7142981578
 20
-169038.9936229568
 30
0.0
 40
20.0
 41
0.0
 71
     5
 72
     1
  1
\A1;18
 11
0.0000000000000001
 21
1.0
 31
0.0
 73
     1
 44
1.0
1001
ACAD
1000
MTEXTBEGIN
1070
    73
1070
     1
1070
    44
1040
1.0
1070
    74
1070
     0
1000
MTEXTEND
  0
POINT
  5
D7DBB
330
D7CB5
100
AcDbEntity
  8
Defpoints
 62
     0
 48
5.0
100
AcDbPoint
 10
104777.4613820647
 20
-168976.2158451891
 30
0.0
  0
POINT
  5
D7DBC
330
D7CB5
100
AcDbEntity
  8
Defpoints
 62
     0
 48
5.0
100
AcDbPoint
 10
104777.4613820647
 20
-168994.215845179
 30
0.0
  0
POINT
  5
D7DBD
330
D7CB5
100
AcDbEntity
  8
Defpoints
 62
     0
 48
5.0
100
AcDbPoint
 10
104747.7142981577
 20
-168994.215845179
 30
0.0
  0
ENDBLK
  5
D7CB7
330
D7CB5
100
AcDbEntity
  8
0
 48
5.0
100
AcDbBlockEnd
  0
BLOCK
  5
D7CCE
330
D7CCD
100
AcDbEntity
  8
0
 48
5.0
100
AcDbBlockBegin
  2
*D47
 70
     1
 10
0.0
 20
0.0
 30
0.0
  3
*D47
  1

  0
LINE
  5
D7DC8
330
D7CCD
100
AcDbEntity
  8
标注
 48
5.0
370
    -2
100
AcDbLine
 10
104770.4613820647
 20
-168976.2158451891
 30
0.0
 11
104655.3362519627
 21
-168976.2158451891
 31
0.0
  0
LINE
  5
D7DC9
330
D7CCD
100
AcDbEntity
  8
标注
 48
5.0
370
    -2
100
AcDbLine
 10
104770.4613820647
 20
-168618.0787496807
 30
0.0
 11
104655.3362519627
 21
-168618.0787496807
 31
0.0
  0
LINE
  5
D7DCA
330
D7CCD
100
AcDbEntity
  8
标注
 48
5.0
370
    -2
100
AcDbLine
 10
104662.3362519627
 20
-168960.2158451891
 30
0.0
 11
104662.3362519627
 21
-168907.3126927412
 31
0.0
  0
LINE
  5
D7DCB
330
D7CCD
100
AcDbEntity
  8
标注
 48
5.0
370
    -2
100
AcDbLine
 10
104662.3362519627
 20
-168634.0787496807
 30
0.0
 11
104662.3362519627
 21
-168838.7571371856
 31
0.0
  0
SOLID
  5
D7DCC
330
D7CCD
100
AcDbEntity
  8
标注
 48
5.0
100
AcDbTrace
 10
104659.6695852961
 20
-168960.2158451891
 30
0.0
 11
104665.0029186294
 21
-168960.2158451891
 31
0.0
 12
104662.3362519627
 22
-168976.2158451891
 32
0.0
 13
104662.3362519627
 23
-168976.2158451891
 33
0.0
  0
SOLID
  5
D7DCD
330
D7CCD
100
AcDbEntity
  8
标注
 48
5.0
100
AcDbTrace
 10
104659.6695852961
 20
-168634.0787496807
 30
0.0
 11
104665.0029186294
 21
-168634.0787496807
 31
0.0
 12
104662.3362519627
 22
-168618.0787496807
 32
0.0
 13
104662.3362519627
 23
-168618.0787496807
 33
0.0
  0
MTEXT
  5
D7DCE
330
D7CCD
100
AcDbEntity
  8
标注
 48
5.0
100
AcDbMText
 10
104662.3362519627
 20
-168873.0349149633
 30
0.0
 40
20.0
 41
0.0
 71
     5
 72
     1
  1
\A1;358,1
 11
0.0000000000000001
 21
1.0
 31
0.0
 73
     1
 44
1.0
1001
ACAD
1000
MTEXTBEGIN
1070
    73
1070
     1
1070
    44
1040
1.0
1070
    74
1070
     0
1000
MTEXTEND
  0
POINT
  5
D7DCF
330
D7CCD
100
AcDbEntity
  8
Defpoints
 62
     0
 48
5.0
100
AcDbPoint
 10
104777.4613820647
 20
-168976.2158451891
 30
0.0
  0
POINT
  5
D7DD0
330
D7CCD
100
AcDbEntity
  8
Defpoints
 62
     0
 48
5.0
100
AcDbPoint
 10
104777.4613820647
 20
-168618.0787496807
 30
0.0
  0
POINT
  5
D7DD1
330
D7CCD
100
AcDbEntity
  8
Defpoints
 62
     0
 48
5.0
100
AcDbPoint
 10
104662.3362519627
 20
-168618.0787496807
 30
0.0
  0
ENDBLK
  5
D7CCF
330
D7CCD
100
AcDbEntity
  8
0
 48
5.0
100
AcDbBlockEnd
  0
BLOCK
  5
D7E28
330
D7E27
100
AcDbEntity
  8
0
 48
5.0
100
AcDbBlockBegin
  2
*D48
 70
     1
 10
0.0
 20
0.0
 30
0.0
  3
*D48
  1

  0
LINE
  5
D7E30
330
D7E27
100
AcDbEntity
  8
标注
 48
5.0
370
    -2
100
AcDbLine
 10
104928.0205321164
 20
-168615.2681123443
 30
0.0
 11
104928.1867990594
 21
-168599.2689762643
 31
0.0
  0
MTEXT
  5
D7E31
330
D7E27
100
AcDbEntity
  8
标注
 48
5.0
100
AcDbMText
 10
104927.6527819682
 20
-168650.6550904099
 30
0.0
 40
20.0
 41
0.0
 71
     5
 72
     1
  1
\A1;R1000
 11
0.0103916839373974
 21
0.9999460049947423
 31
0.0
 73
     1
 44
1.0
1001
ACAD
1000
MTEXTBEGIN
1070
    73
1070
     1
1070
    44
1040
1.0
1070
    74
1070
     0
1000
MTEXTEND
  0
SOLID
  5
D7E32
330
D7E27
100
AcDbEntity
  8
标注
 48
5.0
100
AcDbTrace
 10
104925.5202763794
 20
-168599.2412651072
 30
0.0
 11
104930.8533217394
 21
-168599.2966874215
 31
0.0
 12
104928.3530660024
 22
-168583.2698401844
 32
0.0
 13
104928.3530660024
 23
-168583.2698401844
 33
0.0
  0
POINT
  5
D7E33
330
D7E27
100
AcDbEntity
  8
Defpoints
 62
     0
 48
5.0
100
AcDbPoint
 10
104928.3530660024
 20
-168583.2698401844
 30
0.0
  0
POINT
  5
D7E34
330
D7E27
100
AcDbEntity
  8
Defpoints
 62
     0
 48
5.0
100
AcDbPoint
 10
104917.9613820647
 20
-169583.2158452032
 30
0.0
  0
ENDBLK
  5
D7E29
330
D7E27
100
AcDbEntity
  8
0
 48
5.0
100
AcDbBlockEnd
  0
BLOCK
  5
D7E38
330
D7E37
100
AcDbEntity
  8
0
 48
5.0
100
AcDbBlockBegin
  2
*D49
 70
     1
 10
0.0
 20
0.0
 30
0.0
  3
*D49
  1

  0
LINE
  5
D7E40
330
D7E37
100
AcDbEntity
  8
标注
 48
5.0
370
    -2
100
AcDbLine
 10
105062.7633351597
 20
-168808.2239447599
 30
0.0
 11
105078.7606221884
 21
-168808.518576261
 31
0.0
  0
MTEXT
  5
D7E41
330
D7E37
100
AcDbEntity
  8
标注
 48
5.0
100
AcDbMText
 10
105027.3804468358
 20
-168807.5722771689
 30
0.0
 40
20.0
 41
0.0
 71
     5
 72
     1
  1
\A1;R1200
 11
0.9998304392936269
 21
-0.0184144688197298
 31
0.0
 73
     1
 44
1.0
1001
ACAD
1000
MTEXTBEGIN
1070
    73
1070
     1
1070
    44
1040
1.0
1070
    74
1070
     0
1000
MTEXTEND
  0
SOLID
  5
D7E42
330
D7E37
100
AcDbEntity
  8
标注
 48
5.0
100
AcDbTrace
 10
105078.8097274386
 20
-168805.8523617562
 30
0.0
 11
105078.7115169382
 21
-168811.1847907658
 31
0.0
 12
105094.7579092171
 22
-168808.8132077621
 32
0.0
 13
105094.7579092171
 23
-168808.8132077621
 33
0.0
  0
POINT
  5
D7E43
330
D7E37
100
AcDbEntity
  8
Defpoints
 62
     0
 48
5.0
100
AcDbPoint
 10
105094.7579092171
 20
-168808.8132077621
 30
0.0
  0
POINT
  5
D7E44
330
D7E37
100
AcDbEntity
  8
Defpoints
 62
     0
 48
5.0
100
AcDbPoint
 10
103894.9613820868
 20
-168786.7158451788
 30
0.0
  0
ENDBLK
  5
D7E39
330
D7E37
100
AcDbEntity
  8
0
 48
5.0
100
AcDbBlockEnd
  0
BLOCK
  5
D7E48
330
D7E47
100
AcDbEntity
  8
0
 48
5.0
100
AcDbBlockBegin
  2
*D50
 70
     1
 10
0.0
 20
0.0
 30
0.0
  3
*D50
  1

  0
LINE
  5
D7E50
330
D7E47
100
AcDbEntity
  8
标注
 48
5.0
370
    -2
100
AcDbLine
 10
104974.8766278136
 20
-168956.5411810785
 30
0.0
 11
104975.8173756772
 21
-168972.5135006802
 31
0.0
  0
MTEXT
  5
D7E51
330
D7E47
100
AcDbEntity
  8
标注
 48
5.0
100
AcDbMText
 10
104972.7958764625
 20
-168921.2135158484
 30
0.0
 40
20.0
 41
0.0
 71
     5
 72
     1
  1
\A1;R1000
 11
0.0587967414747104
 21
-0.9982699751029057
 31
0.0
 73
     1
 44
1.0
1001
ACAD
1000
MTEXTBEGIN
1070
    73
1070
     1
1070
    44
1040
1.0
1070
    74
1070
     0
1000
MTEXTEND
  0
SOLID
  5
D7E52
330
D7E47
100
AcDbEntity
  8
标注
 48
5.0
100
AcDbTrace
 10
104978.4794289441
 20
-168972.3567093696
 30
0.0
 11
104973.1553224102
 21
-168972.6702919908
 31
0.0
 12
104976.7581235408
 22
-168988.4858202818
 32
0.0
 13
104976.7581235408
 23
-168988.4858202818
 33
0.0
  0
POINT
  5
D7E53
330
D7E47
100
AcDbEntity
  8
Defpoints
 62
     0
 48
5.0
100
AcDbPoint
 10
104976.7581235408
 20
-168988.4858202818
 30
0.0
  0
POINT
  5
D7E54
330
D7E47
100
AcDbEntity
  8
Defpoints
 62
     0
 48
5.0
100
AcDbPoint
 10
104917.9613820632
 20
-167990.2158451307
 30
0.0
  0
ENDBLK
  5
D7E49
330
D7E47
100
AcDbEntity
  8
0
 48
5.0
100
AcDbBlockEnd
  0
BLOCK
  5
D7E58
330
D7E57
100
AcDbEntity
  8
0
 48
5.0
100
AcDbBlockBegin
  2
*D51
 70
     1
 10
0.0
 20
0.0
 30
0.0
  3
*D51
  1

  0
LINE
  5
D7E60
330
D7E57
100
AcDbEntity
  8
标注
 48
5.0
370
    -2
100
AcDbLine
 10
104491.9633771671
 20
-168810.2505172244
 30
0.0
 11
104475.963410144
 21
-168810.2180324648
 31
0.0
  0
MTEXT
  5
D7E61
330
D7E57
100
AcDbEntity
  8
标注
 48
5.0
100
AcDbMText
 10
104527.3521931175
 20
-168810.322367196
 30
0.0
 40
20.0
 41
0.0
 71
     5
 72
     1
  1
\A1;R1000
 11
0.9999979389439602
 21
-0.0020302974737835
 31
0.0
 73
     1
 44
1.0
1001
ACAD
1000
MTEXTBEGIN
1070
    73
1070
     1
1070
    44
1040
1.0
1070
    74
1070
     0
1000
MTEXTEND
  0
SOLID
  5
D7E62
330
D7E57
100
AcDbEntity
  8
标注
 48
5.0
100
AcDbTrace
 10
104475.9688242706
 20
-168807.5513712943
 30
0.0
 11
104475.9579960174
 21
-168812.8846936353
 31
0.0
 12
104459.9634431209
 22
-168810.1855477052
 32
0.0
 13
104459.9634431209
 23
-168810.1855477052
 33
0.0
  0
POINT
  5
D7E63
330
D7E57
100
AcDbEntity
  8
Defpoints
 62
     0
 48
5.0
100
AcDbPoint
 10
104459.9634431209
 20
-168810.1855477052
 30
0.0
  0
POINT
  5
D7E64
330
D7E57
100
AcDbEntity
  8
Defpoints
 62
     0
 48
5.0
100
AcDbPoint
 10
105459.9613820731
 20
-168812.215845179
 30
0.0
  0
ENDBLK
  5
D7E59
330
D7E57
100
AcDbEntity
  8
0
 48
5.0
100
AcDbBlockEnd
  0
ENDSEC
  0
SECTION
  2
ENTITIES
  0
LWPOLYLINE
  5
D7B91
102
{ACAD_REACTORS
330
D7BA7
330
D7BAE
330
D7BB4
330
D7BB7
330
D7BBA
330
D7BBD
330
D7BC0
330
D7BC3
330
D7BA1
330
D7E35
330
D7E45
330
D7E55
330
D7E65
102
}
330
1F
100
AcDbEntity
  8
虚线
 48
5.0
100
AcDbPolyline
 90
       15
 70
     0
 43
0.0
 10
104763.0326654967
 20
-168620.0568705703
 42
-0.2116426102934878
 10
104819.4203020154
 20
-168588.0828613308
 42
-0.0493907327716592
 10
105016.5024621185
 20
-168588.0828613312
 42
-0.3553196185218921
 10
105088.1661609748
 20
-168659.1919039524
 42
-0.0532858459711956
 10
105088.1661609753
 20
-168914.2397864008
 42
-0.3553196185219689
 10
105016.5024621137
 20
-168985.3488290274
 42
-0.0246803239833756
 10
104917.9613820621
 20
-168990.215845179
 10
104586.9613820624
 20
-168990.215845179
 42
-0.0102051138226749
 10
104546.1536782193
 20
-168989.3828639036
 42
-0.3732663043293853
 10
104465.0553175634
 20
-168913.0222081642
 42
-0.0505318845729019
 10
104465.0553175635
 20
-168711.4094821922
 42
-0.3732663043293853
 10
104546.1536782164
 20
-168635.0488264545
 42
-0.0102051138226749
 10
104586.9613820624
 20
-168634.215845179
 10
104734.9141367224
 20
-168634.215845179
 42
0.2375638271098088
 10
104763.0326654991
 20
-168620.056870572
  0
LWPOLYLINE
  5
D7B92
102
{ACAD_REACTORS
330
D7BA4
330
D7BAA
330
D7BB1
330
D7BCA
330
D7BCD
102
}
330
1F
100
AcDbEntity
  8
0
100
AcDbPolyline
 90
       14
 70
     1
 43
0.0
 10
104759.8191193508
 20
-168617.6750390968
 42
-0.2116426102934758
 10
104819.0261376954
 20
-168584.1023293954
 42
-0.0493907327716598
 10
105016.8966264388
 20
-168584.1023293959
 42
-0.3553196185219317
 10
105092.1435102378
 20
-168658.7668241482
 42
-0.0532858459711956
 10
105092.1435102383
 20
-168914.6648662048
 42
-0.3553196185219603
 10
105016.8966264338
 20
-168989.3293609628
 42
-0.0246803239833781
 10
104917.9613820621
 20
-168994.215845179
 10
104586.9613820624
 20
-168994.215845179
 42
-0.0102051138226746
 10
104545.990447404
 20
-168993.3795319785
 42
-0.3732663043294016
 10
104461.0756933053
 20
-168913.425433616
 42
-0.0505318845729019
 10
104461.0756933055
 20
-168711.0062567402
 42
-0.3732663043294413
 10
104545.990447401
 20
-168631.0521583795
 42
-0.0102051138226744
 10
104586.9613820624
 20
-168630.215845179
 10
104734.9141367224
 20
-168630.2158451789
 42
0.2375638271099136
  0
LINE
  5
D7B93
330
1F
100
AcDbEntity
  8
虚线
 48
5.0
100
AcDbLine
 10
105077.9613820747
 20
-168786.7158451791
 30
0.0
 11
104780.4613820648
 21
-168786.7158451791
 31
0.0
  0
LINE
  5
D7B94
330
1F
100
AcDbEntity
  8
虚线
 48
5.0
100
AcDbLine
 10
104774.4613820648
 20
-168786.7158451791
 30
0.0
 11
104476.9613820548
 21
-168786.7158451791
 31
0.0
  0
LINE
  5
D7B95
330
1F
100
AcDbEntity
  8
虚线
 48
5.0
100
AcDbLine
 10
104777.4613820648
 20
-168973.2158451891
 30
0.0
 11
104777.4613820648
 21
-168789.7158451791
 31
0.0
  0
LINE
  5
D7B96
330
1F
100
AcDbEntity
  8
虚线
 48
5.0
100
AcDbLine
 10
104777.4613820648
 20
-168783.7158451791
 30
0.0
 11
104777.4613820648
 21
-168621.0787496807
 31
0.0
  0
CIRCLE
  5
D7B97
102
{ACAD_REACTORS
330
D7B9A
102
}
330
1F
100
AcDbEntity
  8
粗实线
 62
     7
100
AcDbCircle
 10
104777.4613820648
 20
-168786.7158451791
 30
0.0
 40
3.0
  0
DIMENSION
  5
D7B98
102
{ACAD_XDICTIONARY
360
D7B99
102
}
102
{ACAD_REACTORS
330
D7B9A
102
}
330
1F
100
AcDbEntity
  8
标注
 48
5.0
100
AcDbDimension
  2
*D31
 10
104775.1573286345
 20
-168784.7945597265
 30
0.0
 11
104830.7685676426
 21
-168831.1672102491
 31
0.0
 70
    35
  1
{\fGulim|b0|i0|c129|p34;5-<>}
 71
     5
 42
6.0
  3
副本Standard
100
AcDbDiametricDimension
 15
104779.765435495
 25
-168788.6371306317
 35
0.0
 40
0.0
1001
ACAD
1000
DSTYLE
1002
{
1070
   288
1070
     1
1002
}
1001
ACAD_DSTYLE_DIMRADIAL_EXTENSION
1070
   387
1070
     1
1070
   388
1040
0.0
1070
   390
1040
0.0
  0
CIRCLE
  5
D7B9B
102
{ACAD_REACTORS
330
D7B9A
330
D7BCD
102
}
330
1F
100
AcDbEntity
  8
粗实线
 62
     7
100
AcDbCircle
 10
104777.4613820647
 20
-168976.2158451891
 30
0.0
 40
3.0
  0
CIRCLE
  5
D7B9C
102
{ACAD_REACTORS
330
D7B9A
330
D7BC6
102
}
330
1F
100
AcDbEntity
  8
粗实线
 62
     7
100
AcDbCircle
 10
105080.9613820747
 20
-168786.7158451792
 30
0.0
 40
3.0
  0
CIRCLE
  5
D7B9D
102
{ACAD_REACTORS
330
D7B9A
330
D7BD1
102
}
330
1F
100
AcDbEntity
  8
粗实线
 62
     7
100
AcDbCircle
 10
104777.4613820647
 20
-168618.0787496807
 30
0.0
 40
3.0
  0
CIRCLE
  5
D7B9E
102
{ACAD_REACTORS
330
D7B9A
330
D7BC6
102
}
330
1F
100
AcDbEntity
  8
粗实线
 62
     7
100
AcDbCircle
 10
104473.9613820548
 20
-168786.7158451792
 30
0.0
 40
3.0
  0
DIMENSION
  5
D7B9F
102
{ACAD_XDICTIONARY
360
D7BA0
102
}
102
{ACAD_REACTORS
330
D7BA1
102
}
330
1F
100
AcDbEntity
  8
标注
 48
5.0
100
AcDbDimension
  2
*D32
 10
104417.7169528413
 20
-168634.215845179
 30
0.0
 11
104417.7169528413
 21
-168812.215845179
 31
0.0
 70
    32
 71
     5
 42
356.0000000000292
  3
副本Standard
100
AcDbAlignedDimension
 13
104586.9613820612
 23
-168990.215845179
 33
0.0
 14
104586.9613820624
 24
-168634.215845179
 34
0.0
 50
90.0
100
AcDbRotatedDimension
  0
DIMENSION
  5
D7BA2
102
{ACAD_XDICTIONARY
360
D7BA3
102
}
102
{ACAD_REACTORS
330
D7BA4
102
}
330
1F
100
AcDbEntity
  8
标注
 48
5.0
100
AcDbDimension
  2
*D33
 10
104371.8543675962
 20
-168630.215845179
 30
0.0
 11
104371.8543675962
 21
-168812.215845179
 31
0.0
 70
    32
 71
     5
 42
364.0000000000292
  3
副本Standard
100
AcDbAlignedDimension
 13
104586.9613820624
 23
-168994.215845179
 33
0.0
 14
104586.9613820619
 24
-168630.215845179
 34
0.0
 50
90.0
100
AcDbRotatedDimension
  0
DIMENSION
  5
D7BA5
102
{ACAD_XDICTIONARY
360
D7BA6
102
}
102
{ACAD_REACTORS
330
D7BA7
102
}
330
1F
100
AcDbEntity
  8
标注
 48
5.0
100
AcDbDimension
  2
*D34
 10
105178.691919655
 20
-168583.2158451791
 30
0.0
 11
105178.6919196551
 21
-168785.3320481174
 31
0.0
 70
   160
 71
     5
 42
406.9999999998543
  3
副本Standard
100
AcDbAlignedDimension
 13
104917.9613820621
 23
-168990.215845179
 33
0.0
 14
104917.9613820604
 24
-168583.2158451791
 34
0.0
 50
90.0
100
AcDbRotatedDimension
  0
DIMENSION
  5
D7BA8
102
{ACAD_XDICTIONARY
360
D7BA9
102
}
102
{ACAD_REACTORS
330
D7BAA
102
}
330
1F
100
AcDbEntity
  8
标注
 48
5.0
100
AcDbDimension
  2
*D35
 10
105219.970691881
 20
-168579.2158451792
 30
0.0
 11
105219.9706918811
 21
-168789.261204137
 31
0.0
 70
   160
 71
     5
 42
414.9999999998254
  3
副本Standard
100
AcDbAlignedDimension
 13
104917.9613820621
 23
-168994.215845179
 33
0.0
 14
104917.9613820671
 24
-168579.2158451792
 34
0.0
 50
90.0
100
AcDbRotatedDimension
  0
DIMENSION
  5
D7BAB
330
1F
100
AcDbEntity
  8
标注
 48
5.0
100
AcDbDimension
  2
*D28
 10
105145.9029193792
 20
-168579.2158451792
 30
0.0
 11
105145.9029193792
 21
-168540.104734068
 31
0.0
 70
    32
 71
     5
 42
3.999999999970896
  3
副本Standard
100
AcDbAlignedDimension
 13
105145.9029193792
 23
-168583.2158451791
 33
0.0
 14
105145.9029193792
 24
-168579.2158451792
 34
0.0
 50
90.0
100
AcDbRotatedDimension
  0
DIMENSION
  5
D7BAC
102
{ACAD_XDICTIONARY
360
D7BAD
102
}
102
{ACAD_REACTORS
330
D7BAE
102
}
330
1F
100
AcDbEntity
  8
标注
 48
5.0
100
AcDbDimension
  2
*D36
 10
104459.9613820648
 20
-169072.495637386
 30
0.0
 11
104777.2992901214
 21
-169072.495637386
 31
0.0
 70
   160
 71
     5
 42
634.9999999999272
  3
副本Standard
100
AcDbAlignedDimension
 13
105094.9613820647
 23
-168786.7158451766
 33
0.0
 14
104459.9613820648
 24
-168812.2158451782
 34
0.0
 50
180.0
100
AcDbRotatedDimension
  0
DIMENSION
  5
D7BAF
102
{ACAD_XDICTIONARY
360
D7BB0
102
}
102
{ACAD_REACTORS
330
D7BB1
102
}
330
1F
100
AcDbEntity
  8
标注
 48
5.0
100
AcDbDimension
  2
*D37
 10
104455.9613820648
 20
-169110.5893194944
 30
0.0
 11
104775.5977391779
 21
-169110.5893194944
 31
0.0
 70
   160
 71
     5
 42
642.9999999999272
  3
副本Standard
100
AcDbAlignedDimension
 13
105098.9613820648
 23
-168786.7158451765
 33
0.0
 14
104455.9613820648
 24
-168812.2158451782
 34
0.0
 50
180.0
100
AcDbRotatedDimension
  0
DIMENSION
  5
D7BB2
102
{ACAD_XDICTIONARY
360
D7BB3
102
}
102
{ACAD_REACTORS
330
D7BB4
102
}
330
1F
100
AcDbEntity
  8
标注
 48
5.0
100
AcDbDimension
  2
*D38
 10
105008.6191757119
 20
-168905.7381903163
 30
0.0
 11
105025.4224551128
 21
-168926.6589355063
 31
0.0
 70
   164
 71
     5
 42
80.00000000288128
  3
副本Standard
100
AcDbRadialDimension
 15
105058.7159093259
 25
-168968.1105983319
 35
0.0
 40
0.0
1001
ACAD
1000
DSTYLE
1002
{
1070
   288
1070
     1
1002
}
1001
ACAD_DSTYLE_DIMRADIAL_EXTENSION
1070
   387
1070
     1
1070
   388
1040
4.811090239293528
1070
   390
1040
6.176714309609093
  0
DIMENSION
  5
D7BB5
102
{ACAD_XDICTIONARY
360
D7BB6
102
}
102
{ACAD_REACTORS
330
D7BB7
102
}
330
1F
100
AcDbEntity
  8
标注
 48
5.0
100
AcDbDimension
  2
*D39
 10
105008.6191757174
 20
-168667.6935000363
 30
0.0
 11
105027.9470341093
 21
-168649.0800192335
 31
0.0
 70
   164
 71
     5
 42
79.9999999969732
  3
副本Standard
100
AcDbRadialDimension
 15
105066.2426044677
 25
-168612.1998926697
 35
0.0
 40
0.0
1001
ACAD
1000
DSTYLE
1002
{
1070
   288
1070
     1
1002
}
1001
ACAD_DSTYLE_DIMRADIAL_EXTENSION
1070
   387
1070
     1
1070
   388
1040
0.1064709975708205
1070
   390
1040
1.472095067886274
  0
DIMENSION
  5
D7BB8
102
{ACAD_XDICTIONARY
360
D7BB9
102
}
102
{ACAD_REACTORS
330
D7BBA
102
}
330
1F
100
AcDbEntity
  8
标注
 48
5.0
100
AcDbDimension
  2
*D40
 10
104827.3035884173
 20
-168667.6935000418
 30
0.0
 11
104817.8304616779
 21
-168642.5879698201
 31
0.0
 70
   164
 71
     5
 42
80.00000000293949
  3
副本Standard
100
AcDbRadialDimension
 15
104799.0607260908
 25
-168592.844714293
 35
0.0
 40
0.0
1001
ACAD
1000
DSTYLE
1002
{
1070
   288
1070
     1
1002
}
1001
ACAD_DSTYLE_DIMRADIAL_EXTENSION
1070
   387
1070
     1
1070
   388
1040
1.669497585704494
1070
   390
1040
2.503757202295709
  0
DIMENSION
  5
D7BBB
102
{ACAD_XDICTIONARY
360
D7BBC
102
}
102
{ACAD_REACTORS
330
D7BBD
102
}
330
1F
100
AcDbEntity
  8
标注
 48
5.0
100
AcDbDimension
  2
*D41
 10
104734.9141367225
 20
-168599.2158451789
 30
0.0
 11
104726.5504805227
 21
-168583.2769225372
 31
0.0
 70
   164
 71
     5
 42
34.99999999976717
  3
副本Standard
100
AcDbRadialDimension
 15
104751.1768015549
 25
-168630.2081947596
 35
0.0
 40
0.0
1001
ACAD
1000
DSTYLE
1002
{
1070
   288
1070
     1
1002
}
1001
ACAD_DSTYLE_DIMRADIAL_EXTENSION
1070
   387
1070
     1
1070
   388
1040
4.712388980384273
1070
   390
1040
5.645349855884083
  0
DIMENSION
  5
D7BBE
102
{ACAD_XDICTIONARY
360
D7BBF
102
}
102
{ACAD_REACTORS
330
D7BC0
102
}
330
1F
100
AcDbEntity
  8
标注
 48
5.0
100
AcDbDimension
  2
*D42
 10
104549.6223330447
 20
-168719.9780230443
 30
0.0
 11
104534.6156955258
 21
-168691.7149582731
 31
0.0
 70
   164
 71
     5
 42
84.99999999825377
  3
副本Standard
100
AcDbRadialDimension
 15
104509.7609521338
 25
-168644.9042572431
 35
0.0
 40
0.0
1001
ACAD
1000
DSTYLE
1002
{
1070
   288
1070
     1
1002
}
1001
ACAD_DSTYLE_DIMRADIAL_EXTENSION
1070
   387
1070
     1
1070
   388
1040
1.6116153651178
1070
   390
1040
3.040614774055618
  0
DIMENSION
  5
D7BC1
102
{ACAD_XDICTIONARY
360
D7BC2
102
}
102
{ACAD_REACTORS
330
D7BC3
102
}
330
1F
100
AcDbEntity
  8
标注
 48
5.0
100
AcDbDimension
  2
*D43
 10
104549.622333047
 20
-168904.4536673112
 30
0.0
 11
104530.7314315356
 21
-168930.2826014775
 31
0.0
 70
   164
 71
     5
 42
85.00000000123691
  3
副本Standard
100
AcDbRadialDimension
 15
104499.4433759086
 25
-168973.0617736887
 35
0.0
 40
0.0
1001
ACAD
1000
DSTYLE
1002
{
1070
   288
1070
     1
1002
}
1001
ACAD_DSTYLE_DIMRADIAL_EXTENSION
1070
   387
1070
     1
1070
   388
1040
3.242570533130859
1070
   390
1040
4.671569942069186
  0
DIMENSION
  5
D7BC4
102
{ACAD_XDICTIONARY
360
D7BC5
102
}
102
{ACAD_REACTORS
330
D7BC6
102
}
330
1F
100
AcDbEntity
  8
标注
 48
5.0
100
AcDbDimension
  2
*D44
 10
104473.9613820548
 20
-168716.3132695351
 30
0.0
 11
104914.1306185864
 21
-168716.3132695351
 31
0.0
 70
   160
 71
     5
 42
607.0000000199216
  3
副本Standard
100
AcDbAlignedDimension
 13
105080.9613820747
 23
-168786.7158451792
 33
0.0
 14
104473.9613820548
 24
-168786.7158451792
 34
0.0
 50
180.0
100
AcDbRotatedDimension
  0
DIMENSION
  5
D7BC7
330
1F
100
AcDbEntity
  8
标注
 48
5.0
100
AcDbDimension
  2
*D29
 10
104777.4613820648
 20
-168753.3542137623
 30
0.0
 11
104929.2113820697
 21
-168753.3542137623
 31
0.0
 70
    32
 71
     5
 42
303.5000000098953
  3
副本Standard
100
AcDbAlignedDimension
 13
105080.9613820747
 23
-168786.7158451792
 33
0.0
 14
104777.4613820648
 24
-168786.7158451791
 34
0.0
 50
180.0
100
AcDbRotatedDimension
  0
DIMENSION
  5
D7BC8
102
{ACAD_XDICTIONARY
360
D7BC9
102
}
102
{ACAD_REACTORS
330
D7BCA
102
}
330
1F
100
AcDbEntity
  8
标注
 48
5.0
100
AcDbDimension
  2
*D45
 10
105098.3494964723
 20
-168714.9739310306
 30
0.0
 11
105157.6828298056
 21
-168714.9739310306
 31
0.0
 70
    32
 71
     5
 42
17.38811439763231
  3
副本Standard
100
AcDbAlignedDimension
 13
105080.9613820747
 23
-168786.7158451792
 33
0.0
 14
105098.3494964723
 24
-168748.3355624475
 34
0.0
 50
180.0
100
AcDbRotatedDimension
  0
DIMENSION
  5
D7BCB
102
{ACAD_XDICTIONARY
360
D7BCC
102
}
102
{ACAD_REACTORS
330
D7BCD
102
}
330
1F
100
AcDbEntity
  8
标注
 48
5.0
100
AcDbDimension
  2
*D46
 10
104747.7142981577
 20
-168994.215845179
 30
0.0
 11
104747.7142981578
 21
-169038.9936229568
 31
0.0
 70
    32
 71
     5
 42
17.99999998993007
  3
副本Standard
100
AcDbAlignedDimension
 13
104777.4613820647
 23
-168976.2158451891
 33
0.0
 14
104777.4613820647
 24
-168994.215845179
 34
0.0
 50
90.0
100
AcDbRotatedDimension
  0
DIMENSION
  5
D7BCE
330
1F
100
AcDbEntity
  8
标注
 48
5.0
100
AcDbDimension
  2
*D30
 10
104713.7501532936
 20
-168786.7158451791
 30
0.0
 11
104713.7501532936
 21
-168881.465845184
 31
0.0
 70
    32
 71
     5
 42
189.5000000100408
  3
副本Standard
100
AcDbAlignedDimension
 13
104777.4613820647
 23
-168976.2158451891
 33
0.0
 14
104777.4613820648
 24
-168786.7158451791
 34
0.0
 50
90.0
100
AcDbRotatedDimension
  0
DIMENSION
  5
D7BCF
102
{ACAD_XDICTIONARY
360
D7BD0
102
}
102
{ACAD_REACTORS
330
D7BD1
102
}
330
1F
100
AcDbEntity
  8
标注
 48
5.0
100
AcDbDimension
  2
*D47
 10
104662.3362519627
 20
-168618.0787496807
 30
0.0
 11
104662.3362519627
 21
-168873.0349149633
 31
0.0
 70
   160
 71
     5
 42
358.1370955083985
  3
副本Standard
100
AcDbAlignedDimension
 13
104777.4613820647
 23
-168976.2158451891
 33
0.0
 14
104777.4613820647
 24
-168618.0787496807
 34
0.0
 50
90.0
100
AcDbRotatedDimension
  0
DIMENSION
  5
D7E26
102
{ACAD_XDICTIONARY
360
D7E2F
102
}
102
{ACAD_REACTORS
330
D7E35
102
}
330
1F
100
AcDbEntity
  8
标注
 48
5.0
100
AcDbDimension
  2
*D48
 10
104917.9613820647
 20
-169583.2158452032
 30
0.0
 11
104927.6527819682
 21
-168650.6550904099
 31
0.0
 70
   164
 71
     5
 42
1000.00000002404
  3
副本Standard
100
AcDbRadialDimension
 15
104928.3530660024
 25
-168583.2698401844
 35
0.0
 40
0.0
1001
ACAD
1000
DSTYLE
1002
{
1070
   288
1070
     1
1002
}
1001
ACAD_DSTYLE_DIMRADIAL_EXTENSION
1070
   387
1070
     1
1070
   388
1040
1.472095067853241
1070
   390
1040
1.669497585731827
  0
DIMENSION
  5
D7E36
102
{ACAD_XDICTIONARY
360
D7E3F
102
}
102
{ACAD_REACTORS
330
D7E45
102
}
330
1F
100
AcDbEntity
  8
标注
 48
5.0
100
AcDbDimension
  2
*D49
 10
103894.9613820868
 20
-168786.7158451788
 30
0.0
 11
105027.3804468358
 21
-168807.5722771689
 31
0.0
 70
   164
 71
     5
 42
1199.999999977939
  3
副本Standard
100
AcDbRadialDimension
 15
105094.7579092171
 25
-168808.8132077621
 35
0.0
 40
0.0
1001
ACAD
1000
DSTYLE
1002
{
1070
   288
1070
     1
1002
}
1001
ACAD_DSTYLE_DIMRADIAL_EXTENSION
1070
   387
1070
     1
1070
   388
1040
6.176714309641552
1070
   390
1040
0.1064709975421315
  0
DIMENSION
  5
D7E46
102
{ACAD_XDICTIONARY
360
D7E4F
102
}
102
{ACAD_REACTORS
330
D7E55
102
}
330
1F
100
AcDbEntity
  8
标注
 48
5.0
100
AcDbDimension
  2
*D50
 10
104917.9613820632
 20
-167990.2158451307
 30
0.0
 11
104972.7958764625
 21
-168921.2135158484
 31
0.0
 70
   164
 71
     5
 42
1000.000000048254
  3
副本Standard
100
AcDbRadialDimension
 15
104976.7581235408
 25
-168988.4858202818
 35
0.0
 40
0.0
1001
ACAD
1000
DSTYLE
1002
{
1070
   288
1070
     1
1002
}
1001
ACAD_DSTYLE_DIMRADIAL_EXTENSION
1070
   387
1070
     1
1070
   388
1040
4.712388980383597
1070
   390
1040
4.811090239320526
  0
DIMENSION
  5
D7E56
102
{ACAD_XDICTIONARY
360
D7E5F
102
}
102
{ACAD_REACTORS
330
D7E65
102
}
330
1F
100
AcDbEntity
  8
标注
 48
5.0
100
AcDbDimension
  2
*D51
 10
105459.9613820731
 20
-168812.215845179
 30
0.0
 11
104527.3521931175
 21
-168810.322367196
 31
0.0
 70
   164
 71
     5
 42
1000.000000008222
  3
副本Standard
100
AcDbRadialDimension
 15
104459.9634431209
 25
-168810.1855477052
 35
0.0
 40
0.0
1001
ACAD
1000
DSTYLE
1002
{
1070
   288
1070
     1
1002
}
1001
ACAD_DSTYLE_DIMRADIAL_EXTENSION
1070
   387
1070
     1
1070
   388
1040
3.040614774038135
1070
   390
1040
3.242570533139723
  0
ENDSEC
  0
SECTION
  2
OBJECTS
  0
DICTIONARY
  5
C
330
0
100
AcDbDictionary
281
     1
  3
ACAD_2007HEADERVARS_RT
350
D7F0E
  3
ACAD_COLOR
350
6C
  3
ACAD_GROUP
350
D
  3
ACAD_LAYOUT
350
1A
  3
ACAD_MATERIAL
350
6B
  3
ACAD_MLEADERSTYLE
350
CEDBA
  3
ACAD_MLINESTYLE
350
17
  3
ACAD_PLOTSETTINGS
350
19
  3
ACAD_PLOTSTYLENAME
350
E
  3
ACAD_SCALELIST
350
CED98
  3
ACAD_TABLESTYLE
350
FAF
  3
ACAD_VISUALSTYLE
350
CED87
  3
AcadDim
350
100FD
  3
ACDB_RECOMPOSE_DATA
350
D0C4C
  3
AcDbVariableDictionary
350
59
  3
ASE_INDEX_DICTIONARY
350
C2668
  3
DWGPROPS
350
D7F0D
  3
lxx_dict
350
A9D16
  0
DICTIONARY
  5
AB
330
2
100
AcDbDictionary
280
     1
281
     1
  3
ACAD_LAYERFILTERS
360
D5CEC
  3
ACAD_LAYERSTATES
360
AC
  3
ACLYDICTIONARY
360
D5CEB
  0
DICTIONARY
  5
CF251
330
10
100
AcDbDictionary
280
     1
281
     1
  3
ADSK_XREC_LAYER_RECONCILED
360
CF252
  0
DICTIONARY
  5
CF259
330
9D
100
AcDbDictionary
280
     1
281
     1
  3
ADSK_XREC_LAYER_RECONCILED
360
CF25A
  0
DICTIONARY
  5
CF25D
330
16DF9
100
AcDbDictionary
280
     1
281
     1
  3
ADSK_XREC_LAYER_RECONCILED
360
CF25E
  0
DICTIONARY
  5
118B
330
1F
100
AcDbDictionary
280
     1
281
     1
  3
ACAD_SORTENTS
360
118C
  0
DICTIONARY
  5
D7F1F
330
D7D2B
100
AcDbDictionary
280
     1
281
     1
  3
ACAD_MTEXT_RT
360
D7F20
  0
DICTIONARY
  5
D7B99
330
D7B98
100
AcDbDictionary
280
     1
281
     1
  3
ACAD_DIMASSOC
360
D7B9A
  0
DICTIONARY
  5
D7BA0
330
D7B9F
100
AcDbDictionary
280
     1
281
     1
  3
ACAD_DIMASSOC
360
D7BA1
  0
DICTIONARY
  5
D7BA3
330
D7BA2
100
AcDbDictionary
280
     1
281
     1
  3
ACAD_DIMASSOC
360
D7BA4
  0
DICTIONARY
  5
D7BA6
330
D7BA5
100
AcDbDictionary
280
     1
281
     1
  3
ACAD_DIMASSOC
360
D7BA7
  0
DICTIONARY
  5
D7BA9
330
D7BA8
100
AcDbDictionary
280
     1
281
     1
  3
ACAD_DIMASSOC
360
D7BAA
  0
DICTIONARY
  5
D7BAD
330
D7BAC
100
AcDbDictionary
280
     1
281
     1
  3
ACAD_DIMASSOC
360
D7BAE
  0
DICTIONARY
  5
D7BB0
330
D7BAF
100
AcDbDictionary
280
     1
281
     1
  3
ACAD_DIMASSOC
360
D7BB1
  0
DICTIONARY
  5
D7BB3
330
D7BB2
100
AcDbDictionary
280
     1
281
     1
  3
ACAD_DIMASSOC
360
D7BB4
  0
DICTIONARY
  5
D7BB6
330
D7BB5
100
AcDbDictionary
280
     1
281
     1
  3
ACAD_DIMASSOC
360
D7BB7
  0
DICTIONARY
  5
D7BB9
330
D7BB8
100
AcDbDictionary
280
     1
281
     1
  3
ACAD_DIMASSOC
360
D7BBA
  0
DICTIONARY
  5
D7BBC
330
D7BBB
100
AcDbDictionary
280
     1
281
     1
  3
ACAD_DIMASSOC
360
D7BBD
  0
DICTIONARY
  5
D7BBF
330
D7BBE
100
AcDbDictionary
280
     1
281
     1
  3
ACAD_DIMASSOC
360
D7BC0
  0
DICTIONARY
  5
D7BC2
330
D7BC1
100
AcDbDictionary
280
     1
281
     1
  3
ACAD_DIMASSOC
360
D7BC3
  0
DICTIONARY
  5
D7BC5
330
D7BC4
100
AcDbDictionary
280
     1
281
     1
  3
ACAD_DIMASSOC
360
D7BC6
  0
DICTIONARY
  5
D7BC9
330
D7BC8
100
AcDbDictionary
280
     1
281
     1
  3
ACAD_DIMASSOC
360
D7BCA
  0
DICTIONARY
  5
D7BCC
330
D7BCB
100
AcDbDictionary
280
     1
281
     1
  3
ACAD_DIMASSOC
360
D7BCD
  0
DICTIONARY
  5
D7BD0
330
D7BCF
100
AcDbDictionary
280
     1
281
     1
  3
ACAD_DIMASSOC
360
D7BD1
  0
DICTIONARY
  5
D7E2F
330
D7E26
100
AcDbDictionary
280
     1
281
     1
  3
ACAD_DIMASSOC
360
D7E35
  0
DICTIONARY
  5
D7E3F
330
D7E36
100
AcDbDictionary
280
     1
281
     1
  3
ACAD_DIMASSOC
360
D7E45
  0
DICTIONARY
  5
D7E4F
330
D7E46
100
AcDbDictionary
280
     1
281
     1
  3
ACAD_DIMASSOC
360
D7E55
  0
DICTIONARY
  5
D7E5F
330
D7E56
100
AcDbDictionary
280
     1
281
     1
  3
ACAD_DIMASSOC
360
D7E65
  0
DICTIONARY
  5
D7F0E
102
{ACAD_REACTORS
330
C
102
}
330
C
100
AcDbDictionary
281
     1
  3
DIMARCSYM
350
D7F11
  3
DIMFXL
350
D7F10
  3
DIMFXLON
350
D7F0F
  3
DIMJOGANG
350
D7F12
  3
DIMLTEX1
350
D7F14
  3
DIMLTEX2
350
D7F15
  3
DIMLTYPE
350
D7F13
  0
DICTIONARY
  5
6C
102
{ACAD_REACTORS
330
C
102
}
330
C
100
AcDbDictionary
281
     1
  0
DICTIONARY
  5
D
102
{ACAD_REACTORS
330
C
102
}
330
C
100
AcDbDictionary
281
     1
  0
DICTIONARY
  5
1A
102
{ACAD_REACTORS
330
C
102
}
330
C
100
AcDbDictionary
281
     1
  3
Model
350
22
  3
布局1
350
74
  3
布局2
350
79
  0
DICTIONARY
  5
6B
102
{ACAD_REACTORS
330
C
102
}
330
C
100
AcDbDictionary
281
     1
  3
ByBlock
350
CED77
  3
ByLayer
350
CED6F
  3
Global
350
CED7F
  0
DICTIONARY
  5
CEDBA
102
{ACAD_REACTORS
330
C
102
}
330
C
100
AcDbDictionary
281
     1
  3
Standard
350
CEDBB
  0
DICTIONARY
  5
17
102
{ACAD_REACTORS
330
C
102
}
330
C
100
AcDbDictionary
281
     1
  3
Standard
350
18
  0
DICTIONARY
  5
19
102
{ACAD_REACTORS
330
C
102
}
330
C
100
AcDbDictionary
281
     1
  0
ACDBDICTIONARYWDFLT
  5
E
102
{ACAD_REACTORS
330
C
102
}
330
C
100
AcDbDictionary
281
     1
  3
Normal
350
F
100
AcDbDictionaryWithDefault
340
F
  0
DICTIONARY
  5
CED98
102
{ACAD_REACTORS
330
C
102
}
330
C
100
AcDbDictionary
281
     1
  3
A0
350
CED99
  3
A1
350
CED9A
  3
A2
350
CED9B
  3
A3
350
CED9C
  3
A4
350
CED9D
  3
A5
350
CED9E
  3
A6
350
CED9F
  3
A7
350
CEDA0
  3
A8
350
CEDA1
  3
A9
350
CEDA2
  3
B0
350
CEDA3
  3
B1
350
CEDA4
  3
B2
350
CEDA5
  3
B3
350
CEDA6
  3
B4
350
CEDA7
  3
B5
350
CEDA8
  3
B6
350
CEDA9
  3
B7
350
CEDAA
  3
B8
350
CEDAB
  3
B9
350
CEDAC
  3
C0
350
CEDAD
  3
C1
350
CEDAE
  3
C2
350
CEDAF
  3
C3
350
CEDB0
  3
C4
350
CEDB1
  3
C5
350
CEDB2
  3
C6
350
CEDB3
  3
C7
350
CEDB4
  3
C8
350
CEDB5
  3
C9
350
CEDB6
  3
D0
350
CEDB7
  3
D1
350
CEDB8
  3
D2
350
CEDB9
  0
DICTIONARY
  5
FAF
102
{ACAD_REACTORS
330
C
102
}
330
C
100
AcDbDictionary
281
     1
  3
Standard
350
FB0
  0
DICTIONARY
  5
CED87
102
{ACAD_REACTORS
330
C
102
}
330
C
100
AcDbDictionary
281
     1
  3
2dWireframe
350
CED8D
  3
3D Hidden
350
CED8F
  3
3dWireframe
350
CED8E
  3
Basic
350
CED8C
  3
Brighten
350
CED93
  3
ColorChange
350
CED97
  3
Conceptual
350
CED90
  3
Dim
350
CED92
  3
Facepattern
350
CED96
  3
Flat
350
CED88
  3
FlatWithEdges
350
CED89
  3
Gouraud
350
CED8A
  3
GouraudWithEdges
350
CED8B
  3
Linepattern
350
CED95
  3
Realistic
350
CED91
  3
Thicken
350
CED94
  0
XRECORD
  5
100FD
102
{ACAD_REACTORS
330
C
102
}
330
C
100
AcDbXrecord
280
     1
 90
   990106
  3

 60
     0
 61
     0
 62
     1
 63
     3
 64
     0
 65
     0
 66
     0
 67
     3
 68
     1
 69
     0
 70
     0
 71
     0
 72
     0
 40
0.0
170
     0
  0
XRECORD
  5
D0C4C
102
{ACAD_REACTORS
330
C
102
}
330
C
100
AcDbXrecord
280
     1
 90
        1
330
FB0
  0
DICTIONARY
  5
59
102
{ACAD_REACTORS
330
C
102
}
330
C
100
AcDbDictionary
281
     1
  3
CANNOSCALE
350
D0C4F
  3
CMLEADERSTYLE
350
D0C4D
  3
CTABLESTYLE
350
100D
  3
DIMASSOC
350
5A
  3
HIDETEXT
350
5E
  3
INDEXCTL
350
D7EDF
  3
LIGHTINGUNITS
350
D0C50
  3
MSLTSCALE
350
D0C4E
  3
SORTENTS
350
D7EDE
  0
DICTIONARY
  5
C2668
102
{ACAD_REACTORS
330
C
102
}
330
C
100
AcDbDictionary
281
     1
  3
ASEBlockHierarchyIndexRecord
350
C2669
1001
DCO15
1040
1779131318.625
  0
XRECORD
  5
D7F0D
102
{ACAD_REACTORS
330
C
102
}
330
C
100
AcDbXrecord
280
     1
  1
DWGPROPS COOKIE
  2

  3

  4

  6

  7

  8
Administrator
  9

300
=
301
=
302
=
303
=
304
=
305
=
306
=
307
=
308
=
309
=
 40
8.845002777777777
 41
2454355.343801713
 42
2457938.593187732
  1

 90
        0
  0
DICTIONARY
  5
A9D16
102
{ACAD_REACTORS
330
C
102
}
330
C
100
AcDbDictionary
281
     1
  3
lxx_dimth
350
A9D17
  0
DICTIONARY
  5
D5CEC
102
{ACAD_REACTORS
330
AB
102
}
330
AB
100
AcDbDictionary
281
     1
  0
DICTIONARY
  5
AC
102
{ACAD_REACTORS
330
AB
102
}
330
AB
100
AcDbDictionary
281
     1
  0
DICTIONARY
  5
D5CEB
102
{ACAD_REACTORS
330
AB
102
}
330
AB
100
AcDbDictionary
281
     1
1001
ACAD
1000
<All
  0
XRECORD
  5
CF252
102
{ACAD_REACTORS
330
CF251
102
}
330
CF251
100
AcDbXrecord
280
     1
290
     1
  0
XRECORD
  5
CF25A
102
{ACAD_REACTORS
330
CF259
102
}
330
CF259
100
AcDbXrecord
280
     1
290
     1
  0
XRECORD
  5
CF25E
102
{ACAD_REACTORS
330
CF25D
102
}
330
CF25D
100
AcDbXrecord
280
     1
290
     1
  0
SORTENTSTABLE
  5
118C
102
{ACAD_REACTORS
330
118B
102
}
330
118B
100
AcDbSortentsTable
330
1F
  0
XRECORD
  5
D7F20
102
{ACAD_REACTORS
330
D7F1F
102
}
330
D7F1F
100
AcDbXrecord
280
     1
 40
57865.0
  1
\A1;{\fGulim|b0|i0|c129|p34;5-\U+22056}
  0
DIMASSOC
  5
D7B9A
102
{ACAD_REACTORS
330
D7B99
102
}
330
D7B99
100
AcDbDimAssoc
330
D7B98
 90
        2
 70
     0
 71
     0
  1
AcDbOsnapPointRef
 72
     3
331
D7B97
 73
     2
 91
        0
 40
0.0
 10
0.0
 20
0.0
 30
0.0
 75
     0
  0
DIMASSOC
  5
D7BA1
102
{ACAD_REACTORS
330
D7BA0
102
}
330
D7BA0
100
AcDbDimAssoc
330
D7B9F
 90
        2
 70
     0
 71
     0
  1
AcDbOsnapPointRef
 72
     6
331
D7B91
 73
     2
 91
       13
 40
0.0
 10
0.0
 20
0.0
 30
0.0
332
D7B91
 74
     2
 92
       12
 75
     0
  0
DIMASSOC
  5
D7BA4
102
{ACAD_REACTORS
330
D7BA3
102
}
330
D7BA3
100
AcDbDimAssoc
330
D7BA2
 90
        3
 70
     0
 71
     0
  1
AcDbOsnapPointRef
 72
     1
331
D7B92
 73
     2
 91
        7
 40
1.0
 10
0.0
 20
0.0
 30
2.000000000000000E+50
 75
     0
  1
AcDbOsnapPointRef
 72
     8
331
D7B92
 73
     2
 91
       12
 40
1.570796326794693
 10
0.0
 20
0.0
 30
0.0
 75
     1
  1
AcDbOsnapPointRef
 72
     1
331
D7B92
 73
     2
 91
        7
 40
1.0
 10
0.0
 20
0.0
 30
2.000000000000000E+50
 75
     0
  0
DIMASSOC
  5
D7BA7
102
{ACAD_REACTORS
330
D7BA6
102
}
330
D7BA6
100
AcDbDimAssoc
330
D7BA5
 90
        3
 70
     0
 71
     0
  1
AcDbOsnapPointRef
 72
     1
331
D7B91
 73
     2
 91
        6
 40
4.712388980385767
 10
0.0
 20
0.0
 30
2.000000000000000E+50
 75
     0
  1
AcDbOsnapPointRef
 72
     8
331
D7B91
 73
     2
 91
        2
 40
1.570796326790676
 10
0.0
 20
0.0
 30
0.0
 75
     1
  1
AcDbOsnapPointRef
 72
     1
331
D7B91
 73
     2
 91
        6
 40
4.712388980385767
 10
0.0
 20
0.0
 30
2.000000000000000E+50
 75
     0
  0
DIMASSOC
  5
D7BAA
102
{ACAD_REACTORS
330
D7BA9
102
}
330
D7BA9
100
AcDbDimAssoc
330
D7BA8
 90
        3
 70
     0
 71
     0
  1
AcDbOsnapPointRef
 72
     1
331
D7B92
 73
     2
 91
        6
 40
4.712388980385833
 10
0.0
 20
0.0
 30
2.000000000000000E+50
 75
     0
  1
AcDbOsnapPointRef
 72
     2
331
D7B92
 73
     2
 91
        2
 40
1.570796326797388
 10
0.0
 20
0.0
 30
0.0
 75
     0
  0
DIMASSOC
  5
D7BAE
102
{ACAD_REACTORS
330
D7BAD
102
}
330
D7BAD
100
AcDbDimAssoc
330
D7BAC
 90
        3
 70
     0
 71
     0
  1
AcDbOsnapPointRef
 72
     2
331
D7B91
 73
     2
 91
        4
 40
3.141592653587731
 10
0.0
 20
0.0
 30
0.0
 75
     0
  1
AcDbOsnapPointRef
 72
     2
331
D7B91
 73
     2
 91
       10
 40
6.283185307180459
 10
0.0
 20
0.0
 30
0.0
 75
     0
  0
DIMASSOC
  5
D7BB1
102
{ACAD_REACTORS
330
D7BB0
102
}
330
D7BB0
100
AcDbDimAssoc
330
D7BAF
 90
        3
 70
     0
 71
     0
  1
AcDbOsnapPointRef
 72
     2
331
D7B92
 73
     2
 91
        4
 40
3.141592653587689
 10
0.0
 20
0.0
 30
0.0
 75
     0
  1
AcDbOsnapPointRef
 72
     2
331
D7B92
 73
     2
 91
       10
 40
6.283185307180454
 10
0.0
 20
0.0
 30
0.0
 75
     0
  0
DIMASSOC
  5
D7BB4
102
{ACAD_REACTORS
330
D7BB3
102
}
330
D7BB3
100
AcDbDimAssoc
330
D7BB2
 90
        2
 70
     0
 71
     0
  1
AcDbOsnapPointRef
 72
     3
331
D7B91
 73
     2
 91
        5
 40
0.0
 10
0.0
 20
0.0
 30
0.0
 75
     0
  0
DIMASSOC
  5
D7BB7
102
{ACAD_REACTORS
330
D7BB6
102
}
330
D7BB6
100
AcDbDimAssoc
330
D7BB5
 90
        2
 70
     0
 71
     0
  1
AcDbOsnapPointRef
 72
     3
331
D7B91
 73
     2
 91
        3
 40
0.0
 10
0.0
 20
0.0
 30
0.0
 75
     0
  0
DIMASSOC
  5
D7BBA
102
{ACAD_REACTORS
330
D7BB9
102
}
330
D7BB9
100
AcDbDimAssoc
330
D7BB8
 90
        2
 70
     0
 71
     0
  1
AcDbOsnapPointRef
 72
     3
331
D7B91
 73
     2
 91
        1
 40
0.0
 10
0.0
 20
0.0
 30
0.0
 75
     0
  0
DIMASSOC
  5
D7BBD
102
{ACAD_REACTORS
330
D7BBC
102
}
330
D7BBC
100
AcDbDimAssoc
330
D7BBB
 90
        2
 70
     0
 71
     0
  1
AcDbOsnapPointRef
 72
     3
331
D7B91
 73
     2
 91
       14
 40
0.0
 10
0.0
 20
0.0
 30
0.0
 75
     0
  0
DIMASSOC
  5
D7BC0
102
{ACAD_REACTORS
330
D7BBF
102
}
330
D7BBF
100
AcDbDimAssoc
330
D7BBE
 90
        2
 70
     0
 71
     0
  1
AcDbOsnapPointRef
 72
     3
331
D7B91
 73
     2
 91
       11
 40
0.0
 10
0.0
 20
0.0
 30
0.0
 75
     0
  0
DIMASSOC
  5
D7BC3
102
{ACAD_REACTORS
330
D7BC2
102
}
330
D7BC2
100
AcDbDimAssoc
330
D7BC1
 90
        2
 70
     0
 71
     0
  1
AcDbOsnapPointRef
 72
     3
331
D7B91
 73
     2
 91
        9
 40
0.0
 10
0.0
 20
0.0
 30
0.0
 75
     0
  0
DIMASSOC
  5
D7BC6
102
{ACAD_REACTORS
330
D7BC5
102
}
330
D7BC5
100
AcDbDimAssoc
330
D7BC4
 90
        3
 70
     0
 71
     0
  1
AcDbOsnapPointRef
 72
     3
331
D7B9C
 73
     2
 91
        0
 40
0.0
 10
0.0
 20
0.0
 30
0.0
 75
     0
  1
AcDbOsnapPointRef
 72
     3
331
D7B9E
 73
     2
 91
        0
 40
0.0
 10
0.0
 20
0.0
 30
0.0
 75
     0
  0
DIMASSOC
  5
D7BCA
102
{ACAD_REACTORS
330
D7BC9
102
}
330
D7BC9
100
AcDbDimAssoc
330
D7BC8
 90
        2
 70
     0
 71
     0
  1
AcDbOsnapPointRef
 72
     8
331
D7B92
 73
     2
 91
        4
 40
3.141592653589865
 10
0.0
 20
0.0
 30
0.0
 75
     1
  1
AcDbOsnapPointRef
 72
     0
 40
0.0
 10
102595.7276984138
 20
-168828.1529804787
 30
0.0
 75
     0
  0
DIMASSOC
  5
D7BCD
102
{ACAD_REACTORS
330
D7BCC
102
}
330
D7BCC
100
AcDbDimAssoc
330
D7BCB
 90
        3
 70
     0
 71
     0
  1
AcDbOsnapPointRef
 72
     3
331
D7B9B
 73
     2
 91
        0
 40
0.0
 10
0.0
 20
0.0
 30
0.0
 75
     0
  1
AcDbOsnapPointRef
 72
     8
331
D7B92
 73
     2
 91
        7
 40
0.4244712990861407
 10
0.0
 20
0.0
 30
0.0
 75
     1
  1
AcDbOsnapPointRef
 72
     3
331
D7B9B
 73
     2
 91
        0
 40
0.0
 10
0.0
 20
0.0
 30
0.0
 75
     0
  0
DIMASSOC
  5
D7BD1
102
{ACAD_REACTORS
330
D7BD0
102
}
330
D7BD0
100
AcDbDimAssoc
330
D7BCF
 90
        2
 70
     0
 71
     0
  1
AcDbOsnapPointRef
 72
     3
331
D7B9D
 73
     2
 91
        0
 40
0.0
 10
0.0
 20
0.0
 30
0.0
 75
     0
  0
DIMASSOC
  5
D7E35
102
{ACAD_REACTORS
330
D7E2F
102
}
330
D7E2F
100
AcDbDimAssoc
330
D7E26
 90
        2
 70
     0
 71
     0
  1
AcDbOsnapPointRef
 72
     3
331
D7B91
 73
     2
 91
        2
 40
0.0
 10
0.0
 20
0.0
 30
0.0
 75
     0
  0
DIMASSOC
  5
D7E45
102
{ACAD_REACTORS
330
D7E3F
102
}
330
D7E3F
100
AcDbDimAssoc
330
D7E36
 90
        2
 70
     0
 71
     0
  1
AcDbOsnapPointRef
 72
     3
331
D7B91
 73
     2
 91
        4
 40
0.0
 10
0.0
 20
0.0
 30
0.0
 75
     0
  0
DIMASSOC
  5
D7E55
102
{ACAD_REACTORS
330
D7E4F
102
}
330
D7E4F
100
AcDbDimAssoc
330
D7E46
 90
        2
 70
     0
 71
     0
  1
AcDbOsnapPointRef
 72
     3
331
D7B91
 73
     2
 91
        6
 40
0.0
 10
0.0
 20
0.0
 30
0.0
 75
     0
  0
DIMASSOC
  5
D7E65
102
{ACAD_REACTORS
330
D7E5F
102
}
330
D7E5F
100
AcDbDimAssoc
330
D7E56
 90
        2
 70
     0
 71
     0
  1
AcDbOsnapPointRef
 72
     3
331
D7B91
 73
     2
 91
       10
 40
0.0
 10
0.0
 20
0.0
 30
0.0
 75
     0
  0
XRECORD
  5
D7F11
102
{ACAD_REACTORS
330
D7F0E
102
}
330
D7F0E
100
AcDbXrecord
280
     1
 70
     1
  0
XRECORD
  5
D7F10
102
{ACAD_REACTORS
330
D7F0E
102
}
330
D7F0E
100
AcDbXrecord
280
     1
 40
35.0
  0
XRECORD
  5
D7F0F
102
{ACAD_REACTORS
330
D7F0E
102
}
330
D7F0E
100
AcDbXrecord
280
     1
290
     1
  0
XRECORD
  5
D7F12
102
{ACAD_REACTORS
330
D7F0E
102
}
330
D7F0E
100
AcDbXrecord
280
     1
 40
1.570796326794896
  0
XRECORD
  5
D7F14
102
{ACAD_REACTORS
330
D7F0E
102
}
330
D7F0E
100
AcDbXrecord
280
     1
340
14
  0
XRECORD
  5
D7F15
102
{ACAD_REACTORS
330
D7F0E
102
}
330
D7F0E
100
AcDbXrecord
280
     1
340
14
  0
XRECORD
  5
D7F13
102
{ACAD_REACTORS
330
D7F0E
102
}
330
D7F0E
100
AcDbXrecord
280
     1
340
14
  0
LAYOUT
  5
22
102
{ACAD_XDICTIONARY
360
D7F16
102
}
102
{ACAD_REACTORS
330
1A
102
}
330
1A
100
AcDbPlotSettings
  1

  2
\\PC-201204061032\Canon LBP2900
  4
A4
  6

 40
5.873749732971191
 41
6.805091857910156
 42
5.873748779296875
 43
4.857757568359375
 44
209.9733276367186
 45
296.9259948730469
 46
-5.889999999999998
 47
-5.87
 48
85766.02374884076
 49
-163980.7810393121
140
88736.02374884079
141
-161880.7810393122
142
1.0
143
10.0
 70
 11940
 72
     1
 73
     1
 74
     4
  7
monochrome.ctb
 75
     0
147
0.1
148
-85766.02374884076
149
163980.7810393121
100
AcDbLayout
  1
Model
 70
     1
 71
     0
 10
0.0
 20
0.0
 11
12.0
 21
9.0
 12
0.0
 22
0.0
 32
0.0
 14
0.0
 24
0.0
 34
0.0
 15
0.0
 25
0.0
 35
0.0
146
0.0
 13
0.0
 23
0.0
 33
0.0
 16
1.0
 26
0.0
 36
0.0
 17
0.0
 27
1.0
 37
0.0
 76
     0
330
1F
331
CED6D
  0
LAYOUT
  5
74
102
{ACAD_XDICTIONARY
360
D7F18
102
}
102
{ACAD_REACTORS
330
1A
102
}
330
1A
100
AcDbPlotSettings
  1

  2
\\ADSCCNDC1\hq601xrx1
  4

  6

 40
0.0
 41
0.0
 42
0.0
 43
0.0
 44
0.0
 45
0.0
 46
0.0
 47
0.0
 48
0.0
 49
0.0
140
0.0
141
0.0
142
1.0
143
1.0
 70
   688
 72
     0
 73
     0
 74
     5
  7
monochrome.ctb
 75
    16
147
1.0
148
0.0
149
0.0
100
AcDbLayout
  1
布局1
 70
     1
 71
     1
 10
0.0
 20
0.0
 11
12.0
 21
9.0
 12
0.0
 22
0.0
 32
0.0
 14
0.0
 24
0.0
 34
0.0
 15
0.0
 25
0.0
 35
0.0
146
0.0
 13
0.0
 23
0.0
 33
0.0
 16
1.0
 26
0.0
 36
0.0
 17
0.0
 27
1.0
 37
0.0
 76
     0
330
73
  0
LAYOUT
  5
79
102
{ACAD_XDICTIONARY
360
D7F1A
102
}
102
{ACAD_REACTORS
330
1A
102
}
330
1A
100
AcDbPlotSettings
  1

  2
\\ADSCCNDC1\hq601xrx1
  4

  6

 40
0.0
 41
0.0
 42
0.0
 43
0.0
 44
0.0
 45
0.0
 46
0.0
 47
0.0
 48
0.0
 49
0.0
140
0.0
141
0.0
142
1.0
143
1.0
 70
   688
 72
     0
 73
     0
 74
     5
  7
monochrome.ctb
 75
    16
147
1.0
148
0.0
149
0.0
100
AcDbLayout
  1
布局2
 70
     1
 71
     2
 10
0.0
 20
0.0
 11
12.0
 21
9.0
 12
0.0
 22
0.0
 32
0.0
 14
0.0
 24
0.0
 34
0.0
 15
0.0
 25
0.0
 35
0.0
146
0.0
 13
0.0
 23
0.0
 33
0.0
 16
1.0
 26
0.0
 36
0.0
 17
0.0
 27
1.0
 37
0.0
 76
     0
330
78
  0
MATERIAL
  5
CED77
102
{ACAD_XDICTIONARY
360
CED78
102
}
102
{ACAD_REACTORS
330
6B
102
}
330
6B
100
AcDbMaterial
  1
ByBlock
 72
     0
 43
0.0208333333333333
 43
0.0
 43
0.0
 43
0.0
 43
0.0
 43
0.0208333333333333
 43
0.0
 43
0.0
 43
0.0
 43
0.0
 43
1.0
 43
0.0
 43
0.0
 43
0.0
 43
0.0
 43
1.0
 77
     0
 47
0.0208333333333333
 47
0.0
 47
0.0
 47
0.0
 47
0.0
 47
0.0208333333333333
 47
0.0
 47
0.0
 47
0.0
 47
0.0
 47
1.0
 47
0.0
 47
0.0
 47
0.0
 47
0.0
 47
1.0
171
     0
 49
0.0208333333333333
 49
0.0
 49
0.0
 49
0.0
 49
0.0
 49
0.0208333333333333
 49
0.0
 49
0.0
 49
0.0
 49
0.0
 49
1.0
 49
0.0
 49
0.0
 49
0.0
 49
0.0
 49
1.0
175
     0
142
0.0208333333333333
142
0.0
142
0.0
142
0.0
142
0.0
142
0.0208333333333333
142
0.0
142
0.0
142
0.0
142
0.0
142
1.0
142
0.0
142
0.0
142
0.0
142
0.0
142
1.0
179
     0
144
0.0208333333333333
144
0.0
144
0.0
144
0.0
144
0.0
144
0.0208333333333333
144
0.0
144
0.0
144
0.0
144
0.0
144
1.0
144
0.0
144
0.0
144
0.0
144
0.0
144
1.0
147
0.0208333333333333
147
0.0
147
0.0
147
0.0
147
0.0
147
0.0208333333333333
147
0.0
147
0.0
147
0.0
147
0.0
147
1.0
147
0.0
147
0.0
147
0.0
147
0.0
147
1.0
  0
MATERIAL
  5
CED6F
102
{ACAD_XDICTIONARY
360
CED70
102
}
102
{ACAD_REACTORS
330
6B
102
}
330
6B
100
AcDbMaterial
  1
ByLayer
 72
     0
 43
0.0208333333333333
 43
0.0
 43
0.0
 43
0.0
 43
0.0
 43
0.0208333333333333
 43
0.0
 43
0.0
 43
0.0
 43
0.0
 43
1.0
 43
0.0
 43
0.0
 43
0.0
 43
0.0
 43
1.0
 77
     0
 47
0.0208333333333333
 47
0.0
 47
0.0
 47
0.0
 47
0.0
 47
0.0208333333333333
 47
0.0
 47
0.0
 47
0.0
 47
0.0
 47
1.0
 47
0.0
 47
0.0
 47
0.0
 47
0.0
 47
1.0
171
     0
 49
0.0208333333333333
 49
0.0
 49
0.0
 49
0.0
 49
0.0
 49
0.0208333333333333
 49
0.0
 49
0.0
 49
0.0
 49
0.0
 49
1.0
 49
0.0
 49
0.0
 49
0.0
 49
0.0
 49
1.0
175
     0
142
0.0208333333333333
142
0.0
142
0.0
142
0.0
142
0.0
142
0.0208333333333333
142
0.0
142
0.0
142
0.0
142
0.0
142
1.0
142
0.0
142
0.0
142
0.0
142
0.0
142
1.0
179
     0
144
0.0208333333333333
144
0.0
144
0.0
144
0.0
144
0.0
144
0.0208333333333333
144
0.0
144
0.0
144
0.0
144
0.0
144
1.0
144
0.0
144
0.0
144
0.0
144
0.0
144
1.0
147
0.0208333333333333
147
0.0
147
0.0
147
0.0
147
0.0
147
0.0208333333333333
147
0.0
147
0.0
147
0.0
147
0.0
147
1.0
147
0.0
147
0.0
147
0.0
147
0.0
147
1.0
  0
MATERIAL
  5
CED7F
102
{ACAD_XDICTIONARY
360
CED80
102
}
102
{ACAD_REACTORS
330
6B
102
}
330
6B
100
AcDbMaterial
  1
Global
 72
     0
 43
0.0208333333333333
 43
0.0
 43
0.0
 43
0.0
 43
0.0
 43
0.0208333333333333
 43
0.0
 43
0.0
 43
0.0
 43
0.0
 43
1.0
 43
0.0
 43
0.0
 43
0.0
 43
0.0
 43
1.0
 77
     0
 47
0.0208333333333333
 47
0.0
 47
0.0
 47
0.0
 47
0.0
 47
0.0208333333333333
 47
0.0
 47
0.0
 47
0.0
 47
0.0
 47
1.0
 47
0.0
 47
0.0
 47
0.0
 47
0.0
 47
1.0
171
     0
 49
0.0208333333333333
 49
0.0
 49
0.0
 49
0.0
 49
0.0
 49
0.0208333333333333
 49
0.0
 49
0.0
 49
0.0
 49
0.0
 49
1.0
 49
0.0
 49
0.0
 49
0.0
 49
0.0
 49
1.0
175
     0
142
0.0208333333333333
142
0.0
142
0.0
142
0.0
142
0.0
142
0.0208333333333333
142
0.0
142
0.0
142
0.0
142
0.0
142
1.0
142
0.0
142
0.0
142
0.0
142
0.0
142
1.0
179
     0
144
0.0208333333333333
144
0.0
144
0.0
144
0.0
144
0.0
144
0.0208333333333333
144
0.0
144
0.0
144
0.0
144
0.0
144
1.0
144
0.0
144
0.0
144
0.0
144
0.0
144
1.0
147
0.0208333333333333
147
0.0
147
0.0
147
0.0
147
0.0
147
0.0208333333333333
147
0.0
147
0.0
147
0.0
147
0.0
147
1.0
147
0.0
147
0.0
147
0.0
147
0.0
147
1.0
  0
MLEADERSTYLE
  5
CEDBB
102
{ACAD_REACTORS
330
CEDBA
102
}
330
CEDBA
100
AcDbMLeaderStyle
170
     2
171
     1
172
     0
 90
        2
 40
0.0
 41
0.0
173
     1
 91
-1056964608
340
14
 92
       -2
290
     1
 42
0.09
291
     1
 43
0.36
  3
Standard
 44
0.18
300

342
11
174
     1
178
     6
175
     1
176
     0
 93
-1056964608
 45
0.18
292
     0
297
     0
 46
0.18
 94
-1056964608
 47
1.0
 49
1.0
140
1.0
293
     1
141
0.0
294
     1
177
     0
142
1.0
295
     0
296
     0
143
0.125
1001
ACAD_MLEADERVER
1070
     2
  0
MLINESTYLE
  5
18
102
{ACAD_REACTORS
330
17
102
}
330
17
100
AcDbMlineStyle
  2
STANDARD
 70
     0
  3

 62
   256
 51
90.0
 52
90.0
 71
     2
 49
0.5
 62
   256
  6
BYLAYER
 49
-0.5
 62
   256
  6
BYLAYER
  0
ACDBPLACEHOLDER
  5
F
102
{ACAD_REACTORS
330
E
102
}
330
E
  0
SCALE
  5
CED99
102
{ACAD_REACTORS
330
CED98
102
}
330
CED98
100
AcDbScale
 70
     0
300
1:1
140
1.0
141
1.0
290
     1
  0
SCALE
  5
CED9A
102
{ACAD_REACTORS
330
CED98
102
}
330
CED98
100
AcDbScale
 70
     0
300
1:2
140
1.0
141
2.0
290
     0
  0
SCALE
  5
CED9B
102
{ACAD_REACTORS
330
CED98
102
}
330
CED98
100
AcDbScale
 70
     0
300
1:4
140
1.0
141
4.0
290
     0
  0
SCALE
  5
CED9C
102
{ACAD_REACTORS
330
CED98
102
}
330
CED98
100
AcDbScale
 70
     0
300
1:5
140
1.0
141
5.0
290
     0
  0
SCALE
  5
CED9D
102
{ACAD_REACTORS
330
CED98
102
}
330
CED98
100
AcDbScale
 70
     0
300
1:8
140
1.0
141
8.0
290
     0
  0
SCALE
  5
CED9E
102
{ACAD_REACTORS
330
CED98
102
}
330
CED98
100
AcDbScale
 70
     0
300
1:10
140
1.0
141
10.0
290
     0
  0
SCALE
  5
CED9F
102
{ACAD_REACTORS
330
CED98
102
}
330
CED98
100
AcDbScale
 70
     0
300
1:16
140
1.0
141
16.0
290
     0
  0
SCALE
  5
CEDA0
102
{ACAD_REACTORS
330
CED98
102
}
330
CED98
100
AcDbScale
 70
     0
300
1:20
140
1.0
141
20.0
290
     0
  0
SCALE
  5
CEDA1
102
{ACAD_REACTORS
330
CED98
102
}
330
CED98
100
AcDbScale
 70
     0
300
1:30
140
1.0
141
30.0
290
     0
  0
SCALE
  5
CEDA2
102
{ACAD_REACTORS
330
CED98
102
}
330
CED98
100
AcDbScale
 70
     0
300
1:40
140
1.0
141
40.0
290
     0
  0
SCALE
  5
CEDA3
102
{ACAD_REACTORS
330
CED98
102
}
330
CED98
100
AcDbScale
 70
     0
300
1:50
140
1.0
141
50.0
290
     0
  0
SCALE
  5
CEDA4
102
{ACAD_REACTORS
330
CED98
102
}
330
CED98
100
AcDbScale
 70
     0
300
1:100
140
1.0
141
100.0
290
     0
  0
SCALE
  5
CEDA5
102
{ACAD_REACTORS
330
CED98
102
}
330
CED98
100
AcDbScale
 70
     0
300
2:1
140
2.0
141
1.0
290
     0
  0
SCALE
  5
CEDA6
102
{ACAD_REACTORS
330
CED98
102
}
330
CED98
100
AcDbScale
 70
     0
300
4:1
140
4.0
141
1.0
290
     0
  0
SCALE
  5
CEDA7
102
{ACAD_REACTORS
330
CED98
102
}
330
CED98
100
AcDbScale
 70
     0
300
8:1
140
8.0
141
1.0
290
     0
  0
SCALE
  5
CEDA8
102
{ACAD_REACTORS
330
CED98
102
}
330
CED98
100
AcDbScale
 70
     0
300
10:1
140
10.0
141
1.0
290
     0
  0
SCALE
  5
CEDA9
102
{ACAD_REACTORS
330
CED98
102
}
330
CED98
100
AcDbScale
 70
     0
300
100:1
140
100.0
141
1.0
290
     0
  0
SCALE
  5
CEDAA
102
{ACAD_REACTORS
330
CED98
102
}
330
CED98
100
AcDbScale
 70
     0
300
1/128" = 1'-0"
140
0.0078125
141
12.0
290
     0
  0
SCALE
  5
CEDAB
102
{ACAD_REACTORS
330
CED98
102
}
330
CED98
100
AcDbScale
 70
     0
300
1/64" = 1'-0"
140
0.015625
141
12.0
290
     0
  0
SCALE
  5
CEDAC
102
{ACAD_REACTORS
330
CED98
102
}
330
CED98
100
AcDbScale
 70
     0
300
1/32" = 1'-0"
140
0.03125
141
12.0
290
     0
  0
SCALE
  5
CEDAD
102
{ACAD_REACTORS
330
CED98
102
}
330
CED98
100
AcDbScale
 70
     0
300
1/16" = 1'-0"
140
0.0625
141
12.0
290
     0
  0
SCALE
  5
CEDAE
102
{ACAD_REACTORS
330
CED98
102
}
330
CED98
100
AcDbScale
 70
     0
300
3/32" = 1'-0"
140
0.09375
141
12.0
290
     0
  0
SCALE
  5
CEDAF
102
{ACAD_REACTORS
330
CED98
102
}
330
CED98
100
AcDbScale
 70
     0
300
1/8" = 1'-0"
140
0.125
141
12.0
290
     0
  0
SCALE
  5
CEDB0
102
{ACAD_REACTORS
330
CED98
102
}
330
CED98
100
AcDbScale
 70
     0
300
3/16" = 1'-0"
140
0.1875
141
12.0
290
     0
  0
SCALE
  5
CEDB1
102
{ACAD_REACTORS
330
CED98
102
}
330
CED98
100
AcDbScale
 70
     0
300
1/4" = 1'-0"
140
0.25
141
12.0
290
     0
  0
SCALE
  5
CEDB2
102
{ACAD_REACTORS
330
CED98
102
}
330
CED98
100
AcDbScale
 70
     0
300
3/8" = 1'-0"
140
0.375
141
12.0
290
     0
  0
SCALE
  5
CEDB3
102
{ACAD_REACTORS
330
CED98
102
}
330
CED98
100
AcDbScale
 70
     0
300
1/2" = 1'-0"
140
0.5
141
12.0
290
     0
  0
SCALE
  5
CEDB4
102
{ACAD_REACTORS
330
CED98
102
}
330
CED98
100
AcDbScale
 70
     0
300
3/4" = 1'-0"
140
0.75
141
12.0
290
     0
  0
SCALE
  5
CEDB5
102
{ACAD_REACTORS
330
CED98
102
}
330
CED98
100
AcDbScale
 70
     0
300
1" = 1'-0"
140
1.0
141
12.0
290
     0
  0
SCALE
  5
CEDB6
102
{ACAD_REACTORS
330
CED98
102
}
330
CED98
100
AcDbScale
 70
     0
300
1-1/2" = 1'-0"
140
1.5
141
12.0
290
     0
  0
SCALE
  5
CEDB7
102
{ACAD_REACTORS
330
CED98
102
}
330
CED98
100
AcDbScale
 70
     0
300
3" = 1'-0"
140
3.0
141
12.0
290
     0
  0
SCALE
  5
CEDB8
102
{ACAD_REACTORS
330
CED98
102
}
330
CED98
100
AcDbScale
 70
     0
300
6" = 1'-0"
140
6.0
141
12.0
290
     0
  0
SCALE
  5
CEDB9
102
{ACAD_REACTORS
330
CED98
102
}
330
CED98
100
AcDbScale
 70
     0
300
1'-0" = 1'-0"
140
12.0
141
12.0
290
     0
  0
TABLESTYLE
  5
FB0
102
{ACAD_XDICTIONARY
360
D0C45
102
}
102
{ACAD_REACTORS
330
FAF
102
}
330
FAF
100
AcDbTableStyle
  3
Standard
 70
     0
 71
     0
 40
0.06
 41
0.06
280
     0
281
     0
  7
Standard
140
0.18
170
     2
 62
     0
 63
     7
283
     0
274
    -2
284
     1
 64
     0
275
    -2
285
     1
 65
     0
276
    -2
286
     1
 66
     0
277
    -2
287
     1
 67
     0
278
    -2
288
     1
 68
     0
279
    -2
289
     1
 69
     0
  7
Standard
140
0.25
170
     5
 62
     0
 63
     7
283
     0
274
    -2
284
     1
 64
     0
275
    -2
285
     1
 65
     0
276
    -2
286
     1
 66
     0
277
    -2
287
     1
 67
     0
278
    -2
288
     1
 68
     0
279
    -2
289
     1
 69
     0
  7
Standard
140
0.18
170
     5
 62
     0
 63
     7
283
     0
274
    -2
284
     1
 64
     0
275
    -2
285
     1
 65
     0
276
    -2
286
     1
 66
     0
277
    -2
287
     1
 67
     0
278
    -2
288
     1
 68
     0
279
    -2
289
     1
 69
     0
  0
VISUALSTYLE
  5
CED8D
102
{ACAD_REACTORS
330
CED87
102
}
330
CED87
100
AcDbVisualStyle
  2
2dWireframe
 70
     4
 71
     0
 72
     2
 73
     0
 90
        0
 40
-0.6
 41
-30.0
 62
     5
 63
     7
 74
     1
 91
        4
 64
     7
 65
   257
 75
     1
175
     1
 42
1.0
 92
        0
 66
   257
 43
1.0
 76
     1
 77
     6
 78
     2
 67
     7
 79
     5
170
     0
171
     0
290
     0
174
     0
 93
        1
 44
0.0
173
     0
291
     0
 45
0.0
1001
ACAD
1000
AcDbSavedByObjectVersion
1070
     0
1000
AcDbSavedByObjectVersion
1070
     0
  0
VISUALSTYLE
  5
CED8F
102
{ACAD_REACTORS
330
CED87
102
}
330
CED87
100
AcDbVisualStyle
  2
3D Hidden
 70
     6
 71
     1
 72
     2
 73
     2
 90
        0
 40
-0.6
 41
-30.0
 62
     5
 63
     7
 74
     2
 91
        2
 64
     7
 65
   257
 75
     2
175
     1
 42
40.0
 92
        0
 66
   257
 43
1.0
 76
     1
 77
     6
 78
     2
 67
     7
 79
     3
170
     0
171
     0
290
     0
174
     0
 93
        1
 44
0.0
173
     0
291
     0
 45
0.0
1001
ACAD
1000
AcDbSavedByObjectVersion
1070
     0
1000
AcDbSavedByObjectVersion
1070
     0
  0
VISUALSTYLE
  5
CED8E
102
{ACAD_REACTORS
330
CED87
102
}
330
CED87
100
AcDbVisualStyle
  2
3dWireframe
 70
     5
 71
     0
 72
     2
 73
     0
 90
        0
 40
-0.6
 41
-30.0
 62
     5
 63
     7
 74
     1
 91
        4
 64
     7
 65
   257
 75
     1
175
     1
 42
1.0
 92
        0
 66
   257
 43
1.0
 76
     1
 77
     6
 78
     2
 67
     7
 79
     5
170
     0
171
     0
290
     0
174
     0
 93
        1
 44
0.0
173
     0
291
     0
 45
0.0
1001
ACAD
1000
AcDbSavedByObjectVersion
1070
     0
1000
AcDbSavedByObjectVersion
1070
     0
  0
VISUALSTYLE
  5
CED8C
102
{ACAD_REACTORS
330
CED87
102
}
330
CED87
100
AcDbVisualStyle
  2
Basic
 70
     7
 71
     1
 72
     0
 73
     1
 90
        0
 40
-0.6
 41
-30.0
 62
     5
 63
     7
 74
     0
 91
        4
 64
     7
 65
   257
 75
     1
175
     1
 42
1.0
 92
        8
 66
     7
 43
1.0
 76
     1
 77
     6
 78
     2
 67
     7
 79
     5
170
     0
171
     0
290
     0
174
     0
 93
        1
 44
0.0
173
     0
291
     1
 45
0.0
1001
ACAD
1000
AcDbSavedByObjectVersion
1070
     0
1000
AcDbSavedByObjectVersion
1070
     0
  0
VISUALSTYLE
  5
CED93
102
{ACAD_REACTORS
330
CED87
102
}
330
CED87
100
AcDbVisualStyle
  2
Brighten
 70
    12
 71
     2
 72
     2
 73
     0
 90
        0
 40
-0.6
 41
-30.0
 62
     5
 63
     7
 74
     1
 91
        4
 64
     7
 65
   257
 75
     1
175
     1
 42
1.0
 92
        8
 66
     7
 43
1.0
 76
     1
 77
     6
 78
     2
 67
     7
 79
     5
170
     0
171
     0
290
     0
174
     0
 93
        1
 44
50.0
173
     0
291
     1
 45
0.0
1001
ACAD
1000
AcDbSavedByObjectVersion
1070
     0
1000
AcDbSavedByObjectVersion
1070
     0
  0
VISUALSTYLE
  5
CED97
102
{ACAD_REACTORS
330
CED87
102
}
330
CED87
100
AcDbVisualStyle
  2
ColorChange
 70
    16
 71
     2
 72
     2
 73
     3
 90
        0
 40
-0.6
 41
-30.0
 62
     5
 63
     8
 74
     1
 91
        4
 64
     7
 65
   257
 75
     1
175
     1
 42
1.0
 92
        8
 66
     8
 43
1.0
 76
     1
 77
     6
 78
     2
 67
     7
 79
     5
170
     0
171
     0
290
     0
174
     0
 93
        1
 44
0.0
173
     0
291
     1
 45
0.0
1001
ACAD
1000
AcDbSavedByObjectVersion
1070
     0
1000
AcDbSavedByObjectVersion
1070
     0
  0
VISUALSTYLE
  5
CED90
102
{ACAD_REACTORS
330
CED87
102
}
330
CED87
100
AcDbVisualStyle
  2
Conceptual
 70
     9
 71
     3
 72
     2
 73
     0
 90
        0
 40
-0.6
 41
-30.0
 62
     5
 63
     7
 74
     2
 91
        2
 64
     7
 65
   257
 75
     1
175
     1
 42
40.0
 92
        8
 66
     7
 43
1.0
 76
     1
 77
     6
 78
     2
 67
     7
 79
     3
170
     0
171
     0
290
     0
174
     0
 93
        1
 44
0.0
173
     0
291
     0
 45
0.0
1001
ACAD
1000
AcDbSavedByObjectVersion
1070
     0
1000
AcDbSavedByObjectVersion
1070
     0
  0
VISUALSTYLE
  5
CED92
102
{ACAD_REACTORS
330
CED87
102
}
330
CED87
100
AcDbVisualStyle
  2
Dim
 70
    11
 71
     2
 72
     2
 73
     0
 90
        0
 40
-0.6
 41
-30.0
 62
     5
 63
     7
 74
     1
 91
        4
 64
     7
 65
   257
 75
     1
175
     1
 42
1.0
 92
        8
 66
     7
 43
1.0
 76
     1
 77
     6
 78
     2
 67
     7
 79
     5
170
     0
171
     0
290
     0
174
     0
 93
        1
 44
-50.0
173
     0
291
     1
 45
0.0
1001
ACAD
1000
AcDbSavedByObjectVersion
1070
     0
1000
AcDbSavedByObjectVersion
1070
     0
  0
VISUALSTYLE
  5
CED96
102
{ACAD_REACTORS
330
CED87
102
}
330
CED87
100
AcDbVisualStyle
  2
Facepattern
 70
    15
 71
     2
 72
     2
 73
     0
 90
        0
 40
-0.6
 41
-30.0
 62
     5
 63
     7
 74
     1
 91
        4
 64
     7
 65
   257
 75
     1
175
     1
 42
1.0
 92
        8
 66
     7
 43
1.0
 76
     1
 77
     6
 78
     2
 67
     7
 79
     5
170
     0
171
     0
290
     0
174
     0
 93
        1
 44
0.0
173
     0
291
     1
 45
0.0
1001
ACAD
1000
AcDbSavedByObjectVersion
1070
     0
1000
AcDbSavedByObjectVersion
1070
     0
  0
VISUALSTYLE
  5
CED88
102
{ACAD_REACTORS
330
CED87
102
}
330
CED87
100
AcDbVisualStyle
  2
Flat
 70
     0
 71
     2
 72
     1
 73
     1
 90
        2
 40
-0.6
 41
30.0
 62
     5
 63
     7
 74
     0
 91
        4
 64
     7
 65
   257
 75
     1
175
     1
 42
1.0
 92
        8
 66
     7
 43
1.0
 76
     1
 77
     6
 78
     2
 67
     7
 79
     5
170
     0
171
     0
290
     0
174
     0
 93
       13
 44
0.0
173
     0
291
     1
 45
0.0
1001
ACAD
1000
AcDbSavedByObjectVersion
1070
     0
1000
AcDbSavedByObjectVersion
1070
     0
  0
VISUALSTYLE
  5
CED89
102
{ACAD_REACTORS
330
CED87
102
}
330
CED87
100
AcDbVisualStyle
  2
FlatWithEdges
 70
     1
 71
     2
 72
     1
 73
     1
 90
        2
 40
-0.6
 41
30.0
 62
     5
 63
     7
 74
     1
 91
        4
 64
     7
 65
   257
 75
     1
175
     1
 42
1.0
 92
        0
 66
   257
 43
1.0
 76
     1
 77
     6
 78
     2
 67
     7
 79
     5
170
     0
171
     0
290
     0
174
     0
 93
       13
 44
0.0
173
     0
291
     1
 45
0.0
1001
ACAD
1000
AcDbSavedByObjectVersion
1070
     0
1000
AcDbSavedByObjectVersion
1070
     0
  0
VISUALSTYLE
  5
CED8A
102
{ACAD_REACTORS
330
CED87
102
}
330
CED87
100
AcDbVisualStyle
  2
Gouraud
 70
     2
 71
     2
 72
     2
 73
     1
 90
        2
 40
-0.6
 41
30.0
 62
     5
 63
     7
 74
     0
 91
        4
 64
     7
 65
   257
 75
     1
175
     1
 42
1.0
 92
        0
 66
     7
 43
1.0
 76
     1
 77
     6
 78
     2
 67
     7
 79
     5
170
     0
171
     0
290
     0
174
     0
 93
       13
 44
0.0
173
     0
291
     1
 45
0.0
1001
ACAD
1000
AcDbSavedByObjectVersion
1070
     0
1000
AcDbSavedByObjectVersion
1070
     0
  0
VISUALSTYLE
  5
CED8B
102
{ACAD_REACTORS
330
CED87
102
}
330
CED87
100
AcDbVisualStyle
  2
GouraudWithEdges
 70
     3
 71
     2
 72
     2
 73
     1
 90
        2
 40
-0.6
 41
30.0
 62
     5
 63
     7
 74
     1
 91
        4
 64
     7
 65
   257
 75
     1
175
     1
 42
1.0
 92
        0
 66
   257
 43
1.0
 76
     1
 77
     6
 78
     2
 67
     7
 79
     5
170
     0
171
     0
290
     0
174
     0
 93
       13
 44
0.0
173
     0
291
     1
 45
0.0
1001
ACAD
1000
AcDbSavedByObjectVersion
1070
     0
1000
AcDbSavedByObjectVersion
1070
     0
  0
VISUALSTYLE
  5
CED95
102
{ACAD_REACTORS
330
CED87
102
}
330
CED87
100
AcDbVisualStyle
  2
Linepattern
 70
    14
 71
     2
 72
     2
 73
     0
 90
        0
 40
-0.6
 41
-30.0
 62
     5
 63
     7
 74
     1
 91
        4
 64
     7
 65
   257
 75
     7
175
     7
 42
1.0
 92
        8
 66
     7
 43
1.0
 76
     1
 77
     6
 78
     2
 67
     7
 79
     5
170
     0
171
     0
290
     0
174
     0
 93
        1
 44
0.0
173
     0
291
     1
 45
0.0
1001
ACAD
1000
AcDbSavedByObjectVersion
1070
     0
1000
AcDbSavedByObjectVersion
1070
     0
  0
VISUALSTYLE
  5
CED91
102
{ACAD_REACTORS
330
CED87
102
}
330
CED87
100
AcDbVisualStyle
  2
Realistic
 70
     8
 71
     2
 72
     2
 73
     0
 90
        0
 40
-0.6
 41
-30.0
 62
     5
 63
     7
 74
     1
 91
        0
 64
     7
 65
   257
 75
     1
175
     1
 42
1.0
 92
        8
 66
     8
 43
1.0
 76
     1
 77
     6
 78
     2
 67
     7
 79
     5
170
     0
171
     0
290
     0
174
     0
 93
       13
 44
0.0
173
     0
291
     0
 45
0.0
1001
ACAD
1000
AcDbSavedByObjectVersion
1070
     0
1000
AcDbSavedByObjectVersion
1070
     0
  0
VISUALSTYLE
  5
CED94
102
{ACAD_REACTORS
330
CED87
102
}
330
CED87
100
AcDbVisualStyle
  2
Thicken
 70
    13
 71
     2
 72
     2
 73
     0
 90
        0
 40
-0.6
 41
-30.0
 62
     5
 63
     7
 74
     1
 91
        4
 64
     7
 65
   257
 75
     1
175
     1
 42
1.0
 92
       12
 66
     7
 43
1.0
 76
     1
 77
     6
 78
     2
 67
     7
 79
     5
170
     0
171
     0
290
     0
174
     0
 93
        1
 44
0.0
173
     0
291
     1
 45
0.0
1001
ACAD
1000
AcDbSavedByObjectVersion
1070
     0
1000
AcDbSavedByObjectVersion
1070
     0
  0
DICTIONARYVAR
  5
D0C4F
102
{ACAD_REACTORS
330
59
102
}
330
59
100
DictionaryVariables
280
     0
  1
1:1
  0
DICTIONARYVAR
  5
D0C4D
102
{ACAD_REACTORS
330
59
102
}
330
59
100
DictionaryVariables
280
     0
  1
STANDARD
  0
DICTIONARYVAR
  5
100D
102
{ACAD_REACTORS
330
59
102
}
330
59
100
DictionaryVariables
280
     0
  1
STANDARD
  0
DICTIONARYVAR
  5
5A
102
{ACAD_REACTORS
330
59
102
}
330
59
100
DictionaryVariables
280
     0
  1
2
  0
DICTIONARYVAR
  5
5E
102
{ACAD_REACTORS
330
59
102
}
330
59
100
DictionaryVariables
280
     0
  1
1
  0
DICTIONARYVAR
  5
D7EDF
102
{ACAD_REACTORS
330
59
102
}
330
59
100
DictionaryVariables
280
     0
  1
0
  0
DICTIONARYVAR
  5
D0C50
102
{ACAD_REACTORS
330
59
102
}
330
59
100
DictionaryVariables
280
     0
  1
0
  0
DICTIONARYVAR
  5
D0C4E
102
{ACAD_REACTORS
330
59
102
}
330
59
100
DictionaryVariables
280
     0
  1
0
  0
DICTIONARYVAR
  5
D7EDE
102
{ACAD_REACTORS
330
59
102
}
330
59
100
DictionaryVariables
280
     0
  1
127
  0
XRECORD
  5
C2669
102
{ACAD_REACTORS
330
C2668
102
}
330
C2668
100
AcDbXrecord
280
     1
330
0
330
0
330
0
330
0
330
0
330
0
330
0
330
0
330
0
330
0
330
0
330
0
330
0
330
0
330
0
330
0
330
0
330
0
330
0
330
0
330
0
330
0
330
0
330
0
330
0
330
0
330
0
330
0
330
0
330
0
330
0
330
0
330
0
  0
VLO-VL
  5
A9D17
102
{ACAD_REACTORS
330
A9D16
102
}
330
A9D16
100
vlo_VL
 90
   -64512
 91
       12
 92
        1
 40
2.5
300
(&VLO-R . 0)
  0
DICTIONARY
  5
D7F16
330
22
100
AcDbDictionary
280
     1
281
     1
  3
ACAD_XREC_ROUNDTRIP
360
D7F17
  0
DICTIONARY
  5
D7F18
330
74
100
AcDbDictionary
280
     1
281
     1
  3
ACAD_XREC_ROUNDTRIP
360
D7F19
  0
DICTIONARY
  5
D7F1A
330
79
100
AcDbDictionary
280
     1
281
     1
  3
ACAD_XREC_ROUNDTRIP
360
D7F1B
  0
DICTIONARY
  5
CED78
330
CED77
100
AcDbDictionary
280
     1
281
     1
  3
ACAD_XREC_ROUNDTRIP
360
D7EFA
  3
BUMPTILE
360
CED7A
  3
DIFFUSETILE
360
CED79
  3
OPACITYTILE
360
CED7D
  3
REFLECTIONTILE
360
CED7C
  3
REFRACTIONTILE
360
CED7E
  3
SPECULARTILE
360
CED7B
  0
DICTIONARY
  5
CED70
330
CED6F
100
AcDbDictionary
280
     1
281
     1
  3
ACAD_XREC_ROUNDTRIP
360
D7EF9
  3
BUMPTILE
360
CED72
  3
DIFFUSETILE
360
CED71
  3
OPACITYTILE
360
CED75
  3
REFLECTIONTILE
360
CED74
  3
REFRACTIONTILE
360
CED76
  3
SPECULARTILE
360
CED73
  0
DICTIONARY
  5
CED80
330
CED7F
100
AcDbDictionary
280
     1
281
     1
  3
ACAD_XREC_ROUNDTRIP
360
D7EFB
  3
BUMPTILE
360
CED82
  3
DIFFUSETILE
360
CED81
  3
OPACITYTILE
360
CED85
  3
REFLECTIONTILE
360
CED84
  3
REFRACTIONTILE
360
CED86
  3
SPECULARTILE
360
CED83
  0
DICTIONARY
  5
D0C45
330
FB0
100
AcDbDictionary
280
     1
281
     1
  3
ACAD_ROUNDTRIP_2008_TABLESTYLE_CELLSTYLEMAP
360
D7F0C
  3
ACAD_XREC_ROUNDTRIP
360
D7F1C
  0
XRECORD
  5
D7F17
102
{ACAD_REACTORS
330
D7F16
102
}
330
D7F16
100
AcDbXrecord
280
     1
102
SHADEPLOT
 70
     0
102
SHADEPLOTRESLEVEL
 70
     2
102
SHADEPLOTCUSTOMDPI
 70
   300
  0
XRECORD
  5
D7F19
102
{ACAD_REACTORS
330
D7F18
102
}
330
D7F18
100
AcDbXrecord
280
     1
102
SHADEPLOT
 70
     0
102
SHADEPLOTRESLEVEL
 70
     2
102
SHADEPLOTCUSTOMDPI
 70
   300
  0
XRECORD
  5
D7F1B
102
{ACAD_REACTORS
330
D7F1A
102
}
330
D7F1A
100
AcDbXrecord
280
     1
102
SHADEPLOT
 70
     0
102
SHADEPLOTRESLEVEL
 70
     2
102
SHADEPLOTCUSTOMDPI
 70
   300
  0
XRECORD
  5
D7EFA
102
{ACAD_REACTORS
330
CED78
102
}
330
CED78
100
AcDbXrecord
280
     1
102
MATERIAL
148
0.0
149
0.0
149
0.0
 93
        0
 94
      127
282
     0
 72
     0
 77
     0
171
     0
175
     0
179
     0
273
     0
  0
XRECORD
  5
CED7A
102
{ACAD_REACTORS
330
CED78
102
}
330
CED78
100
AcDbXrecord
280
     1
270
     1
271
     1
  0
XRECORD
  5
CED79
102
{ACAD_REACTORS
330
CED78
102
}
330
CED78
100
AcDbXrecord
280
     1
270
     1
271
     1
  0
XRECORD
  5
CED7D
102
{ACAD_REACTORS
330
CED78
102
}
330
CED78
100
AcDbXrecord
280
     1
270
     1
271
     1
  0
XRECORD
  5
CED7C
102
{ACAD_REACTORS
330
CED78
102
}
330
CED78
100
AcDbXrecord
280
     1
270
     1
271
     1
  0
XRECORD
  5
CED7E
102
{ACAD_REACTORS
330
CED78
102
}
330
CED78
100
AcDbXrecord
280
     1
270
     1
271
     1
  0
XRECORD
  5
CED7B
102
{ACAD_REACTORS
330
CED78
102
}
330
CED78
100
AcDbXrecord
280
     1
270
     1
271
     1
  0
XRECORD
  5
D7EF9
102
{ACAD_REACTORS
330
CED70
102
}
330
CED70
100
AcDbXrecord
280
     1
102
MATERIAL
148
0.0
149
0.0
149
0.0
 93
        0
 94
      127
282
     0
 72
     0
 77
     0
171
     0
175
     0
179
     0
273
     0
  0
XRECORD
  5
CED72
102
{ACAD_REACTORS
330
CED70
102
}
330
CED70
100
AcDbXrecord
280
     1
270
     1
271
     1
  0
XRECORD
  5
CED71
102
{ACAD_REACTORS
330
CED70
102
}
330
CED70
100
AcDbXrecord
280
     1
270
     1
271
     1
  0
XRECORD
  5
CED75
102
{ACAD_REACTORS
330
CED70
102
}
330
CED70
100
AcDbXrecord
280
     1
270
     1
271
     1
  0
XRECORD
  5
CED74
102
{ACAD_REACTORS
330
CED70
102
}
330
CED70
100
AcDbXrecord
280
     1
270
     1
271
     1
  0
XRECORD
  5
CED76
102
{ACAD_REACTORS
330
CED70
102
}
330
CED70
100
AcDbXrecord
280
     1
270
     1
271
     1
  0
XRECORD
  5
CED73
102
{ACAD_REACTORS
330
CED70
102
}
330
CED70
100
AcDbXrecord
280
     1
270
     1
271
     1
  0
XRECORD
  5
D7EFB
102
{ACAD_REACTORS
330
CED80
102
}
330
CED80
100
AcDbXrecord
280
     1
102
MATERIAL
148
0.0
149
0.0
149
0.0
 93
        0
 94
      127
282
     0
 72
     0
 77
     0
171
     0
175
     0
179
     0
273
     0
  0
XRECORD
  5
CED82
102
{ACAD_REACTORS
330
CED80
102
}
330
CED80
100
AcDbXrecord
280
     1
270
     1
271
     1
  0
XRECORD
  5
CED81
102
{ACAD_REACTORS
330
CED80
102
}
330
CED80
100
AcDbXrecord
280
     1
270
     1
271
     1
  0
XRECORD
  5
CED85
102
{ACAD_REACTORS
330
CED80
102
}
330
CED80
100
AcDbXrecord
280
     1
270
     1
271
     1
  0
XRECORD
  5
CED84
102
{ACAD_REACTORS
330
CED80
102
}
330
CED80
100
AcDbXrecord
280
     1
270
     1
271
     1
  0
XRECORD
  5
CED86
102
{ACAD_REACTORS
330
CED80
102
}
330
CED80
100
AcDbXrecord
280
     1
270
     1
271
     1
  0
XRECORD
  5
CED83
102
{ACAD_REACTORS
330
CED80
102
}
330
CED80
100
AcDbXrecord
280
     1
270
     1
271
     1
  0
CELLSTYLEMAP
  5
D7F0C
102
{ACAD_REACTORS
330
D0C45
102
}
330
D0C45
100
AcDbCellStyleMap
 90
        3
300
CELLSTYLE
  1
TABLEFORMAT_BEGIN
 90
        5
170
     1
 91
        0
 92
    32768
 62
   257
 93
        1
300
CONTENTFORMAT
  1
CONTENTFORMAT_BEGIN
 90
        0
 91
        0
 92
        4
 93
        0
300

 40
0.0
140
1.0
 94
        5
 62
     0
340
11
144
0.25
309
CONTENTFORMAT_END
171
     1
301
MARGIN
  1
CELLMARGIN_BEGIN
 40
0.06
 40
0.06
 40
0.06
 40
0.06
 40
0.18
 40
0.18
309
CELLMARGIN_END
 94
        6
 95
        1
302
GRIDFORMAT
  1
GRIDFORMAT_BEGIN
 90
        0
 91
        1
 62
     0
 92
       -2
340
0
 93
        0
 40
0.045
309
GRIDFORMAT_END
 95
        2
302
GRIDFORMAT
  1
GRIDFORMAT_BEGIN
 90
        0
 91
        1
 62
     0
 92
       -2
340
0
 93
        0
 40
0.045
309
GRIDFORMAT_END
 95
        4
302
GRIDFORMAT
  1
GRIDFORMAT_BEGIN
 90
        0
 91
        1
 62
     0
 92
       -2
340
0
 93
        0
 40
0.045
309
GRIDFORMAT_END
 95
        8
302
GRIDFORMAT
  1
GRIDFORMAT_BEGIN
 90
        0
 91
        1
 62
     0
 92
       -2
340
0
 93
        0
 40
0.045
309
GRIDFORMAT_END
 95
       16
302
GRIDFORMAT
  1
GRIDFORMAT_BEGIN
 90
        0
 91
        1
 62
     0
 92
       -2
340
0
 93
        0
 40
0.045
309
GRIDFORMAT_END
 95
       32
302
GRIDFORMAT
  1
GRIDFORMAT_BEGIN
 90
        0
 91
        1
 62
     0
 92
       -2
340
0
 93
        0
 40
0.045
309
GRIDFORMAT_END
309
TABLEFORMAT_END
  1
CELLSTYLE_BEGIN
 90
        1
 91
        1
300
_TITLE
309
CELLSTYLE_END
300
CELLSTYLE
  1
TABLEFORMAT_BEGIN
 90
        5
170
     1
 91
        0
 92
        0
 62
   257
 93
        1
300
CONTENTFORMAT
  1
CONTENTFORMAT_BEGIN
 90
        0
 91
        0
 92
        4
 93
        0
300

 40
0.0
140
1.0
 94
        5
 62
     0
340
11
144
0.18
309
CONTENTFORMAT_END
171
     1
301
MARGIN
  1
CELLMARGIN_BEGIN
 40
0.06
 40
0.06
 40
0.06
 40
0.06
 40
0.18
 40
0.18
309
CELLMARGIN_END
 94
        6
 95
        1
302
GRIDFORMAT
  1
GRIDFORMAT_BEGIN
 90
        0
 91
        1
 62
     0
 92
       -2
340
0
 93
        0
 40
0.045
309
GRIDFORMAT_END
 95
        2
302
GRIDFORMAT
  1
GRIDFORMAT_BEGIN
 90
        0
 91
        1
 62
     0
 92
       -2
340
0
 93
        0
 40
0.045
309
GRIDFORMAT_END
 95
        4
302
GRIDFORMAT
  1
GRIDFORMAT_BEGIN
 90
        0
 91
        1
 62
     0
 92
       -2
340
0
 93
        0
 40
0.045
309
GRIDFORMAT_END
 95
        8
302
GRIDFORMAT
  1
GRIDFORMAT_BEGIN
 90
        0
 91
        1
 62
     0
 92
       -2
340
0
 93
        0
 40
0.045
309
GRIDFORMAT_END
 95
       16
302
GRIDFORMAT
  1
GRIDFORMAT_BEGIN
 90
        0
 91
        1
 62
     0
 92
       -2
340
0
 93
        0
 40
0.045
309
GRIDFORMAT_END
 95
       32
302
GRIDFORMAT
  1
GRIDFORMAT_BEGIN
 90
        0
 91
        1
 62
     0
 92
       -2
340
0
 93
        0
 40
0.045
309
GRIDFORMAT_END
309
TABLEFORMAT_END
  1
CELLSTYLE_BEGIN
 90
        2
 91
        1
300
_HEADER
309
CELLSTYLE_END
300
CELLSTYLE
  1
TABLEFORMAT_BEGIN
 90
        5
170
     1
 91
        0
 92
        0
 62
   257
 93
        1
300
CONTENTFORMAT
  1
CONTENTFORMAT_BEGIN
 90
        0
 91
        0
 92
        4
 93
        0
300

 40
0.0
140
1.0
 94
        2
 62
     0
340
11
144
0.18
309
CONTENTFORMAT_END
171
     1
301
MARGIN
  1
CELLMARGIN_BEGIN
 40
0.06
 40
0.06
 40
0.06
 40
0.06
 40
0.18
 40
0.18
309
CELLMARGIN_END
 94
        6
 95
        1
302
GRIDFORMAT
  1
GRIDFORMAT_BEGIN
 90
        0
 91
        1
 62
     0
 92
       -2
340
0
 93
        0
 40
0.045
309
GRIDFORMAT_END
 95
        2
302
GRIDFORMAT
  1
GRIDFORMAT_BEGIN
 90
        0
 91
        1
 62
     0
 92
       -2
340
0
 93
        0
 40
0.045
309
GRIDFORMAT_END
 95
        4
302
GRIDFORMAT
  1
GRIDFORMAT_BEGIN
 90
        0
 91
        1
 62
     0
 92
       -2
340
0
 93
        0
 40
0.045
309
GRIDFORMAT_END
 95
        8
302
GRIDFORMAT
  1
GRIDFORMAT_BEGIN
 90
        0
 91
        1
 62
     0
 92
       -2
340
0
 93
        0
 40
0.045
309
GRIDFORMAT_END
 95
       16
302
GRIDFORMAT
  1
GRIDFORMAT_BEGIN
 90
        0
 91
        1
 62
     0
 92
       -2
340
0
 93
        0
 40
0.045
309
GRIDFORMAT_END
 95
       32
302
GRIDFORMAT
  1
GRIDFORMAT_BEGIN
 90
        0
 91
        1
 62
     0
 92
       -2
340
0
 93
        0
 40
0.045
309
GRIDFORMAT_END
309
TABLEFORMAT_END
  1
CELLSTYLE_BEGIN
 90
        3
 91
        2
300
_DATA
309
CELLSTYLE_END
  0
XRECORD
  5
D7F1C
102
{ACAD_REACTORS
330
D0C45
102
}
330
D0C45
100
AcDbXrecord
280
     1
102
ACAD_ROUNDTRIP_PRE2007_TABLESTYLE
 90
        4
 91
        0
  1

 92
        4
 93
        0
  2

 94
        4
 95
        0
  3

  0
ENDSEC
  0
EOF
