  0
SECTION
  2
HEADER
  9
$ACADVER
  1
AC1015
  9
$ACADMAINTVER
 70
    20
  9
$DWGCODEPAGE
  3
ANSI_936
  9
$INSBASE
 10
0.0
 20
0.0
 30
0.0
  9
$EXTMIN
 10
102620.8887821342
 20
-169166.1593380937
 30
-0.0000000349181948
  9
$EXTMAX
 10
103341.2518981914
 20
-168493.7827953262
 30
0.0000000814935747
  9
$LIMMIN
 10
0.0
 20
0.0
  9
$LIMMAX
 10
12.0
 20
9.0
  9
$ORTHOMODE
 70
     0
  9
$REGENMODE
 70
     1
  9
$FILLMODE
 70
     1
  9
$QTEXTMODE
 70
     0
  9
$MIRRTEXT
 70
     0
  9
$LTSCALE
 40
1.0
  9
$ATTMODE
 70
     1
  9
$TEXTSIZE
 40
0.2
  9
$TRACEWID
 40
0.05
  9
$TEXTSTYLE
  7
Standard
  9
$CLAYER
  8
标注
  9
$CELTYPE
  6
ByLayer
  9
$CECOLOR
 62
   256
  9
$CELTSCALE
 40
5.0
  9
$DISPSILH
 70
     0
  9
$DIMSCALE
 40
1.0
  9
$DIMASZ
 40
16.0
  9
$DIMEXO
 40
7.0
  9
$DIMDLI
 40
0.38
  9
$DIMRND
 40
0.0
  9
$DIMDLE
 40
0.0
  9
$DIMEXE
 40
7.0
  9
$DIMTP
 40
0.0
  9
$DIMTM
 40
0.0
  9
$DIMTXT
 40
20.0
  9
$DIMCEN
 40
2.5
  9
$DIMTSZ
 40
0.0
  9
$DIMTOL
 70
     0
  9
$DIMLIM
 70
     0
  9
$DIMTIH
 70
     0
  9
$DIMTOH
 70
     0
  9
$DIMSE1
 70
     0
  9
$DIMSE2
 70
     0
  9
$DIMTAD
 70
     0
  9
$DIMZIN
 70
     8
  9
$DIMBLK
  1

  9
$DIMASO
 70
     1
  9
$DIMSHO
 70
     1
  9
$DIMPOST
  1

  9
$DIMAPOST
  1
"
  9
$DIMALT
 70
     0
  9
$DIMALTD
 70
     3
  9
$DIMALTF
 40
0.03937
  9
$DIMLFAC
 40
1.0
  9
$DIMTOFL
 70
     1
  9
$DIMTVP
 40
0.0
  9
$DIMTIX
 70
     0
  9
$DIMSOXD
 70
     0
  9
$DIMSAH
 70
     0
  9
$DIMBLK1
  1

  9
$DIMBLK2
  1

  9
$DIMSTYLE
  2
副本Standard
  9
$DIMCLRD
 70
   256
  9
$DIMCLRE
 70
   256
  9
$DIMCLRT
 70
   256
  9
$DIMTFAC
 40
1.0
  9
$DIMGAP
 40
1.0
  9
$DIMJUST
 70
     0
  9
$DIMSD1
 70
     0
  9
$DIMSD2
 70
     0
  9
$DIMTOLJ
 70
     1
  9
$DIMTZIN
 70
     0
  9
$DIMALTZ
 70
     0
  9
$DIMALTTZ
 70
     0
  9
$DIMUPT
 70
     0
  9
$DIMDEC
 70
     1
  9
$DIMTDEC
 70
     1
  9
$DIMALTU
 70
     7
  9
$DIMALTTD
 70
     3
  9
$DIMTXSTY
  7
Standard
  9
$DIMAUNIT
 70
     0
  9
$DIMADEC
 70
     1
  9
$DIMALTRND
 40
0.0
  9
$DIMAZIN
 70
     2
  9
$DIMDSEP
 70
    44
  9
$DIMATFIT
 70
     3
  9
$DIMFRAC
 70
     0
  9
$DIMLDRBLK
  1

  9
$DIMLUNIT
 70
     2
  9
$DIMLWD
 70
    -2
  9
$DIMLWE
 70
    -2
  9
$DIMTMOVE
 70
     0
  9
$LUNITS
 70
     2
  9
$LUPREC
 70
     4
  9
$SKETCHINC
 40
0.1
  9
$FILLETRAD
 40
25.0
  9
$AUNITS
 70
     0
  9
$AUPREC
 70
     0
  9
$MENU
  1
.
  9
$ELEVATION
 40
0.0
  9
$PELEVATION
 40
0.0
  9
$THICKNESS
 40
0.0
  9
$LIMCHECK
 70
     0
  9
$CHAMFERA
 40
26.6
  9
$CHAMFERB
 40
26.6
  9
$CHAMFERC
 40
0.0
  9
$CHAMFERD
 40
0.0
  9
$SKPOLY
 70
     0
  9
$TDCREATE
 40
2454355.343801713
  9
$TDUCREATE
 40
2454355.010468380
  9
$TDUPDATE
 40
2457938.597492454
  9
$TDUUPDATE
 40
2457938.264159120
  9
$TDINDWG
 40
8.8613835995
  9
$TDUSRTIMER
 40
8.8613835995
  9
$USRTIMER
 70
     1
  9
$ANGBASE
 50
0.0
  9
$ANGDIR
 70
     0
  9
$PDMODE
 70
     0
  9
$PDSIZE
 40
0.0
  9
$PLINEWID
 40
0.0
  9
$SPLFRAME
 70
     0
  9
$SPLINETYPE
 70
     6
  9
$SPLINESEGS
 70
     8
  9
$HANDSEED
  5
D8BE4
  9
$SURFTAB1
 70
     6
  9
$SURFTAB2
 70
     6
  9
$SURFTYPE
 70
     6
  9
$SURFU
 70
     6
  9
$SURFV
 70
     6
  9
$UCSBASE
  2

  9
$UCSNAME
  2

  9
$UCSORG
 10
0.0
 20
0.0
 30
0.0
  9
$UCSXDIR
 10
1.0
 20
0.0
 30
0.0
  9
$UCSYDIR
 10
0.0
 20
1.0
 30
0.0
  9
$UCSORTHOREF
  2

  9
$UCSORTHOVIEW
 70
     0
  9
$UCSORGTOP
 10
0.0
 20
0.0
 30
0.0
  9
$UCSORGBOTTOM
 10
0.0
 20
0.0
 30
0.0
  9
$UCSORGLEFT
 10
0.0
 20
0.0
 30
0.0
  9
$UCSORGRIGHT
 10
0.0
 20
0.0
 30
0.0
  9
$UCSORGFRONT
 10
0.0
 20
0.0
 30
0.0
  9
$UCSORGBACK
 10
0.0
 20
0.0
 30
0.0
  9
$PUCSBASE
  2

  9
$PUCSNAME
  2

  9
$PUCSORG
 10
0.0
 20
0.0
 30
0.0
  9
$PUCSXDIR
 10
1.0
 20
0.0
 30
0.0
  9
$PUCSYDIR
 10
0.0
 20
1.0
 30
0.0
  9
$PUCSORTHOREF
  2

  9
$PUCSORTHOVIEW
 70
     0
  9
$PUCSORGTOP
 10
0.0
 20
0.0
 30
0.0
  9
$PUCSORGBOTTOM
 10
0.0
 20
0.0
 30
0.0
  9
$PUCSORGLEFT
 10
0.0
 20
0.0
 30
0.0
  9
$PUCSORGRIGHT
 10
0.0
 20
0.0
 30
0.0
  9
$PUCSORGFRONT
 10
0.0
 20
0.0
 30
0.0
  9
$PUCSORGBACK
 10
0.0
 20
0.0
 30
0.0
  9
$USERI1
 70
     0
  9
$USERI2
 70
     0
  9
$USERI3
 70
     0
  9
$USERI4
 70
     0
  9
$USERI5
 70
     0
  9
$USERR1
 40
0.0
  9
$USERR2
 40
0.0
  9
$USERR3
 40
0.0
  9
$USERR4
 40
0.0
  9
$USERR5
 40
2.5
  9
$WORLDVIEW
 70
     1
  9
$SHADEDGE
 70
     3
  9
$SHADEDIF
 70
    70
  9
$TILEMODE
 70
     1
  9
$MAXACTVP
 70
    64
  9
$PINSBASE
 10
0.0
 20
0.0
 30
0.0
  9
$PLIMCHECK
 70
     0
  9
$PEXTMIN
 10
0.0
 20
0.0
 30
0.0
  9
$PEXTMAX
 10
0.0
 20
0.0
 30
0.0
  9
$PLIMMIN
 10
0.0
 20
0.0
  9
$PLIMMAX
 10
12.0
 20
9.0
  9
$UNITMODE
 70
     0
  9
$VISRETAIN
 70
     1
  9
$PLINEGEN
 70
     0
  9
$PSLTSCALE
 70
     1
  9
$TREEDEPTH
 70
  3020
  9
$CMLSTYLE
  2
Standard
  9
$CMLJUST
 70
     0
  9
$CMLSCALE
 40
1.0
  9
$PROXYGRAPHICS
 70
     1
  9
$MEASUREMENT
 70
     0
  9
$CELWEIGHT
370
    -1
  9
$ENDCAPS
280
     0
  9
$JOINSTYLE
280
     0
  9
$LWDISPLAY
290
     0
  9
$INSUNITS
 70
     4
  9
$HYPERLINKBASE
  1

  9
$STYLESHEET
  1
MONOCHROME.CTB
  9
$XEDIT
290
     1
  9
$CEPSNTYPE
380
     0
  9
$PSTYLEMODE
290
     1
  9
$FINGERPRINTGUID
  2
{35BD88C0-9548-11D2-9A29-0060089B3A3F}
  9
$VERSIONGUID
  2
{C526AF65-C78A-4CE0-A7F6-0B870C913D43}
  9
$EXTNAMES
290
     1
  9
$PSVPSCALE
 40
0.0
  9
$OLESTARTUP
290
     0
  0
ENDSEC
  0
SECTION
  2
CLASSES
  0
CLASS
  1
ACDBDICTIONARYWDFLT
  2
AcDbDictionaryWithDefault
  3
ObjectDBX Classes
 90
        0
280
     0
281
     0
  0
CLASS
  1
ACDBPLACEHOLDER
  2
AcDbPlaceHolder
  3
ObjectDBX Classes
 90
        0
280
     0
281
     0
  0
CLASS
  1
LAYOUT
  2
AcDbLayout
  3
ObjectDBX Classes
 90
        0
280
     0
281
     0
  0
CLASS
  1
DICTIONARYVAR
  2
AcDbDictionaryVar
  3
ObjectDBX Classes
 90
        0
280
     0
281
     0
  0
CLASS
  1
SORTENTSTABLE
  2
AcDbSortentsTable
  3
ObjectDBX Classes
 90
        0
280
     0
281
     0
  0
CLASS
  1
DIMASSOC
  2
AcDbDimAssoc
  3
"AcDbDimAssoc|Product Desc:     AcDim ARX App For Dimension|Company:          Autodesk, Inc.|WEB Address:      www.autodesk.com"
 90
        0
280
     0
281
     0
  0
CLASS
  1
TABLESTYLE
  2
AcDbTableStyle
  3
ObjectDBX Classes
 90
     4095
280
     0
281
     0
  0
CLASS
  1
VLO-VL
  2
vlo_VL
  3
VL|AutoLISP based application
 90
      129
280
     0
281
     0
  0
CLASS
  1
MATERIAL
  2
AcDbMaterial
  3
ObjectDBX Classes
 90
     1153
280
     0
281
     0
  0
CLASS
  1
VISUALSTYLE
  2
AcDbVisualStyle
  3
ObjectDBX Classes
 90
     4095
280
     0
281
     0
  0
CLASS
  1
SCALE
  2
AcDbScale
  3
ObjectDBX Classes
 90
     1153
280
     0
281
     0
  0
CLASS
  1
MLEADERSTYLE
  2
AcDbMLeaderStyle
  3
ACDB_MLEADERSTYLE_CLASS
 90
     4095
280
     0
281
     0
  0
CLASS
  1
CELLSTYLEMAP
  2
AcDbCellStyleMap
  3
ObjectDBX Classes
 90
     1152
280
     0
281
     0
  0
ENDSEC
  0
SECTION
  2
TABLES
  0
TABLE
  2
VPORT
  5
8
330
0
100
AcDbSymbolTable
 70
     1
  0
VPORT
  5
CED6D
330
8
100
AcDbSymbolTableRecord
100
AcDbViewportTableRecord
  2
*Active
 70
     0
 10
0.0
 20
0.0
 11
1.0
 21
1.0
 12
102981.0703401628
 22
-168829.97106671
 13
0.0
 23
0.0
 14
0.5
 24
0.5
 15
0.5
 25
0.5
 16
0.0
 26
0.0
 36
1.0
 17
0.0
 27
0.0
 37
0.0
 40
677.3448423445224
 41
2.241676942046855
 42
50.0
 43
0.0
 44
0.0
 50
0.0
 51
0.0
 71
     0
 72
  1000
 73
     1
 74
     3
 75
     0
 76
     0
 77
     0
 78
     0
281
     0
 65
     1
110
0.0
120
0.0
130
0.0
111
1.0
121
0.0
131
0.0
112
0.0
122
1.0
132
0.0
 79
     0
146
0.0
  0
ENDTAB
  0
TABLE
  2
LTYPE
  5
5
330
0
100
AcDbSymbolTable
 70
     3
  0
LTYPE
  5
14
330
5
100
AcDbSymbolTableRecord
100
AcDbLinetypeTableRecord
  2
ByBlock
 70
     0
  3

 72
    65
 73
     0
 40
0.0
  0
LTYPE
  5
15
330
5
100
AcDbSymbolTableRecord
100
AcDbLinetypeTableRecord
  2
ByLayer
 70
     0
  3

 72
    65
 73
     0
 40
0.0
  0
LTYPE
  5
16
330
5
100
AcDbSymbolTableRecord
100
AcDbLinetypeTableRecord
  2
Continuous
 70
     0
  3
Solid line
 72
    65
 73
     0
 40
0.0
  0
LTYPE
  5
98
330
5
100
AcDbSymbolTableRecord
100
AcDbLinetypeTableRecord
  2
HIDDEN2
 70
     0
  3
Hidden (.5x) _ _ _ _ _ _ _ _ _ _ _ _ _ _ _ _ _
 72
    65
 73
     2
 40
4.762499999999998
 49
3.174999999999998
 74
     0
 49
-1.587499999999999
 74
     0
  0
LTYPE
  5
D5D91
330
5
100
AcDbSymbolTableRecord
100
AcDbLinetypeTableRecord
  2
CENTER
 70
     0
  3
Center ____ _ ____ _ ____ _ ____ _ ____ _ ____
 72
    65
 73
     4
 40
50.8
 49
31.75
 74
     0
 49
-6.349999999999998
 74
     0
 49
6.349999999999998
 74
     0
 49
-6.349999999999998
 74
     0
  0
ENDTAB
  0
TABLE
  2
LAYER
  5
2
102
{ACAD_XDICTIONARY
360
AB
102
}
330
0
100
AcDbSymbolTable
 70
     7
  0
LAYER
  5
10
102
{ACAD_XDICTIONARY
360
CF251
102
}
330
2
100
AcDbSymbolTableRecord
100
AcDbLayerTableRecord
  2
0
 70
     0
 62
     7
  6
Continuous
370
    18
390
F
  0
LAYER
  5
9D
102
{ACAD_XDICTIONARY
360
CF259
102
}
330
2
100
AcDbSymbolTableRecord
100
AcDbLayerTableRecord
  2
虚线
 70
     0
 62
     4
  6
HIDDEN2
370
    18
390
F
  0
LAYER
  5
9E
102
{ACAD_XDICTIONARY
360
CF25B
102
}
330
2
100
AcDbSymbolTableRecord
100
AcDbLayerTableRecord
  2
细实线
 70
     0
 62
     7
  6
Continuous
370
     9
390
F
  0
LAYER
  5
582
330
2
100
AcDbSymbolTableRecord
100
AcDbLayerTableRecord
  2
Defpoints
 70
     0
 62
     7
  6
Continuous
290
     0
370
     9
390
F
  0
LAYER
  5
16DF9
102
{ACAD_XDICTIONARY
360
CF25D
102
}
330
2
100
AcDbSymbolTableRecord
100
AcDbLayerTableRecord
  2
标注
 70
     0
 62
    80
  6
Continuous
370
     5
390
F
1001
AcAecLayerStandard
1000

1000

  0
LAYER
  5
D5CE8
330
2
100
AcDbSymbolTableRecord
100
AcDbLayerTableRecord
  2
粗实线
 70
     0
 62
     7
  6
Continuous
370
    25
390
F
1001
AcAecLayerStandard
1000

1000

  0
LAYER
  5
D81F4
102
{ACAD_XDICTIONARY
360
D81F5
102
}
330
2
100
AcDbSymbolTableRecord
100
AcDbLayerTableRecord
  2
标注线
 70
     0
 62
     6
  6
Continuous
370
    -3
390
F
  0
ENDTAB
  0
TABLE
  2
STYLE
  5
3
330
0
100
AcDbSymbolTable
 70
     2
  0
STYLE
  5
11
330
3
100
AcDbSymbolTableRecord
100
AcDbTextStyleTableRecord
  2
Standard
 70
     0
 40
0.0
 41
1.0
 50
0.0
 71
     0
 42
0.2
  3
SimSun.ttf
  4

1001
ACAD
1000
SimSun
1071
    34306
  0
STYLE
  5
9D6ED
330
3
100
AcDbSymbolTableRecord
100
AcDbTextStyleTableRecord
  2
A301
 70
     0
 40
3.5
 41
0.75
 50
0.0
 71
     0
 42
0.0
  3
SimSun.ttf
  4

1001
ACAD
1000
SimSun
1071
    34306
  0
ENDTAB
  0
TABLE
  2
VIEW
  5
6
330
0
100
AcDbSymbolTable
 70
     0
  0
ENDTAB
  0
TABLE
  2
UCS
  5
7
330
0
100
AcDbSymbolTable
 70
     0
  0
ENDTAB
  0
TABLE
  2
APPID
  5
9
330
0
100
AcDbSymbolTable
 70
    19
  0
APPID
  5
12
330
9
100
AcDbSymbolTableRecord
100
AcDbRegAppTableRecord
  2
ACAD
 70
     0
  0
APPID
  5
A5
330
9
100
AcDbSymbolTableRecord
100
AcDbRegAppTableRecord
  2
AcAecLayerStandard
 70
     0
  0
APPID
  5
A6
330
9
100
AcDbSymbolTableRecord
100
AcDbRegAppTableRecord
  2
ACAD_DSTYLE_DIMEXT_LENGTH
 70
     0
  0
APPID
  5
A7
330
9
100
AcDbSymbolTableRecord
100
AcDbRegAppTableRecord
  2
ACAD_DSTYLE_DIMEXT_ENABLED
 70
     0
  0
APPID
  5
A8
330
9
100
AcDbSymbolTableRecord
100
AcDbRegAppTableRecord
  2
ACAD_DSTYLE_DIMJOGGED_JOGANGLE_SYMBOL
 70
     0
  0
APPID
  5
A9
330
9
100
AcDbSymbolTableRecord
100
AcDbRegAppTableRecord
  2
ACAD_DSTYLE_DIMARC_LENGTH_SYMBOL
 70
     0
  0
APPID
  5
AA
330
9
100
AcDbSymbolTableRecord
100
AcDbRegAppTableRecord
  2
ACAD_PSEXT
 70
     0
  0
APPID
  5
173
330
9
100
AcDbSymbolTableRecord
100
AcDbRegAppTableRecord
  2
DCO15
 70
     0
  0
APPID
  5
11D5
330
9
100
AcDbSymbolTableRecord
100
AcDbRegAppTableRecord
  2
ACAD_EXEMPT_FROM_CAD_STANDARDS
 70
     0
  0
APPID
  5
B456
330
9
100
AcDbSymbolTableRecord
100
AcDbRegAppTableRecord
  2
ACAD_DSTYLE_DIMTEXT_FILL
 70
     0
  0
APPID
  5
B459
330
9
100
AcDbSymbolTableRecord
100
AcDbRegAppTableRecord
  2
ACAD_DSTYLE_DIM_LINETYPE
 70
     0
  0
APPID
  5
B45A
330
9
100
AcDbSymbolTableRecord
100
AcDbRegAppTableRecord
  2
ACAD_DSTYLE_DIM_EXT1_LINETYPE
 70
     0
  0
APPID
  5
B45B
330
9
100
AcDbSymbolTableRecord
100
AcDbRegAppTableRecord
  2
ACAD_DSTYLE_DIM_EXT2_LINETYPE
 70
     0
  0
APPID
  5
CEDBC
330
9
100
AcDbSymbolTableRecord
100
AcDbRegAppTableRecord
  2
ACAD_MLEADERVER
 70
     0
  0
APPID
  5
CF35C
330
9
100
AcDbSymbolTableRecord
100
AcDbRegAppTableRecord
  2
ACAD_DSTYLE_DIMRADIAL_EXTENSION
 70
     0
  0
APPID
  5
CF43A
330
9
100
AcDbSymbolTableRecord
100
AcDbRegAppTableRecord
  2
ACAD_DSTYLE_DIMJAG
 70
     0
  0
APPID
  5
CF43B
330
9
100
AcDbSymbolTableRecord
100
AcDbRegAppTableRecord
  2
ACAD_DSTYLE_DIMTALN
 70
     0
  0
APPID
  5
D5B36
330
9
100
AcDbSymbolTableRecord
100
AcDbRegAppTableRecord
  2
AcDbBlockRepETag
 70
     0
  0
APPID
  5
D6F8C
330
9
100
AcDbSymbolTableRecord
100
AcDbRegAppTableRecord
  2
ACAD_DSTYLE_DIMBREAK
 70
     0
  0
ENDTAB
  0
TABLE
  2
DIMSTYLE
  5
A
330
0
100
AcDbSymbolTable
 70
    10
100
AcDbDimStyleTable
 71
     2
340
3BDB5
340
27
  0
DIMSTYLE
105
27
330
A
100
AcDbSymbolTableRecord
100
AcDbDimStyleTableRecord
  2
Standard
 70
     0
 41
20.0
 42
25.0
 44
8.0
 73
     0
 74
     0
 78
     8
 79
     2
140
20.0
147
5.0
172
     1
176
     3
177
     3
178
     3
179
     1
271
     1
272
     1
278
    44
340
11
1001
ACAD_DSTYLE_DIMJOGGED_JOGANGLE_SYMBOL
1070
   384
1040
0.7853981633974483
1001
ACAD_DSTYLE_DIMEXT_LENGTH
1070
   378
1040
8.0
  0
DIMSTYLE
105
3BDB5
102
{ACAD_REACTORS
330
D8887
330
D88A1
330
D88BB
330
D88D5
330
D88EF
330
D88FC
330
D8913
330
D8923
330
D8943
330
D8953
330
D89A4
330
D89DF
330
D8A53
330
D8A69
330
D8A85
330
D8A9F
330
D8B2A
330
D8B49
102
}
330
A
100
AcDbSymbolTableRecord
100
AcDbDimStyleTableRecord
  2
副本Standard
 70
     0
  4
"
 41
16.0
 42
7.0
 44
7.0
 73
     0
 74
     0
 78
     8
 79
     2
140
20.0
141
2.5
143
0.03937
147
1.0
171
     3
172
     1
176
   256
177
   256
178
   256
179
     1
271
     1
272
     1
273
     7
274
     3
278
    44
340
11
1001
ACAD_DSTYLE_DIMJAG
1070
   388
1040
1.5
1001
ACAD_DSTYLE_DIMTALN
1070
   392
1070
     0
  0
DIMSTYLE
105
D5B35
330
A
100
AcDbSymbolTableRecord
100
AcDbDimStyleTableRecord
  2
ISO-25
 70
     0
 41
2.5
 42
0.625
 43
3.75
 44
1.25
 73
     0
 74
     0
 77
     1
 78
     8
140
2.5
141
2.5
143
0.03937007874016
147
0.625
171
     3
172
     1
271
     0
272
     0
274
     3
283
     0
284
     8
340
11
1001
ACAD_DSTYLE_DIMJAG
1070
   388
1040
1.5
1001
ACAD_DSTYLE_DIMTALN
1070
   392
1070
     0
1001
ACAD_DSTYLE_DIMJOGGED_JOGANGLE_SYMBOL
1070
   384
1040
1.570796326794896
  0
DIMSTYLE
105
D6346
330
A
100
AcDbSymbolTableRecord
100
AcDbDimStyleTableRecord
  2
XIAO
 70
     0
 41
2.0
 42
1.5
 43
1.0
 44
0.5
 73
     0
 74
     0
 77
     1
 78
     8
140
2.0
141
1.0
143
0.03937007874016
147
0.8
171
     3
172
     1
179
     1
271
     1
272
     1
274
     3
278
    44
283
     0
284
     8
340
11
  0
DIMSTYLE
105
D6347
330
A
100
AcDbSymbolTableRecord
100
AcDbDimStyleTableRecord
  2
副本 (3)Standard
 70
     0
  4
"
 41
16.0
 42
22.0
 44
8.0
 73
     0
 74
     0
 78
     8
 79
     2
140
16.0
141
0.0
143
0.03937
147
5.0
171
     3
172
     1
175
     1
176
     3
177
     3
178
     3
179
     1
271
     1
272
     1
273
     7
274
     3
278
    44
289
     1
340
11
344
D62FB
  0
DIMSTYLE
105
D6348
330
A
100
AcDbSymbolTableRecord
100
AcDbDimStyleTableRecord
  2
100721
 70
     0
  4
"
 41
12.0
 42
18.0
 44
7.0
 73
     0
 74
     0
 78
     8
 79
     2
140
12.0
143
0.03937
147
5.0
171
     1
172
     1
176
   256
177
   256
178
   256
179
     1
271
     1
272
     1
274
     1
278
    44
340
11
  0
DIMSTYLE
105
D6F8A
330
A
100
AcDbSymbolTableRecord
100
AcDbDimStyleTableRecord
  2
副本Standard(2)
 70
     0
  3
mm
  4
"
 41
16.0
 42
22.0
 44
8.0
 73
     0
 74
     0
 78
     8
 79
     2
140
16.0
143
0.03937
147
5.0
170
     1
171
     3
172
     1
176
   256
177
   256
178
   256
179
     1
271
     1
272
     1
273
     7
274
     3
278
    44
340
11
1001
ACAD_DSTYLE_DIMBREAK
1070
   391
1040
0.125
1001
ACAD_DSTYLE_DIMJAG
1070
   388
1040
1.5
1001
ACAD_DSTYLE_DIMTALN
1070
   392
1070
     0
  0
DIMSTYLE
105
D6F8B
330
A
100
AcDbSymbolTableRecord
100
AcDbDimStyleTableRecord
  2
带公差标注
 70
     0
  4
"
 41
16.0
 42
22.0
 44
8.0
 47
2.0
 48
2.0
 71
     1
 73
     0
 74
     0
 78
     8
 79
     2
140
16.0
143
0.03937
147
5.0
171
     3
172
     1
176
   256
177
   256
178
   256
179
     1
271
     1
272
     0
273
     7
274
     3
278
    44
340
11
1001
ACAD_DSTYLE_DIMBREAK
1070
   391
1040
0.125
1001
ACAD_DSTYLE_DIMJAG
1070
   388
1040
1.5
1001
ACAD_DSTYLE_DIMTALN
1070
   392
1070
     0
1001
ACAD_DSTYLE_DIMARC_LENGTH_SYMBOL
1070
   379
1070
     1
1001
ACAD_DSTYLE_DIMEXT_ENABLED
1070
   383
1070
     1
1001
ACAD_DSTYLE_DIMEXT_LENGTH
1070
   378
1040
35.0
1001
ACAD_DSTYLE_DIMJOGGED_JOGANGLE_SYMBOL
1070
   384
1040
1.570796326794896
1001
ACAD_DSTYLE_DIM_LINETYPE
1070
   380
1005
14
1001
ACAD_DSTYLE_DIM_EXT1_LINETYPE
1070
   381
1005
14
1001
ACAD_DSTYLE_DIM_EXT2_LINETYPE
1070
   382
1005
14
  0
DIMSTYLE
105
D77B9
330
A
100
AcDbSymbolTableRecord
100
AcDbDimStyleTableRecord
  2
副本ISO-25
 70
     0
 41
15.0
 42
0.625
 43
3.75
 44
1.25
 73
     0
 77
     1
 78
     8
140
15.0
141
2.5
143
0.03937007874016
147
0.625
171
     1
172
     1
176
     6
177
     6
271
     2
272
     2
274
     1
278
    44
283
     0
284
     8
340
11
371
    15
372
    15
  0
DIMSTYLE
105
D81F6
330
A
100
AcDbSymbolTableRecord
100
AcDbDimStyleTableRecord
  2
英寸
 70
     0
  3
"
 41
18.0
 42
0.625
 43
3.75
 44
1.25
 73
     0
 74
     0
 77
     1
 78
     8
140
18.0
141
2.5
143
0.03937007874016
144
0.03937007874
147
0.625
171
     3
172
     1
176
     3
177
     3
178
     3
271
     3
272
     3
274
     3
276
     2
277
     5
278
    44
283
     0
284
     8
340
11
371
     9
372
     9
1001
ACAD_DSTYLE_DIMBREAK
1070
   391
1040
0.125
1001
ACAD_DSTYLE_DIMJAG
1070
   388
1040
1.5
1001
ACAD_DSTYLE_DIMTALN
1070
   392
1070
     0
1001
ACAD_DSTYLE_DIMEXT_LENGTH
1070
   378
1040
1.25
  0
ENDTAB
  0
TABLE
  2
BLOCK_RECORD
  5
1
330
0
100
AcDbSymbolTable
 70
    20
  0
BLOCK_RECORD
  5
1F
102
{ACAD_XDICTIONARY
360
118B
102
}
330
1
100
AcDbSymbolTableRecord
100
AcDbBlockTableRecord
  2
*Model_Space
340
22
  0
BLOCK_RECORD
  5
73
330
1
100
AcDbSymbolTableRecord
100
AcDbBlockTableRecord
  2
*Paper_Space
340
74
  0
BLOCK_RECORD
  5
78
330
1
100
AcDbSymbolTableRecord
100
AcDbBlockTableRecord
  2
*Paper_Space0
340
79
  0
BLOCK_RECORD
  5
D62FB
330
1
100
AcDbSymbolTableRecord
100
AcDbBlockTableRecord
  2
_None
340
0
  0
BLOCK_RECORD
  5
D8888
330
1
100
AcDbSymbolTableRecord
100
AcDbBlockTableRecord
  2
*D2
340
0
  0
BLOCK_RECORD
  5
D88A2
330
1
100
AcDbSymbolTableRecord
100
AcDbBlockTableRecord
  2
*D3
340
0
  0
BLOCK_RECORD
  5
D88BC
330
1
100
AcDbSymbolTableRecord
100
AcDbBlockTableRecord
  2
*D4
340
0
  0
BLOCK_RECORD
  5
D88D6
330
1
100
AcDbSymbolTableRecord
100
AcDbBlockTableRecord
  2
*D5
340
0
  0
BLOCK_RECORD
  5
D88F0
330
1
100
AcDbSymbolTableRecord
100
AcDbBlockTableRecord
  2
*D6
340
0
  0
BLOCK_RECORD
  5
D88FD
330
1
100
AcDbSymbolTableRecord
100
AcDbBlockTableRecord
  2
*D7
340
0
  0
BLOCK_RECORD
  5
D8914
330
1
100
AcDbSymbolTableRecord
100
AcDbBlockTableRecord
  2
*D8
340
0
  0
BLOCK_RECORD
  5
D8924
330
1
100
AcDbSymbolTableRecord
100
AcDbBlockTableRecord
  2
*D9
340
0
  0
BLOCK_RECORD
  5
D8944
330
1
100
AcDbSymbolTableRecord
100
AcDbBlockTableRecord
  2
*D10
340
0
  0
BLOCK_RECORD
  5
D8954
330
1
100
AcDbSymbolTableRecord
100
AcDbBlockTableRecord
  2
*D11
340
0
  0
BLOCK_RECORD
  5
D89A5
330
1
100
AcDbSymbolTableRecord
100
AcDbBlockTableRecord
  2
*D12
340
0
  0
BLOCK_RECORD
  5
D89E0
330
1
100
AcDbSymbolTableRecord
100
AcDbBlockTableRecord
  2
*D13
340
0
  0
BLOCK_RECORD
  5
D8A54
330
1
100
AcDbSymbolTableRecord
100
AcDbBlockTableRecord
  2
*D14
340
0
  0
BLOCK_RECORD
  5
D8A6A
330
1
100
AcDbSymbolTableRecord
100
AcDbBlockTableRecord
  2
*D15
340
0
  0
BLOCK_RECORD
  5
D8A86
330
1
100
AcDbSymbolTableRecord
100
AcDbBlockTableRecord
  2
*D16
340
0
  0
BLOCK_RECORD
  5
D8AA0
330
1
100
AcDbSymbolTableRecord
100
AcDbBlockTableRecord
  2
*D17
340
0
  0
BLOCK_RECORD
  5
D8B2B
330
1
100
AcDbSymbolTableRecord
100
AcDbBlockTableRecord
  2
*D18
340
0
  0
BLOCK_RECORD
  5
D8B4A
330
1
100
AcDbSymbolTableRecord
100
AcDbBlockTableRecord
  2
*D19
340
0
  0
ENDTAB
  0
ENDSEC
  0
SECTION
  2
BLOCKS
  0
BLOCK
  5
20
330
1F
100
AcDbEntity
  8
0
100
AcDbBlockBegin
  2
*Model_Space
 70
     0
 10
0.0
 20
0.0
 30
0.0
  3
*Model_Space
  1

  0
ENDBLK
  5
21
330
1F
100
AcDbEntity
  8
0
100
AcDbBlockEnd
  0
BLOCK
  5
75
330
73
100
AcDbEntity
 67
     1
  8
0
100
AcDbBlockBegin
  2
*Paper_Space
 70
     0
 10
0.0
 20
0.0
 30
0.0
  3
*Paper_Space
  1

  0
ENDBLK
  5
76
330
73
100
AcDbEntity
 67
     1
  8
0
100
AcDbBlockEnd
  0
BLOCK
  5
7A
330
78
100
AcDbEntity
 67
     1
  8
0
100
AcDbBlockBegin
  2
*Paper_Space0
 70
     0
 10
0.0
 20
0.0
 30
0.0
  3
*Paper_Space0
  1

  0
ENDBLK
  5
7B
330
78
100
AcDbEntity
 67
     1
  8
0
100
AcDbBlockEnd
  0
BLOCK
  5
D62FC
330
D62FB
100
AcDbEntity
  8
0
 48
5.0
100
AcDbBlockBegin
  2
_None
 70
     0
 10
0.0
 20
0.0
 30
0.0
  3
_None
  1

  0
ENDBLK
  5
D62FD
330
D62FB
100
AcDbEntity
  8
0
 48
5.0
100
AcDbBlockEnd
  0
BLOCK
  5
D8889
330
D8888
100
AcDbEntity
  8
0
 48
5.0
100
AcDbBlockBegin
  2
*D2
 70
     1
 10
0.0
 20
0.0
 30
0.0
  3
*D2
  1

  0
LINE
  5
D89CA
330
D8888
100
AcDbEntity
  8
标注
 48
5.0
370
    -2
100
AcDbLine
 10
102683.3585950525
 20
-168928.1954895862
 30
0.0
 11
102683.3585950525
 21
-169108.7980792154
 31
0.0
  0
LINE
  5
D89CB
330
D8888
100
AcDbEntity
  8
标注
 48
5.0
370
    -2
100
AcDbLine
 10
103225.3585950525
 20
-168928.1954895858
 30
0.0
 11
103225.3585950525
 21
-169108.7980792154
 31
0.0
  0
LINE
  5
D89CC
330
D8888
100
AcDbEntity
  8
标注
 48
5.0
370
    -2
100
AcDbLine
 10
102699.3585950525
 20
-169101.7980792154
 30
0.0
 11
102935.3583537998
 21
-169101.7980792154
 31
0.0
  0
LINE
  5
D89CD
330
D8888
100
AcDbEntity
  8
标注
 48
5.0
370
    -2
100
AcDbLine
 10
103209.3585950525
 20
-169101.7980792154
 30
0.0
 11
102976.580576022
 21
-169101.7980792154
 31
0.0
  0
SOLID
  5
D89CE
330
D8888
100
AcDbEntity
  8
标注
 48
5.0
100
AcDbTrace
 10
102699.3585950525
 20
-169099.1314125488
 30
0.0
 11
102699.3585950525
 21
-169104.4647458821
 31
0.0
 12
102683.3585950525
 22
-169101.7980792154
 32
0.0
 13
102683.3585950525
 23
-169101.7980792154
 33
0.0
  0
SOLID
  5
D89CF
330
D8888
100
AcDbEntity
  8
标注
 48
5.0
100
AcDbTrace
 10
103209.3585950525
 20
-169099.1314125488
 30
0.0
 11
103209.3585950525
 21
-169104.4647458821
 31
0.0
 12
103225.3585950525
 22
-169101.7980792154
 32
0.0
 13
103225.3585950525
 23
-169101.7980792154
 33
0.0
  0
MTEXT
  5
D89D0
330
D8888
100
AcDbEntity
  8
标注
 48
5.0
100
AcDbMText
 10
102955.9694649109
 20
-169101.7980792154
 30
0.0
 40
20.0
 41
0.0
 71
     5
 72
     1
  1
\A1;542
 73
     1
 44
1.0
1001
ACAD
1000
MTEXTBEGIN
1070
    73
1070
     1
1070
    44
1040
1.0
1070
    74
1070
     0
1000
MTEXTEND
  0
POINT
  5
D89D1
330
D8888
100
AcDbEntity
  8
Defpoints
 62
     0
 48
5.0
100
AcDbPoint
 10
102683.3585950525
 20
-168921.1954895862
 30
0.0
  0
POINT
  5
D89D2
330
D8888
100
AcDbEntity
  8
Defpoints
 62
     0
 48
5.0
100
AcDbPoint
 10
103225.3585950525
 20
-168921.1954895858
 30
0.0
  0
POINT
  5
D89D3
330
D8888
100
AcDbEntity
  8
Defpoints
 62
     0
 48
5.0
100
AcDbPoint
 10
103225.3585950525
 20
-169101.7980792154
 30
0.0
  0
ENDBLK
  5
D888A
330
D8888
100
AcDbEntity
  8
0
 48
5.0
100
AcDbBlockEnd
  0
BLOCK
  5
D88A3
330
D88A2
100
AcDbEntity
  8
0
 48
5.0
100
AcDbBlockBegin
  2
*D3
 70
     1
 10
0.0
 20
0.0
 30
0.0
  3
*D3
  1

  0
LINE
  5
D89C0
330
D88A2
100
AcDbEntity
  8
标注
 48
5.0
370
    -2
100
AcDbLine
 10
102679.3585950525
 20
-168928.1954895862
 30
0.0
 11
102679.3585950525
 21
-169146.3007382263
 31
0.0
  0
LINE
  5
D89C1
330
D88A2
100
AcDbEntity
  8
标注
 48
5.0
370
    -2
100
AcDbLine
 10
103229.3585950525
 20
-168928.1954895859
 30
0.0
 11
103229.3585950525
 21
-169146.3007382263
 31
0.0
  0
LINE
  5
D89C2
330
D88A2
100
AcDbEntity
  8
标注
 48
5.0
370
    -2
100
AcDbLine
 10
102695.3585950525
 20
-169139.3007382264
 30
0.0
 11
102933.2167766128
 21
-169139.3007382264
 31
0.0
  0
LINE
  5
D89C3
330
D88A2
100
AcDbEntity
  8
标注
 48
5.0
370
    -2
100
AcDbLine
 10
103213.3585950525
 20
-169139.3007382264
 30
0.0
 11
102974.7723321683
 21
-169139.3007382264
 31
0.0
  0
SOLID
  5
D89C4
330
D88A2
100
AcDbEntity
  8
标注
 48
5.0
100
AcDbTrace
 10
102695.3585950525
 20
-169136.6340715597
 30
0.0
 11
102695.3585950525
 21
-169141.967404893
 31
0.0
 12
102679.3585950525
 22
-169139.3007382264
 32
0.0
 13
102679.3585950525
 23
-169139.3007382264
 33
0.0
  0
SOLID
  5
D89C5
330
D88A2
100
AcDbEntity
  8
标注
 48
5.0
100
AcDbTrace
 10
103213.3585950525
 20
-169136.6340715597
 30
0.0
 11
103213.3585950525
 21
-169141.967404893
 31
0.0
 12
103229.3585950525
 22
-169139.3007382264
 32
0.0
 13
103229.3585950525
 23
-169139.3007382264
 33
0.0
  0
MTEXT
  5
D89C6
330
D88A2
100
AcDbEntity
  8
标注
 48
5.0
100
AcDbMText
 10
102953.9945543905
 20
-169139.3007382264
 30
0.0
 40
20.0
 41
0.0
 71
     5
 72
     1
  1
\A1;550
 73
     1
 44
1.0
1001
ACAD
1000
MTEXTBEGIN
1070
    73
1070
     1
1070
    44
1040
1.0
1070
    74
1070
     0
1000
MTEXTEND
  0
POINT
  5
D89C7
330
D88A2
100
AcDbEntity
  8
Defpoints
 62
     0
 48
5.0
100
AcDbPoint
 10
102679.3585950525
 20
-168921.1954895862
 30
0.0
  0
POINT
  5
D89C8
330
D88A2
100
AcDbEntity
  8
Defpoints
 62
     0
 48
5.0
100
AcDbPoint
 10
103229.3585950525
 20
-168921.1954895859
 30
0.0
  0
POINT
  5
D89C9
330
D88A2
100
AcDbEntity
  8
Defpoints
 62
     0
 48
5.0
100
AcDbPoint
 10
103229.3585950525
 20
-169139.3007382264
 30
0.0
  0
ENDBLK
  5
D88A4
330
D88A2
100
AcDbEntity
  8
0
 48
5.0
100
AcDbBlockEnd
  0
BLOCK
  5
D88BD
330
D88BC
100
AcDbEntity
  8
0
 48
5.0
100
AcDbBlockBegin
  2
*D4
 70
     1
 10
0.0
 20
0.0
 30
0.0
  3
*D4
  1

  0
LINE
  5
D88CA
330
D88BC
100
AcDbEntity
  8
标注
 48
5.0
370
    -2
100
AcDbLine
 10
103124.3585950522
 20
-169029.1954895862
 30
0.0
 11
103294.9911947122
 21
-169029.1954895862
 31
0.0
  0
LINE
  5
D88CB
330
D88BC
100
AcDbEntity
  8
标注
 48
5.0
370
    -2
100
AcDbLine
 10
102961.3585950528
 20
-168547.1954895861
 30
0.0
 11
103294.9911947122
 21
-168547.1954895861
 31
0.0
  0
LINE
  5
D88CC
330
D88BC
100
AcDbEntity
  8
标注
 48
5.0
370
    -2
100
AcDbLine
 10
103287.9911947122
 20
-169013.1954895862
 30
0.0
 11
103287.9911947122
 21
-168809.1399340306
 31
0.0
  0
LINE
  5
D88CD
330
D88BC
100
AcDbEntity
  8
标注
 48
5.0
370
    -2
100
AcDbLine
 10
103287.9911947122
 20
-168563.1954895861
 30
0.0
 11
103287.9911947122
 21
-168767.2510451417
 31
0.0
  0
SOLID
  5
D88CE
330
D88BC
100
AcDbEntity
  8
标注
 48
5.0
100
AcDbTrace
 10
103285.3245280455
 20
-169013.1954895862
 30
0.0
 11
103290.6578613789
 21
-169013.1954895862
 31
0.0
 12
103287.9911947122
 22
-169029.1954895862
 32
0.0
 13
103287.9911947122
 23
-169029.1954895862
 33
0.0
  0
SOLID
  5
D88CF
330
D88BC
100
AcDbEntity
  8
标注
 48
5.0
100
AcDbTrace
 10
103285.3245280455
 20
-168563.1954895861
 30
0.0
 11
103290.6578613789
 21
-168563.1954895861
 31
0.0
 12
103287.9911947122
 22
-168547.1954895861
 32
0.0
 13
103287.9911947122
 23
-168547.1954895861
 33
0.0
  0
MTEXT
  5
D88D0
330
D88BC
100
AcDbEntity
  8
标注
 48
5.0
100
AcDbMText
 10
103287.9911947122
 20
-168788.1954895861
 30
0.0
 40
20.0
 41
0.0
 71
     5
 72
     1
  1
\A1;482
 11
0.0000000000000001
 21
1.0
 31
0.0
 73
     1
 44
1.0
1001
ACAD
1000
MTEXTBEGIN
1070
    73
1070
     1
1070
    44
1040
1.0
1070
    74
1070
     0
1000
MTEXTEND
  0
POINT
  5
D88D1
330
D88BC
100
AcDbEntity
  8
Defpoints
 62
     0
 48
5.0
100
AcDbPoint
 10
103117.3585950522
 20
-169029.1954895862
 30
0.0
  0
POINT
  5
D88D2
330
D88BC
100
AcDbEntity
  8
Defpoints
 62
     0
 48
5.0
100
AcDbPoint
 10
102954.3585950528
 20
-168547.1954895861
 30
0.0
  0
POINT
  5
D88D3
330
D88BC
100
AcDbEntity
  8
Defpoints
 62
     0
 48
5.0
100
AcDbPoint
 10
103287.9911947122
 20
-168547.1954895861
 30
0.0
  0
ENDBLK
  5
D88BE
330
D88BC
100
AcDbEntity
  8
0
 48
5.0
100
AcDbBlockEnd
  0
BLOCK
  5
D88D7
330
D88D6
100
AcDbEntity
  8
0
 48
5.0
100
AcDbBlockBegin
  2
*D5
 70
     1
 10
0.0
 20
0.0
 30
0.0
  3
*D5
  1

  0
LINE
  5
D88E4
330
D88D6
100
AcDbEntity
  8
标注
 48
5.0
370
    -2
100
AcDbLine
 10
103124.3585950522
 20
-169033.1954895861
 30
0.0
 11
103333.4246648409
 21
-169033.1954895861
 31
0.0
  0
LINE
  5
D88E5
330
D88D6
100
AcDbEntity
  8
标注
 48
5.0
370
    -2
100
AcDbLine
 10
102961.3585950528
 20
-168543.1954895862
 30
0.0
 11
103333.4246648409
 21
-168543.1954895862
 31
0.0
  0
LINE
  5
D88E6
330
D88D6
100
AcDbEntity
  8
标注
 48
5.0
370
    -2
100
AcDbLine
 10
103326.4246648409
 20
-169017.1954895862
 30
0.0
 11
103326.4246648409
 21
-168809.3066006973
 31
0.0
  0
LINE
  5
D88E7
330
D88D6
100
AcDbEntity
  8
标注
 48
5.0
370
    -2
100
AcDbLine
 10
103326.4246648409
 20
-168559.1954895861
 30
0.0
 11
103326.4246648409
 21
-168767.084378475
 31
0.0
  0
SOLID
  5
D88E8
330
D88D6
100
AcDbEntity
  8
标注
 48
5.0
100
AcDbTrace
 10
103323.7579981742
 20
-169017.1954895862
 30
0.0
 11
103329.0913315075
 21
-169017.1954895862
 31
0.0
 12
103326.4246648409
 22
-169033.1954895861
 32
0.0
 13
103326.4246648409
 23
-169033.1954895861
 33
0.0
  0
SOLID
  5
D88E9
330
D88D6
100
AcDbEntity
  8
标注
 48
5.0
100
AcDbTrace
 10
103323.7579981742
 20
-168559.1954895861
 30
0.0
 11
103329.0913315075
 21
-168559.1954895861
 31
0.0
 12
103326.4246648409
 22
-168543.1954895862
 32
0.0
 13
103326.4246648409
 23
-168543.1954895862
 33
0.0
  0
MTEXT
  5
D88EA
330
D88D6
100
AcDbEntity
  8
标注
 48
5.0
100
AcDbMText
 10
103326.4246648409
 20
-168788.1954895861
 30
0.0
 40
20.0
 41
0.0
 71
     5
 72
     1
  1
\A1;490
 11
0.0000000000000001
 21
1.0
 31
0.0
 73
     1
 44
1.0
1001
ACAD
1000
MTEXTBEGIN
1070
    73
1070
     1
1070
    44
1040
1.0
1070
    74
1070
     0
1000
MTEXTEND
  0
POINT
  5
D88EB
330
D88D6
100
AcDbEntity
  8
Defpoints
 62
     0
 48
5.0
100
AcDbPoint
 10
103117.3585950522
 20
-169033.1954895861
 30
0.0
  0
POINT
  5
D88EC
330
D88D6
100
AcDbEntity
  8
Defpoints
 62
     0
 48
5.0
100
AcDbPoint
 10
102954.3585950528
 20
-168543.1954895862
 30
0.0
  0
POINT
  5
D88ED
330
D88D6
100
AcDbEntity
  8
Defpoints
 62
     0
 48
5.0
100
AcDbPoint
 10
103326.4246648409
 20
-168543.1954895862
 30
0.0
  0
ENDBLK
  5
D88D8
330
D88D6
100
AcDbEntity
  8
0
 48
5.0
100
AcDbBlockEnd
  0
BLOCK
  5
D88F1
330
D88F0
100
AcDbEntity
  8
0
 48
5.0
100
AcDbBlockBegin
  2
*D6
 70
     1
 10
0.0
 20
0.0
 30
0.0
  3
*D6
  1

  0
LINE
  5
D88F3
330
D88F0
100
AcDbEntity
  8
标注
 48
5.0
370
    -2
100
AcDbLine
 10
103287.9911947122
 20
-168563.1954895861
 30
0.0
 11
103287.9911947122
 21
-168579.1954895861
 31
0.0
  0
LINE
  5
D88F4
330
D88F0
100
AcDbEntity
  8
标注
 48
5.0
370
    -2
100
AcDbLine
 10
103287.9911947122
 20
-168527.1954895862
 30
0.0
 11
103287.9911947122
 21
-168511.1954895862
 31
0.0
  0
LINE
  5
D88F5
330
D88F0
100
AcDbEntity
  8
标注
 48
5.0
370
    -2
100
AcDbLine
 10
103287.9911947122
 20
-168547.1954895861
 30
0.0
 11
103287.9911947122
 21
-168543.1954895862
 31
0.0
  0
SOLID
  5
D88F6
330
D88F0
100
AcDbEntity
  8
标注
 48
5.0
100
AcDbTrace
 10
103285.3245280455
 20
-168563.1954895861
 30
0.0
 11
103290.6578613789
 21
-168563.1954895861
 31
0.0
 12
103287.9911947122
 22
-168547.1954895861
 32
0.0
 13
103287.9911947122
 23
-168547.1954895861
 33
0.0
  0
SOLID
  5
D88F7
330
D88F0
100
AcDbEntity
  8
标注
 48
5.0
100
AcDbTrace
 10
103285.3245280455
 20
-168527.1954895862
 30
0.0
 11
103290.6578613789
 21
-168527.1954895862
 31
0.0
 12
103287.9911947122
 22
-168543.1954895862
 32
0.0
 13
103287.9911947122
 23
-168543.1954895862
 33
0.0
  0
MTEXT
  5
D88F8
330
D88F0
100
AcDbEntity
  8
标注
 48
5.0
100
AcDbMText
 10
103287.9911947122
 20
-168504.084378475
 30
0.0
 40
20.0
 41
0.0
 71
     5
 72
     1
  1
\A1;4
 11
0.0000000000000001
 21
1.0
 31
0.0
 73
     1
 44
1.0
1001
ACAD
1000
MTEXTBEGIN
1070
    73
1070
     1
1070
    44
1040
1.0
1070
    74
1070
     0
1000
MTEXTEND
  0
POINT
  5
D88F9
330
D88F0
100
AcDbEntity
  8
Defpoints
 62
     0
 48
5.0
100
AcDbPoint
 10
103287.9911947122
 20
-168547.1954895861
 30
0.0
  0
POINT
  5
D88FA
330
D88F0
100
AcDbEntity
  8
Defpoints
 62
     0
 48
5.0
100
AcDbPoint
 10
103287.9911947122
 20
-168543.1954895862
 30
0.0
  0
POINT
  5
D88FB
330
D88F0
100
AcDbEntity
  8
Defpoints
 62
     0
 48
5.0
100
AcDbPoint
 10
103287.9911947122
 20
-168543.1954895862
 30
0.0
  0
ENDBLK
  5
D88F2
330
D88F0
100
AcDbEntity
  8
0
 48
5.0
100
AcDbBlockEnd
  0
BLOCK
  5
D88FE
330
D88FD
100
AcDbEntity
  8
0
 48
5.0
100
AcDbBlockBegin
  2
*D7
 70
     1
 10
0.0
 20
0.0
 30
0.0
  3
*D7
  1

  0
LINE
  5
D8B5C
330
D88FD
100
AcDbEntity
  8
标注
 48
5.0
370
    -2
100
AcDbLine
 10
103229.3585950525
 20
-169078.2710147838
 30
0.0
 11
103229.3585950525
 21
-169108.7980792154
 31
0.0
  0
LINE
  5
D8B5D
330
D88FD
100
AcDbEntity
  8
标注
 48
5.0
370
    -2
100
AcDbLine
 10
103209.3585950525
 20
-169101.7980792154
 30
0.0
 11
103193.3585950525
 21
-169101.7980792154
 31
0.0
  0
LINE
  5
D8B5E
330
D88FD
100
AcDbEntity
  8
标注
 48
5.0
370
    -2
100
AcDbLine
 10
103245.3585950525
 20
-169101.7980792154
 30
0.0
 11
103261.3585950525
 21
-169101.7980792154
 31
0.0
  0
LINE
  5
D8B5F
330
D88FD
100
AcDbEntity
  8
标注
 48
5.0
370
    -2
100
AcDbLine
 10
103225.3585950525
 20
-169101.7980792154
 30
0.0
 11
103229.3585950525
 21
-169101.7980792154
 31
0.0
  0
SOLID
  5
D8B60
330
D88FD
100
AcDbEntity
  8
标注
 48
5.0
100
AcDbTrace
 10
103209.3585950525
 20
-169099.1314125488
 30
0.0
 11
103209.3585950525
 21
-169104.4647458821
 31
0.0
 12
103225.3585950525
 22
-169101.7980792154
 32
0.0
 13
103225.3585950525
 23
-169101.7980792154
 33
0.0
  0
SOLID
  5
D8B61
330
D88FD
100
AcDbEntity
  8
标注
 48
5.0
100
AcDbTrace
 10
103245.3585950525
 20
-169099.1314125488
 30
0.0
 11
103245.3585950525
 21
-169104.4647458821
 31
0.0
 12
103229.3585950525
 22
-169101.7980792154
 32
0.0
 13
103229.3585950525
 23
-169101.7980792154
 33
0.0
  0
MTEXT
  5
D8B62
330
D88FD
100
AcDbEntity
  8
标注
 48
5.0
100
AcDbMText
 10
103268.4697061636
 20
-169101.7980792154
 30
0.0
 40
20.0
 41
0.0
 71
     5
 72
     1
  1
\A1;4
 73
     1
 44
1.0
1001
ACAD
1000
MTEXTBEGIN
1070
    73
1070
     1
1070
    44
1040
1.0
1070
    74
1070
     0
1000
MTEXTEND
  0
POINT
  5
D8B63
330
D88FD
100
AcDbEntity
  8
Defpoints
 62
     0
 48
5.0
100
AcDbPoint
 10
103225.3585950525
 20
-169101.7980792154
 30
0.0
  0
POINT
  5
D8B64
330
D88FD
100
AcDbEntity
  8
Defpoints
 62
     0
 48
5.0
100
AcDbPoint
 10
103229.3585950525
 20
-169071.2710147838
 30
0.0
  0
POINT
  5
D8B65
330
D88FD
100
AcDbEntity
  8
Defpoints
 62
     0
 48
5.0
100
AcDbPoint
 10
103229.3585950525
 20
-169101.7980792154
 30
0.0
  0
ENDBLK
  5
D88FF
330
D88FD
100
AcDbEntity
  8
0
 48
5.0
100
AcDbBlockEnd
  0
BLOCK
  5
D8915
330
D8914
100
AcDbEntity
  8
0
 48
5.0
100
AcDbBlockBegin
  2
*D8
 70
     1
 10
0.0
 20
0.0
 30
0.0
  3
*D8
  1

  0
LINE
  5
D891D
330
D8914
100
AcDbEntity
  8
标注
 48
5.0
370
    -2
100
AcDbLine
 10
102733.6187782343
 20
-168970.6132349193
 30
0.0
 11
102721.4630273252
 21
-168981.0169707788
 31
0.0
  0
MTEXT
  5
D891E
330
D8914
100
AcDbEntity
  8
标注
 48
5.0
100
AcDbMText
 10
102755.0179647306
 20
-168952.2983249165
 30
0.0
 40
20.0
 41
0.0
 71
     5
 72
     1
  1
\A1;R108
 11
0.7597344318179956
 21
0.6502334912246426
 31
0.0
 73
     1
 44
1.0
1001
ACAD
1000
MTEXTBEGIN
1070
    73
1070
     1
1070
    44
1040
1.0
1070
    74
1070
     0
1000
MTEXTEND
  0
SOLID
  5
D891F
330
D8914
100
AcDbEntity
  8
标注
 48
5.0
100
AcDbTrace
 10
102719.7290713487
 20
-168978.991012294
 30
0.0
 11
102723.1969833019
 21
-168983.0429292637
 31
0.0
 12
102709.3072764162
 22
-168991.4207066385
 32
0.0
 13
102709.3072764162
 23
-168991.4207066385
 33
0.0
  0
POINT
  5
D8920
330
D8914
100
AcDbEntity
  8
Defpoints
 62
     0
 48
5.0
100
AcDbPoint
 10
102709.3072764162
 20
-168991.4207066385
 30
0.0
  0
POINT
  5
D8921
330
D8914
100
AcDbEntity
  8
Defpoints
 62
     0
 48
5.0
100
AcDbPoint
 10
102791.3585950525
 20
-168921.1954895862
 30
0.0
  0
ENDBLK
  5
D8916
330
D8914
100
AcDbEntity
  8
0
 48
5.0
100
AcDbBlockEnd
  0
BLOCK
  5
D8925
330
D8924
100
AcDbEntity
  8
0
 48
5.0
100
AcDbBlockBegin
  2
*D9
 70
     1
 10
0.0
 20
0.0
 30
0.0
  3
*D9
  1

  0
LINE
  5
D892D
330
D8924
100
AcDbEntity
  8
标注
 48
5.0
370
    -2
100
AcDbLine
 10
102736.9006754902
 20
-168674.1048083956
 30
0.0
 11
102722.5409504704
 21
-168667.0480175275
 31
0.0
  0
MTEXT
  5
D892E
330
D8924
100
AcDbEntity
  8
标注
 48
5.0
100
AcDbMText
 10
102762.2794950564
 20
-168686.5767061451
 30
0.0
 40
20.0
 41
0.0
 71
     5
 72
     1
  1
\A1;R180
 11
0.897482813737135
 21
-0.4410494292553559
 31
0.0
 73
     1
 44
1.0
1001
ACAD
1000
MTEXTBEGIN
1070
    73
1070
     1
1070
    44
1040
1.0
1070
    74
1070
     0
1000
MTEXTEND
  0
SOLID
  5
D892F
330
D8924
100
AcDbEntity
  8
标注
 48
5.0
100
AcDbTrace
 10
102723.7170822818
 20
-168664.6547300242
 30
0.0
 11
102721.364818659
 21
-168669.4413050308
 31
0.0
 12
102708.1812254506
 22
-168659.9912266594
 32
0.0
 13
102708.1812254506
 23
-168659.9912266594
 33
0.0
  0
POINT
  5
D8930
330
D8924
100
AcDbEntity
  8
Defpoints
 62
     0
 48
5.0
100
AcDbPoint
 10
102708.1812254506
 20
-168659.9912266594
 30
0.0
  0
POINT
  5
D8931
330
D8924
100
AcDbEntity
  8
Defpoints
 62
     0
 48
5.0
100
AcDbPoint
 10
102869.7281319231
 20
-168739.3801239252
 30
0.0
  0
ENDBLK
  5
D8926
330
D8924
100
AcDbEntity
  8
0
 48
5.0
100
AcDbBlockEnd
  0
BLOCK
  5
D8945
330
D8944
100
AcDbEntity
  8
0
 48
5.0
100
AcDbBlockBegin
  2
*D10
 70
     1
 10
0.0
 20
0.0
 30
0.0
  3
*D10
  1

  0
LINE
  5
D894D
330
D8944
100
AcDbEntity
  8
标注
 48
5.0
370
    -2
100
AcDbLine
 10
103140.8753347687
 20
-168632.0340171338
 30
0.0
 11
103151.8900673726
 21
-168620.4290326158
 31
0.0
  0
MTEXT
  5
D894E
330
D8944
100
AcDbEntity
  8
标注
 48
5.0
100
AcDbMText
 10
103121.4083247151
 20
-168652.5442154659
 30
0.0
 40
20.0
 41
0.0
 71
     5
 72
     1
  1
\A1;R180
 11
0.6884207877499327
 21
0.7253115323733397
 31
0.0
 73
     1
 44
1.0
1001
ACAD
1000
MTEXTBEGIN
1070
    73
1070
     1
1070
    44
1040
1.0
1070
    74
1070
     0
1000
MTEXTEND
  0
SOLID
  5
D894F
330
D8944
100
AcDbEntity
  8
标注
 48
5.0
100
AcDbTrace
 10
103149.9559032863
 20
-168618.5932438485
 30
0.0
 11
103153.824231459
 21
-168622.2648213832
 31
0.0
 12
103162.9047999766
 22
-168608.8240480979
 32
0.0
 13
103162.9047999766
 23
-168608.8240480979
 33
0.0
  0
POINT
  5
D8950
330
D8944
100
AcDbEntity
  8
Defpoints
 62
     0
 48
5.0
100
AcDbPoint
 10
103162.9047999766
 20
-168608.8240480979
 30
0.0
  0
POINT
  5
D8951
330
D8944
100
AcDbEntity
  8
Defpoints
 62
     0
 48
5.0
100
AcDbPoint
 10
103038.9890581819
 20
-168739.3801239248
 30
0.0
  0
ENDBLK
  5
D8946
330
D8944
100
AcDbEntity
  8
0
 48
5.0
100
AcDbBlockEnd
  0
BLOCK
  5
D8955
330
D8954
100
AcDbEntity
  8
0
 48
5.0
100
AcDbBlockBegin
  2
*D11
 70
     1
 10
0.0
 20
0.0
 30
0.0
  3
*D11
  1

  0
ARC
  5
D8962
330
D8954
100
AcDbEntity
  8
标注
 48
5.0
370
    -2
100
AcDbCircle
 10
102679.5355596608
 20
-169029.1954895862
 30
0.0
 40
159.7020469238036
100
AcDbArc
 50
5.742670942076451
 51
36.8897732295494
  0
ARC
  5
D8963
330
D8954
100
AcDbEntity
  8
标注
 48
5.0
370
    -2
100
AcDbCircle
 10
102679.5355596608
 20
-169029.1954895862
 30
0.0
 40
159.7020469238036
100
AcDbArc
 50
51.11751738600685
 51
82.26461967348702
  0
SOLID
  5
D8964
330
D8954
100
AcDbEntity
  8
标注
 48
5.0
100
AcDbTrace
 10
102841.0994328222
 20
-169013.0819948016
 30
0.0
 11
102835.7727952575
 21
-169013.3491589832
 31
0.0
 12
102839.2376065847
 22
-169029.1954895862
 32
0.0
 13
102839.2376065847
 23
-169029.1954895862
 33
0.0
  0
SOLID
  5
D8965
330
D8954
100
AcDbEntity
  8
标注
 48
5.0
100
AcDbTrace
 10
102700.805039859
 20
-168873.6037507548
 30
0.0
 11
102701.2572620679
 21
-168868.2896243432
 31
0.0
 12
102685.0887717287
 22
-168869.5900209224
 32
0.0
 13
102685.0887717287
 23
-168869.5900209224
 33
0.0
  0
MTEXT
  5
D8966
330
D8954
100
AcDbEntity
  8
标注
 48
5.0
100
AcDbMText
 10
102794.4085397865
 20
-168918.2498171662
 30
0.0
 40
20.0
 41
0.0
 71
     5
 72
     1
  1
\A1;88°
 11
0.6947041353379433
 21
-0.7192956028951941
 31
0.0
 73
     1
 44
1.0
1001
ACAD
1000
MTEXTBEGIN
1070
    73
1070
     1
1070
    44
1040
1.0
1070
    74
1070
     0
1000
MTEXTEND
  0
POINT
  5
D8967
330
D8954
100
AcDbEntity
  8
Defpoints
 62
     0
 48
5.0
100
AcDbPoint
 10
102818.7579964763
 20
-168950.9531936151
 30
0.0
  0
POINT
  5
D8968
330
D8954
100
AcDbEntity
  8
Defpoints
 62
     0
 48
5.0
100
AcDbPoint
 10
102689.8369851731
 20
-168733.1211047613
 30
0.0
  0
POINT
  5
D8969
330
D8954
100
AcDbEntity
  8
Defpoints
 62
     0
 48
5.0
100
AcDbPoint
 10
102791.3585950525
 20
-169029.1954895862
 30
0.0
  0
POINT
  5
D896A
330
D8954
100
AcDbEntity
  8
Defpoints
 62
     0
 48
5.0
100
AcDbPoint
 10
103117.3585950525
 20
-169029.1954895862
 30
0.0
  0
POINT
  5
D896B
330
D8954
100
AcDbEntity
  8
Defpoints
 62
     0
 48
5.0
100
AcDbPoint
 10
102683.4239070024
 20
-168917.4400780884
 30
0.0
  0
ENDBLK
  5
D8956
330
D8954
100
AcDbEntity
  8
0
 48
5.0
100
AcDbBlockEnd
  0
BLOCK
  5
D89A6
330
D89A5
100
AcDbEntity
  8
0
 48
5.0
100
AcDbBlockBegin
  2
*D12
 70
     1
 10
0.0
 20
0.0
 30
0.0
  3
*D12
  1

  0
LINE
  5
D89D4
330
D89A5
100
AcDbEntity
  8
标注
 48
5.0
370
    -2
100
AcDbLine
 10
102961.3585950525
 20
-169033.1954895862
 30
0.0
 11
103000.9625081548
 21
-169033.1954895862
 31
0.0
  0
LINE
  5
D89D5
330
D89A5
100
AcDbEntity
  8
标注
 48
5.0
370
    -2
100
AcDbLine
 10
102961.3585950525
 20
-169015.1954895962
 30
0.0
 11
103000.9625081548
 21
-169015.1954895962
 31
0.0
  0
LINE
  5
D89D6
330
D89A5
100
AcDbEntity
  8
标注
 48
5.0
370
    -2
100
AcDbLine
 10
102993.9625081548
 20
-168999.1954895962
 30
0.0
 11
102993.9625081548
 21
-168983.1954895962
 31
0.0
  0
LINE
  5
D89D7
330
D89A5
100
AcDbEntity
  8
标注
 48
5.0
370
    -2
100
AcDbLine
 10
102993.9625081548
 20
-169049.1954895862
 30
0.0
 11
102993.9625081548
 21
-169065.1954895862
 31
0.0
  0
LINE
  5
D89D8
330
D89A5
100
AcDbEntity
  8
标注
 48
5.0
370
    -2
100
AcDbLine
 10
102993.9625081548
 20
-169015.1954895962
 30
0.0
 11
102993.9625081548
 21
-169033.1954895862
 31
0.0
  0
SOLID
  5
D89D9
330
D89A5
100
AcDbEntity
  8
标注
 48
5.0
100
AcDbTrace
 10
102991.2958414882
 20
-168999.1954895962
 30
0.0
 11
102996.6291748215
 21
-168999.1954895962
 31
0.0
 12
102993.9625081548
 22
-169015.1954895962
 32
0.0
 13
102993.9625081548
 23
-169015.1954895962
 33
0.0
  0
SOLID
  5
D89DA
330
D89A5
100
AcDbEntity
  8
标注
 48
5.0
100
AcDbTrace
 10
102991.2958414882
 20
-169049.1954895862
 30
0.0
 11
102996.6291748215
 21
-169049.1954895862
 31
0.0
 12
102993.9625081548
 22
-169033.1954895862
 32
0.0
 13
102993.9625081548
 23
-169033.1954895862
 33
0.0
  0
MTEXT
  5
D89DB
330
D89A5
100
AcDbEntity
  8
标注
 48
5.0
100
AcDbMText
 10
102993.9625081549
 20
-169077.9732673639
 30
0.0
 40
20.0
 41
0.0
 71
     5
 72
     1
  1
\A1;18
 11
0.0000000000000001
 21
1.0
 31
0.0
 73
     1
 44
1.0
1001
ACAD
1000
MTEXTBEGIN
1070
    73
1070
     1
1070
    44
1040
1.0
1070
    74
1070
     0
1000
MTEXTEND
  0
POINT
  5
D89DC
330
D89A5
100
AcDbEntity
  8
Defpoints
 62
     0
 48
5.0
100
AcDbPoint
 10
102954.3585950525
 20
-169033.1954895862
 30
0.0
  0
POINT
  5
D89DD
330
D89A5
100
AcDbEntity
  8
Defpoints
 62
     0
 48
5.0
100
AcDbPoint
 10
102954.3585950525
 20
-169015.1954895962
 30
0.0
  0
POINT
  5
D89DE
330
D89A5
100
AcDbEntity
  8
Defpoints
 62
     0
 48
5.0
100
AcDbPoint
 10
102993.9625081548
 20
-169015.1954895962
 30
0.0
  0
ENDBLK
  5
D89A7
330
D89A5
100
AcDbEntity
  8
0
 48
5.0
100
AcDbBlockEnd
  0
BLOCK
  5
D89E1
330
D89E0
100
AcDbEntity
  8
0
 48
5.0
100
AcDbBlockBegin
  2
*D13
 70
     1
 10
0.0
 20
0.0
 30
0.0
  3
*D13
  1

  0
LINE
  5
D8A49
330
D89E0
100
AcDbEntity
  8
标注
 48
5.0
370
    -2
100
AcDbLine
 10
102961.3585950525
 20
-169015.1954895962
 30
0.0
 11
103037.0502037684
 21
-169015.1954895962
 31
0.0
  0
LINE
  5
D8A4A
330
D89E0
100
AcDbEntity
  8
标注
 48
5.0
370
    -2
100
AcDbLine
 10
102961.3585950525
 20
-168561.1954895762
 30
0.0
 11
103037.0502037684
 21
-168561.1954895762
 31
0.0
  0
LINE
  5
D8A4B
330
D89E0
100
AcDbEntity
  8
标注
 48
5.0
370
    -2
100
AcDbLine
 10
103030.0502037684
 20
-168999.1954895962
 30
0.0
 11
103030.0502037684
 21
-168891.0056179136
 31
0.0
  0
LINE
  5
D8A4C
330
D89E0
100
AcDbEntity
  8
标注
 48
5.0
370
    -2
100
AcDbLine
 10
103030.0502037684
 20
-168577.1954895762
 30
0.0
 11
103030.0502037684
 21
-168848.338951247
 31
0.0
  0
SOLID
  5
D8A4D
330
D89E0
100
AcDbEntity
  8
标注
 48
5.0
100
AcDbTrace
 10
103027.3835371017
 20
-168999.1954895962
 30
0.0
 11
103032.716870435
 21
-168999.1954895962
 31
0.0
 12
103030.0502037684
 22
-169015.1954895962
 32
0.0
 13
103030.0502037684
 23
-169015.1954895962
 33
0.0
  0
SOLID
  5
D8A4E
330
D89E0
100
AcDbEntity
  8
标注
 48
5.0
100
AcDbTrace
 10
103027.3835371017
 20
-168577.1954895762
 30
0.0
 11
103032.716870435
 21
-168577.1954895762
 31
0.0
 12
103030.0502037684
 22
-168561.1954895762
 32
0.0
 13
103030.0502037684
 23
-168561.1954895762
 33
0.0
  0
MTEXT
  5
D8A4F
330
D89E0
100
AcDbEntity
  8
标注
 48
5.0
100
AcDbMText
 10
103030.0502037684
 20
-168869.6722845803
 30
0.0
 40
20.0
 41
0.0
 71
     5
 72
     1
  1
\A1;454
 11
0.0000000000000001
 21
1.0
 31
0.0
 73
     1
 44
1.0
1001
ACAD
1000
MTEXTBEGIN
1070
    73
1070
     1
1070
    44
1040
1.0
1070
    74
1070
     0
1000
MTEXTEND
  0
POINT
  5
D8A50
330
D89E0
100
AcDbEntity
  8
Defpoints
 62
     0
 48
5.0
100
AcDbPoint
 10
102954.3585950525
 20
-169015.1954895962
 30
0.0
  0
POINT
  5
D8A51
330
D89E0
100
AcDbEntity
  8
Defpoints
 62
     0
 48
5.0
100
AcDbPoint
 10
102954.3585950525
 20
-168561.1954895762
 30
0.0
  0
POINT
  5
D8A52
330
D89E0
100
AcDbEntity
  8
Defpoints
 62
     0
 48
5.0
100
AcDbPoint
 10
103030.0502037684
 20
-168561.1954895762
 30
0.0
  0
ENDBLK
  5
D89E2
330
D89E0
100
AcDbEntity
  8
0
 48
5.0
100
AcDbBlockEnd
  0
BLOCK
  5
D8A55
330
D8A54
100
AcDbEntity
  8
0
 48
5.0
100
AcDbBlockBegin
  2
*D14
 70
     1
 10
0.0
 20
0.0
 30
0.0
  3
*D14
  1

  0
LINE
  5
D8A60
330
D8A54
100
AcDbEntity
  8
标注
 48
5.0
370
    -2
100
AcDbLine
 10
102993.9625081549
 20
-168999.1954895962
 30
0.0
 11
102993.9625081549
 21
-168922.4732673689
 31
0.0
  0
LINE
  5
D8A61
330
D8A54
100
AcDbEntity
  8
标注
 48
5.0
370
    -2
100
AcDbLine
 10
102993.9625081549
 20
-168804.1954895862
 30
0.0
 11
102993.9625081549
 21
-168880.9177118134
 31
0.0
  0
SOLID
  5
D8A62
330
D8A54
100
AcDbEntity
  8
标注
 48
5.0
100
AcDbTrace
 10
102991.2958414882
 20
-168999.1954895962
 30
0.0
 11
102996.6291748215
 21
-168999.1954895962
 31
0.0
 12
102993.9625081549
 22
-169015.1954895962
 32
0.0
 13
102993.9625081549
 23
-169015.1954895962
 33
0.0
  0
SOLID
  5
D8A63
330
D8A54
100
AcDbEntity
  8
标注
 48
5.0
100
AcDbTrace
 10
102991.2958414882
 20
-168804.1954895862
 30
0.0
 11
102996.6291748215
 21
-168804.1954895862
 31
0.0
 12
102993.9625081549
 22
-168788.1954895862
 32
0.0
 13
102993.9625081549
 23
-168788.1954895862
 33
0.0
  0
MTEXT
  5
D8A64
330
D8A54
100
AcDbEntity
  8
标注
 48
5.0
100
AcDbMText
 10
102993.9625081549
 20
-168901.6954895912
 30
0.0
 40
20.0
 41
0.0
 71
     5
 72
     1
  1
\A1;227
 11
0.0000000000000001
 21
1.0
 31
0.0
 73
     1
 44
1.0
1001
ACAD
1000
MTEXTBEGIN
1070
    73
1070
     1
1070
    44
1040
1.0
1070
    74
1070
     0
1000
MTEXTEND
  0
POINT
  5
D8A65
330
D8A54
100
AcDbEntity
  8
Defpoints
 62
     0
 48
5.0
100
AcDbPoint
 10
102993.9625081548
 20
-169015.1954895962
 30
0.0
  0
POINT
  5
D8A66
330
D8A54
100
AcDbEntity
  8
Defpoints
 62
     0
 48
5.0
100
AcDbPoint
 10
102993.9625081549
 20
-168788.1954895862
 30
0.0
  0
POINT
  5
D8A67
330
D8A54
100
AcDbEntity
  8
Defpoints
 62
     0
 48
5.0
100
AcDbPoint
 10
102993.9625081549
 20
-168788.1954895862
 30
0.0
  0
ENDBLK
  5
D8A56
330
D8A54
100
AcDbEntity
  8
0
 48
5.0
100
AcDbBlockEnd
  0
BLOCK
  5
D8A6B
330
D8A6A
100
AcDbEntity
  8
0
 48
5.0
100
AcDbBlockBegin
  2
*D15
 70
     1
 10
0.0
 20
0.0
 30
0.0
  3
*D15
  1

  0
LINE
  5
D8A79
330
D8A6A
100
AcDbEntity
  8
标注
 48
5.0
370
    -2
100
AcDbLine
 10
102701.9183413193
 20
-168781.1954895862
 30
0.0
 11
102701.9183413193
 21
-168749.3501398854
 31
0.0
  0
LINE
  5
D8A7A
330
D8A6A
100
AcDbEntity
  8
标注
 48
5.0
370
    -2
100
AcDbLine
 10
102683.9183413193
 20
-168781.1954895862
 30
0.0
 11
102683.9183413193
 21
-168749.3501398854
 31
0.0
  0
LINE
  5
D8A7B
330
D8A6A
100
AcDbEntity
  8
标注
 48
5.0
370
    -2
100
AcDbLine
 10
102717.9183413193
 20
-168756.3501398854
 30
0.0
 11
102733.9183413193
 21
-168756.3501398854
 31
0.0
  0
LINE
  5
D8A7C
330
D8A6A
100
AcDbEntity
  8
标注
 48
5.0
370
    -2
100
AcDbLine
 10
102667.9183413193
 20
-168756.3501398854
 30
0.0
 11
102651.9183413193
 21
-168756.3501398854
 31
0.0
  0
LINE
  5
D8A7D
330
D8A6A
100
AcDbEntity
  8
标注
 48
5.0
370
    -2
100
AcDbLine
 10
102701.9183413193
 20
-168756.3501398854
 30
0.0
 11
102683.9183413193
 21
-168756.3501398854
 31
0.0
  0
SOLID
  5
D8A7E
330
D8A6A
100
AcDbEntity
  8
标注
 48
5.0
100
AcDbTrace
 10
102717.9183413193
 20
-168753.6834732188
 30
0.0
 11
102717.9183413193
 21
-168759.0168065521
 31
0.0
 12
102701.9183413193
 22
-168756.3501398854
 32
0.0
 13
102701.9183413193
 23
-168756.3501398854
 33
0.0
  0
SOLID
  5
D8A7F
330
D8A6A
100
AcDbEntity
  8
标注
 48
5.0
100
AcDbTrace
 10
102667.9183413193
 20
-168753.6834732188
 30
0.0
 11
102667.9183413193
 21
-168759.0168065521
 31
0.0
 12
102683.9183413193
 22
-168756.3501398854
 32
0.0
 13
102683.9183413193
 23
-168756.3501398854
 33
0.0
  0
MTEXT
  5
D8A80
330
D8A6A
100
AcDbEntity
  8
标注
 48
5.0
100
AcDbMText
 10
102639.1405635416
 20
-168756.3501398854
 30
0.0
 40
20.0
 41
0.0
 71
     5
 72
     1
  1
\A1;18
 73
     1
 44
1.0
1001
ACAD
1000
MTEXTBEGIN
1070
    73
1070
     1
1070
    44
1040
1.0
1070
    74
1070
     0
1000
MTEXTEND
  0
POINT
  5
D8A81
330
D8A6A
100
AcDbEntity
  8
Defpoints
 62
     0
 48
5.0
100
AcDbPoint
 10
102701.9183413193
 20
-168788.1954895862
 30
0.0
  0
POINT
  5
D8A82
330
D8A6A
100
AcDbEntity
  8
Defpoints
 62
     0
 48
5.0
100
AcDbPoint
 10
102683.9183413193
 20
-168788.1954895862
 30
0.0
  0
POINT
  5
D8A83
330
D8A6A
100
AcDbEntity
  8
Defpoints
 62
     0
 48
5.0
100
AcDbPoint
 10
102683.9183413193
 20
-168756.3501398854
 30
0.0
  0
ENDBLK
  5
D8A6C
330
D8A6A
100
AcDbEntity
  8
0
 48
5.0
100
AcDbBlockEnd
  0
BLOCK
  5
D8A87
330
D8A86
100
AcDbEntity
  8
0
 48
5.0
100
AcDbBlockBegin
  2
*D16
 70
     1
 10
0.0
 20
0.0
 30
0.0
  3
*D16
  1

  0
LINE
  5
D8A94
330
D8A86
100
AcDbEntity
  8
标注
 48
5.0
370
    -2
100
AcDbLine
 10
102701.9183413193
 20
-168781.1954895862
 30
0.0
 11
102701.9183413193
 21
-168749.3501398854
 31
0.0
  0
LINE
  5
D8A95
330
D8A86
100
AcDbEntity
  8
标注
 48
5.0
370
    -2
100
AcDbLine
 10
102954.3585950525
 20
-168781.1954895862
 30
0.0
 11
102954.3585950525
 21
-168749.3501398854
 31
0.0
  0
LINE
  5
D8A96
330
D8A86
100
AcDbEntity
  8
标注
 48
5.0
370
    -2
100
AcDbLine
 10
102717.9183413193
 20
-168756.3501398854
 30
0.0
 11
102792.8051348526
 21
-168756.3501398854
 31
0.0
  0
LINE
  5
D8A97
330
D8A86
100
AcDbEntity
  8
标注
 48
5.0
370
    -2
100
AcDbLine
 10
102938.3585950525
 20
-168756.3501398854
 30
0.0
 11
102863.4718015192
 21
-168756.3501398854
 31
0.0
  0
SOLID
  5
D8A98
330
D8A86
100
AcDbEntity
  8
标注
 48
5.0
100
AcDbTrace
 10
102717.9183413193
 20
-168753.6834732188
 30
0.0
 11
102717.9183413193
 21
-168759.0168065521
 31
0.0
 12
102701.9183413193
 22
-168756.3501398854
 32
0.0
 13
102701.9183413193
 23
-168756.3501398854
 33
0.0
  0
SOLID
  5
D8A99
330
D8A86
100
AcDbEntity
  8
标注
 48
5.0
100
AcDbTrace
 10
102938.3585950525
 20
-168753.6834732188
 30
0.0
 11
102938.3585950525
 21
-168759.0168065521
 31
0.0
 12
102954.3585950525
 22
-168756.3501398854
 32
0.0
 13
102954.3585950525
 23
-168756.3501398854
 33
0.0
  0
MTEXT
  5
D8A9A
330
D8A86
100
AcDbEntity
  8
标注
 48
5.0
100
AcDbMText
 10
102828.1384681859
 20
-168756.3501398854
 30
0.0
 40
20.0
 41
0.0
 71
     5
 72
     1
  1
\A1;252,4
 73
     1
 44
1.0
1001
ACAD
1000
MTEXTBEGIN
1070
    73
1070
     1
1070
    44
1040
1.0
1070
    74
1070
     0
1000
MTEXTEND
  0
POINT
  5
D8A9B
330
D8A86
100
AcDbEntity
  8
Defpoints
 62
     0
 48
5.0
100
AcDbPoint
 10
102701.9183413193
 20
-168788.1954895862
 30
0.0
  0
POINT
  5
D8A9C
330
D8A86
100
AcDbEntity
  8
Defpoints
 62
     0
 48
5.0
100
AcDbPoint
 10
102954.3585950525
 20
-168788.1954895862
 30
0.0
  0
POINT
  5
D8A9D
330
D8A86
100
AcDbEntity
  8
Defpoints
 62
     0
 48
5.0
100
AcDbPoint
 10
102954.3585950525
 20
-168756.3501398854
 30
0.0
  0
ENDBLK
  5
D8A88
330
D8A86
100
AcDbEntity
  8
0
 48
5.0
100
AcDbBlockEnd
  0
BLOCK
  5
D8AA1
330
D8AA0
100
AcDbEntity
  8
0
 48
5.0
100
AcDbBlockBegin
  2
*D17
 70
     1
 10
0.0
 20
0.0
 30
0.0
  3
*D17
  1

  0
LINE
  5
D8B1D
330
D8AA0
100
AcDbEntity
  8
标注
 48
5.0
370
    -2
100
AcDbLine
 10
102701.9183413193
 20
-168781.1954895862
 30
0.0
 11
102701.9183413193
 21
-168714.0020244966
 31
0.0
  0
LINE
  5
D8B1E
330
D8AA0
100
AcDbEntity
  8
标注
 48
5.0
370
    -2
100
AcDbLine
 10
103206.7988487857
 20
-168781.1954895862
 30
0.0
 11
103206.7988487857
 21
-168714.0020244966
 31
0.0
  0
LINE
  5
D8B1F
330
D8AA0
100
AcDbEntity
  8
标注
 48
5.0
370
    -2
100
AcDbLine
 10
102717.9183413193
 20
-168721.0020244966
 30
0.0
 11
102793.7416507908
 21
-168721.0020244966
 31
0.0
  0
LINE
  5
D8B20
330
D8AA0
100
AcDbEntity
  8
标注
 48
5.0
370
    -2
100
AcDbLine
 10
103190.7988487857
 20
-168721.0020244966
 30
0.0
 11
102863.6305396797
 21
-168721.0020244966
 31
0.0
  0
SOLID
  5
D8B21
330
D8AA0
100
AcDbEntity
  8
标注
 48
5.0
100
AcDbTrace
 10
102717.9183413193
 20
-168718.3353578299
 30
0.0
 11
102717.9183413193
 21
-168723.6686911632
 31
0.0
 12
102701.9183413193
 22
-168721.0020244966
 32
0.0
 13
102701.9183413193
 23
-168721.0020244966
 33
0.0
  0
SOLID
  5
D8B22
330
D8AA0
100
AcDbEntity
  8
标注
 48
5.0
100
AcDbTrace
 10
103190.7988487857
 20
-168718.3353578299
 30
0.0
 11
103190.7988487857
 21
-168723.6686911632
 31
0.0
 12
103206.7988487857
 22
-168721.0020244966
 32
0.0
 13
103206.7988487857
 23
-168721.0020244966
 33
0.0
  0
MTEXT
  5
D8B23
330
D8AA0
100
AcDbEntity
  8
标注
 48
5.0
100
AcDbMText
 10
102828.6860952353
 20
-168721.0020244966
 30
0.0
 40
20.0
 41
0.0
 71
     5
 72
     1
  1
\A1;504,9
 73
     1
 44
1.0
1001
ACAD
1000
MTEXTBEGIN
1070
    73
1070
     1
1070
    44
1040
1.0
1070
    74
1070
     0
1000
MTEXTEND
  0
POINT
  5
D8B24
330
D8AA0
100
AcDbEntity
  8
Defpoints
 62
     0
 48
5.0
100
AcDbPoint
 10
102701.9183413193
 20
-168788.1954895862
 30
0.0
  0
POINT
  5
D8B25
330
D8AA0
100
AcDbEntity
  8
Defpoints
 62
     0
 48
5.0
100
AcDbPoint
 10
103206.7988487857
 20
-168788.1954895862
 30
0.0
  0
POINT
  5
D8B26
330
D8AA0
100
AcDbEntity
  8
Defpoints
 62
     0
 48
5.0
100
AcDbPoint
 10
103206.7988487857
 20
-168721.0020244966
 30
0.0
  0
ENDBLK
  5
D8AA2
330
D8AA0
100
AcDbEntity
  8
0
 48
5.0
100
AcDbBlockEnd
  0
BLOCK
  5
D8B2C
330
D8B2B
100
AcDbEntity
  8
0
 48
5.0
100
AcDbBlockBegin
  2
*D18
 70
     1
 10
0.0
 20
0.0
 30
0.0
  3
*D18
  1

  0
LINE
  5
D8B40
330
D8B2B
100
AcDbEntity
  8
标注
 48
5.0
370
    -2
100
AcDbLine
 10
102929.548292582
 20
-168812.8825082665
 30
0.0
 11
102940.89014514
 21
-168801.5970140127
 31
0.0
  0
LINE
  5
D8B41
330
D8B2B
100
AcDbEntity
  8
标注
 48
5.0
370
    -2
100
AcDbLine
 10
102967.8270449651
 20
-168774.7939651598
 30
0.0
 11
102979.168897523
 21
-168763.5084709059
 31
0.0
  0
MTEXT
  5
D8B42
102
{ACAD_XDICTIONARY
360
D8BE2
102
}
330
D8B2B
100
AcDbEntity
  8
标注
 48
5.0
100
AcDbMText
 10
102905.1570798698
 20
-168837.1525196691
 30
0.0
 40
20.0
 41
0.0
 71
     5
 72
     1
  1
\A1;{\fGulim|b0|i0|c129|p34;5-\U+22056}
 11
0.708865784872173
 21
0.7053433908654411
 31
0.0
 73
     1
 44
1.0
1001
ACAD
1000
MTEXTBEGIN
1070
    73
1070
     1
1070
    44
1040
1.0
1070
    74
1070
     0
1000
MTEXTEND
  0
LINE
  5
D8B43
330
D8B2B
100
AcDbEntity
  8
标注
 48
5.0
370
    -2
100
AcDbLine
 10
102956.4851924072
 20
-168786.0794594136
 30
0.0
 11
102952.2319976979
 21
-168790.3115197588
 31
0.0
  0
SOLID
  5
D8B44
330
D8B2B
100
AcDbEntity
  8
标注
 48
5.0
100
AcDbTrace
 10
102965.9461292561
 20
-168772.9036564002
 30
0.0
 11
102969.7079606741
 21
-168776.6842739195
 31
0.0
 12
102956.4851924072
 22
-168786.0794594136
 32
0.0
 13
102956.4851924072
 23
-168786.0794594136
 33
0.0
  0
SOLID
  5
D8B45
330
D8B2B
100
AcDbEntity
  8
标注
 48
5.0
100
AcDbTrace
 10
102939.009229431
 20
-168799.7067052531
 30
0.0
 11
102942.7710608489
 21
-168803.4873227724
 31
0.0
 12
102952.2319976979
 22
-168790.3115197588
 32
0.0
 13
102952.2319976979
 23
-168790.3115197588
 33
0.0
  0
POINT
  5
D8B46
330
D8B2B
100
AcDbEntity
  8
Defpoints
 62
     0
 48
5.0
100
AcDbPoint
 10
102952.2319976979
 20
-168790.3115197588
 30
0.0
  0
POINT
  5
D8B47
330
D8B2B
100
AcDbEntity
  8
Defpoints
 62
     0
 48
5.0
100
AcDbPoint
 10
102956.4851924072
 20
-168786.0794594136
 30
0.0
  0
ENDBLK
  5
D8B2D
330
D8B2B
100
AcDbEntity
  8
0
 48
5.0
100
AcDbBlockEnd
  0
BLOCK
  5
D8B4B
330
D8B4A
100
AcDbEntity
  8
0
 48
5.0
100
AcDbBlockBegin
  2
*D19
 70
     1
 10
0.0
 20
0.0
 30
0.0
  3
*D19
  1

  0
LINE
  5
D8B53
330
D8B4A
100
AcDbEntity
  8
标注
 48
5.0
370
    -2
100
AcDbLine
 10
102896.6616187892
 20
-168582.9263606451
 30
0.0
 11
102894.6010124941
 21
-168567.0596060401
 31
0.0
  0
MTEXT
  5
D8B54
330
D8B4A
100
AcDbEntity
  8
标注
 48
5.0
100
AcDbMText
 10
102900.3034542204
 20
-168610.9686456935
 30
0.0
 40
20.0
 41
0.0
 71
     5
 72
     1
  1
\A1;R480
 11
0.1287878934450849
 21
-0.991672162814898
 31
0.0
 73
     1
 44
1.0
1001
ACAD
1000
MTEXTBEGIN
1070
    73
1070
     1
1070
    44
1040
1.0
1070
    74
1070
     0
1000
MTEXTEND
  0
SOLID
  5
D8B55
330
D8B4A
100
AcDbEntity
  8
标注
 48
5.0
100
AcDbTrace
 10
102897.2454715949
 20
-168566.7161716576
 30
0.0
 11
102891.9565533932
 21
-168567.4030404226
 31
0.0
 12
102892.5404061989
 22
-168551.1928514351
 32
0.0
 13
102892.5404061989
 23
-168551.1928514351
 33
0.0
  0
POINT
  5
D8B56
330
D8B4A
100
AcDbEntity
  8
Defpoints
 62
     0
 48
5.0
100
AcDbPoint
 10
102892.5404061989
 20
-168551.1928514351
 30
0.0
  0
POINT
  5
D8B57
330
D8B4A
100
AcDbEntity
  8
Defpoints
 62
     0
 48
5.0
100
AcDbPoint
 10
102954.3585950524
 20
-169027.1954895852
 30
0.0
  0
ENDBLK
  5
D8B4C
330
D8B4A
100
AcDbEntity
  8
0
 48
5.0
100
AcDbBlockEnd
  0
ENDSEC
  0
SECTION
  2
ENTITIES
  0
LWPOLYLINE
  5
D887A
102
{ACAD_REACTORS
330
D88D4
330
D8922
330
D8932
330
D8952
330
D896C
330
D8B58
102
}
330
1F
100
AcDbEntity
  8
虚线
 48
5.0
100
AcDbPolyline
 90
        9
 70
     0
 43
0.0
 10
102689.8369851731
 20
-168733.1211047613
 10
102683.4239070024
 20
-168917.4400780884
 42
0.4244372736771956
 10
102791.3585950525
 20
-169029.1954895862
 10
103117.3585950525
 20
-169029.1954895862
 42
0.4244372736771956
 10
103225.2932831027
 20
-168917.4400780878
 10
103218.880204932
 20
-168733.1211047623
 42
0.3230953745041019
 10
103089.76733606
 20
-168566.6909045289
 42
0.1439745676510898
 10
102818.9498540455
 20
-168566.6909045288
 42
0.3230953745041019
 10
102689.8369851731
 20
-168733.1211047623
  0
LWPOLYLINE
  5
D8882
102
{ACAD_REACTORS
330
D88EE
330
D89BF
330
D8A84
102
}
330
1F
100
AcDbEntity
  8
细实线
 48
5.0
100
AcDbPolyline
 90
        8
 70
     1
 43
0.0
 10
102685.8394041342
 20
-168732.9820154476
 10
102679.4263259635
 20
-168917.3009887737
 42
0.4244372736772143
 10
102791.3585950525
 20
-169033.1954895862
 10
103117.3585950525
 20
-169033.1954895862
 42
0.4244372736771377
 10
103229.2908641415
 20
-168917.3009887731
 10
103222.8777859709
 20
-168732.9820154475
 42
0.3230953745041097
 10
103090.8957422351
 20
-168562.8533663201
 42
0.1439745676510904
 10
102817.8214478705
 20
-168562.85336632
 42
0.3230953745041098
  0
DIMENSION
  5
D8887
330
1F
100
AcDbEntity
  8
标注
 48
5.0
100
AcDbDimension
  2
*D2
 10
103225.3585950525
 20
-169101.7980792154
 30
0.0
 11
102955.9694649109
 21
-169101.7980792154
 31
0.0
 70
   160
 71
     5
 42
541.9999999999853
  3
副本Standard
100
AcDbAlignedDimension
 13
102683.3585950525
 23
-168921.1954895862
 33
0.0
 14
103225.3585950525
 24
-168921.1954895858
 34
0.0
100
AcDbRotatedDimension
  0
DIMENSION
  5
D88A1
330
1F
100
AcDbEntity
  8
标注
 48
5.0
100
AcDbDimension
  2
*D3
 10
103229.3585950525
 20
-169139.3007382264
 30
0.0
 11
102953.9945543905
 21
-169139.3007382264
 31
0.0
 70
   160
 71
     5
 42
549.9999999999707
  3
副本Standard
100
AcDbAlignedDimension
 13
102679.3585950525
 23
-168921.1954895862
 33
0.0
 14
103229.3585950525
 24
-168921.1954895859
 34
0.0
100
AcDbRotatedDimension
  0
DIMENSION
  5
D88BB
102
{ACAD_XDICTIONARY
360
D88C9
102
}
102
{ACAD_REACTORS
330
D88D4
102
}
330
1F
100
AcDbEntity
  8
标注
 48
5.0
100
AcDbDimension
  2
*D4
 10
103287.9911947122
 20
-168547.1954895861
 30
0.0
 11
103287.9911947122
 21
-168788.1954895861
 31
0.0
 70
    32
 71
     5
 42
482.0
  3
副本Standard
100
AcDbAlignedDimension
 13
103117.3585950522
 23
-169029.1954895862
 33
0.0
 14
102954.3585950528
 24
-168547.1954895861
 34
0.0
 50
90.0
100
AcDbRotatedDimension
  0
DIMENSION
  5
D88D5
102
{ACAD_XDICTIONARY
360
D88E3
102
}
102
{ACAD_REACTORS
330
D88EE
102
}
330
1F
100
AcDbEntity
  8
标注
 48
5.0
100
AcDbDimension
  2
*D5
 10
103326.4246648409
 20
-168543.1954895862
 30
0.0
 11
103326.4246648409
 21
-168788.1954895861
 31
0.0
 70
    32
 71
     5
 42
490.0
  3
副本Standard
100
AcDbAlignedDimension
 13
103117.3585950522
 23
-169033.1954895861
 33
0.0
 14
102954.3585950528
 24
-168543.1954895862
 34
0.0
 50
90.0
100
AcDbRotatedDimension
  0
DIMENSION
  5
D88EF
330
1F
100
AcDbEntity
  8
标注
 48
5.0
100
AcDbDimension
  2
*D6
 10
103287.9911947122
 20
-168543.1954895862
 30
0.0
 11
103287.9911947122
 21
-168504.084378475
 31
0.0
 70
    32
 71
     5
 42
4.0
  3
副本Standard
100
AcDbAlignedDimension
 13
103287.9911947122
 23
-168547.1954895861
 33
0.0
 14
103287.9911947122
 24
-168543.1954895862
 34
0.0
 50
90.0
100
AcDbRotatedDimension
  0
DIMENSION
  5
D88FC
330
1F
100
AcDbEntity
  8
标注
 48
5.0
100
AcDbDimension
  2
*D7
 10
103229.3585950525
 20
-169101.7980792154
 30
0.0
 11
103268.4697061636
 21
-169101.7980792154
 31
0.0
 70
    32
 71
     5
 42
3.999999999985448
  3
副本Standard
100
AcDbAlignedDimension
 13
103225.3585950525
 23
-169101.7980792154
 33
0.0
 14
103229.3585950525
 24
-169071.2710147838
 34
0.0
100
AcDbRotatedDimension
  0
DIMENSION
  5
D8913
102
{ACAD_XDICTIONARY
360
D891C
102
}
102
{ACAD_REACTORS
330
D8922
102
}
330
1F
100
AcDbEntity
  8
标注
 48
5.0
100
AcDbDimension
  2
*D8
 10
102791.3585950525
 20
-168921.1954895862
 30
0.0
 11
102755.0179647306
 21
-168952.2983249165
 31
0.0
 70
   164
 71
     5
 42
108.0000000000145
  3
副本Standard
100
AcDbRadialDimension
 15
102709.3072764162
 25
-168991.4207066385
 35
0.0
 40
0.0
1001
ACAD
1000
DSTYLE
1002
{
1070
   288
1070
     1
1002
}
1001
ACAD_DSTYLE_DIMRADIAL_EXTENSION
1070
   387
1070
     1
1070
   388
1040
3.106813313801406
1070
   390
1040
4.712388980384688
  0
DIMENSION
  5
D8923
102
{ACAD_XDICTIONARY
360
D892C
102
}
102
{ACAD_REACTORS
330
D8932
102
}
330
1F
100
AcDbEntity
  8
标注
 48
5.0
100
AcDbDimension
  2
*D9
 10
102869.7281319231
 20
-168739.3801239252
 30
0.0
 11
102762.2794950564
 21
-168686.5767061451
 31
0.0
 70
   164
 71
     5
 42
179.9999999997963
  3
副本Standard
100
AcDbRadialDimension
 15
102708.1812254506
 25
-168659.9912266594
 35
0.0
 40
0.0
1001
ACAD
1000
DSTYLE
1002
{
1070
   288
1070
     1
1002
}
1001
ACAD_DSTYLE_DIMRADIAL_EXTENSION
1070
   387
1070
     1
1070
   388
1040
1.856780245151489
1070
   390
1040
3.106813313801568
  0
DIMENSION
  5
D8943
102
{ACAD_XDICTIONARY
360
D894C
102
}
102
{ACAD_REACTORS
330
D8952
102
}
330
1F
100
AcDbEntity
  8
标注
 48
5.0
100
AcDbDimension
  2
*D10
 10
103038.9890581819
 20
-168739.3801239248
 30
0.0
 11
103121.4083247151
 21
-168652.5442154659
 31
0.0
 70
   164
 71
     5
 42
179.9999999996071
  3
副本Standard
100
AcDbRadialDimension
 15
103162.9047999766
 25
-168608.8240480979
 35
0.0
 40
0.0
1001
ACAD
1000
DSTYLE
1002
{
1070
   288
1070
     1
1002
}
1001
ACAD_DSTYLE_DIMRADIAL_EXTENSION
1070
   387
1070
     1
1070
   388
1040
0.0347793397869958
1070
   390
1040
1.284812408436932
  0
DIMENSION
  5
D8953
102
{ACAD_XDICTIONARY
360
D8961
102
}
102
{ACAD_REACTORS
330
D896C
102
}
330
1F
100
AcDbEntity
  8
标注
 48
5.0
100
AcDbDimension
  2
*D11
 10
102683.4239070024
 20
-168917.4400780884
 30
0.0
 11
102794.4085397865
 21
-168918.2498171662
 31
0.0
 70
    34
 71
     5
 42
1.53601698700111
  3
副本Standard
100
AcDb2LineAngularDimension
 13
102791.3585950525
 23
-169029.1954895862
 33
0.0
 14
103117.3585950525
 24
-169029.1954895862
 34
0.0
 15
102689.8369851731
 25
-168733.1211047613
 35
0.0
 16
102818.7579964763
 26
-168950.9531936151
 36
0.0
  0
LINE
  5
D8987
102
{ACAD_REACTORS
330
D8A84
330
D8A9E
102
}
330
1F
100
AcDbEntity
  8
虚线
 48
5.0
100
AcDbLine
 10
102701.9183413193
 20
-168788.1954895862
 30
0.0
 11
102951.3585950525
 21
-168788.1954895862
 31
0.0
  0
LINE
  5
D8988
102
{ACAD_REACTORS
330
D89BF
102
}
330
1F
100
AcDbEntity
  8
虚线
 48
5.0
100
AcDbLine
 10
102954.3585950525
 20
-169015.1954895962
 30
0.0
 11
102954.3585950525
 21
-168791.1954895862
 31
0.0
  0
CIRCLE
  5
D8989
102
{ACAD_REACTORS
330
D8A9E
330
D8B3F
102
}
330
1F
100
AcDbEntity
  8
细实线
 48
5.0
100
AcDbCircle
 10
102954.3585950525
 20
-168788.1954895862
 30
0.0
 40
3.0
  0
CIRCLE
  5
D898A
330
1F
100
AcDbEntity
  8
细实线
 48
5.0
100
AcDbCircle
 10
102954.3585950525
 20
-169015.1954895962
 30
0.0
 40
3.0
  0
CIRCLE
  5
D898B
102
{ACAD_REACTORS
330
D8A84
102
}
330
1F
100
AcDbEntity
  8
细实线
 48
5.0
100
AcDbCircle
 10
102701.9183413193
 20
-168788.1954895862
 30
0.0
 40
3.0
  0
CIRCLE
  5
D898C
102
{ACAD_REACTORS
330
D8AB8
102
}
330
1F
100
AcDbEntity
  8
细实线
 48
5.0
100
AcDbCircle
 10
103206.7988487857
 20
-168788.1954895862
 30
0.0
 40
3.0
  0
CIRCLE
  5
D898D
102
{ACAD_REACTORS
330
D89F8
102
}
330
1F
100
AcDbEntity
  8
细实线
 48
5.0
100
AcDbCircle
 10
102954.3585950525
 20
-168561.1954895762
 30
0.0
 40
3.0
  0
LINE
  5
D89A2
330
1F
100
AcDbEntity
  8
虚线
 48
5.0
100
AcDbLine
 10
102954.3585950525
 20
-168785.1954895862
 30
0.0
 11
102954.3585950525
 21
-168561.1954895762
 31
0.0
  0
LINE
  5
D89A3
102
{ACAD_REACTORS
330
D8A68
102
}
330
1F
100
AcDbEntity
  8
虚线
 48
5.0
100
AcDbLine
 10
102957.3585950525
 20
-168788.1954895862
 30
0.0
 11
103206.7988487857
 21
-168788.1954895862
 31
0.0
  0
DIMENSION
  5
D89A4
102
{ACAD_XDICTIONARY
360
D89B3
102
}
102
{ACAD_REACTORS
330
D89BF
102
}
330
1F
100
AcDbEntity
  8
标注
 48
5.0
100
AcDbDimension
  2
*D12
 10
102993.9625081548
 20
-169015.1954895962
 30
0.0
 11
102993.9625081549
 21
-169077.9732673639
 31
0.0
 70
   160
 71
     5
 42
17.99999998995918
  3
副本Standard
100
AcDbAlignedDimension
 13
102954.3585950525
 23
-169033.1954895862
 33
0.0
 14
102954.3585950525
 24
-169015.1954895962
 34
0.0
 50
90.0
100
AcDbRotatedDimension
  0
DIMENSION
  5
D89DF
102
{ACAD_XDICTIONARY
360
D89ED
102
}
102
{ACAD_REACTORS
330
D89F8
102
}
330
1F
100
AcDbEntity
  8
标注
 48
5.0
100
AcDbDimension
  2
*D13
 10
103030.0502037684
 20
-168561.1954895762
 30
0.0
 11
103030.0502037684
 21
-168869.6722845803
 31
0.0
 70
   160
 71
     5
 42
454.0000000200524
  3
副本Standard
100
AcDbAlignedDimension
 13
102954.3585950525
 23
-169015.1954895962
 33
0.0
 14
102954.3585950525
 24
-168561.1954895762
 34
0.0
 50
90.0
100
AcDbRotatedDimension
  0
DIMENSION
  5
D8A53
102
{ACAD_XDICTIONARY
360
D8A5F
102
}
102
{ACAD_REACTORS
330
D8A68
102
}
330
1F
100
AcDbEntity
  8
标注
 48
5.0
100
AcDbDimension
  2
*D14
 10
102993.9625081549
 20
-168788.1954895862
 30
0.0
 11
102993.9625081549
 21
-168901.6954895912
 31
0.0
 70
    32
 71
     5
 42
227.0000000100408
  3
副本Standard
100
AcDbAlignedDimension
 13
102993.9625081548
 23
-169015.1954895962
 33
0.0
 14
102993.9625081549
 24
-168788.1954895862
 34
0.0
 50
90.0
100
AcDbRotatedDimension
  0
DIMENSION
  5
D8A69
102
{ACAD_XDICTIONARY
360
D8A78
102
}
102
{ACAD_REACTORS
330
D8A84
102
}
330
1F
100
AcDbEntity
  8
标注
 48
5.0
100
AcDbDimension
  2
*D15
 10
102683.9183413193
 20
-168756.3501398854
 30
0.0
 11
102639.1405635416
 21
-168756.3501398854
 31
0.0
 70
    32
 71
     5
 42
17.99999999998545
  3
副本Standard
100
AcDbAlignedDimension
 13
102701.9183413193
 23
-168788.1954895862
 33
0.0
 14
102683.9183413193
 24
-168788.1954895862
 34
0.0
100
AcDbRotatedDimension
  0
DIMENSION
  5
D8A85
102
{ACAD_XDICTIONARY
360
D8A93
102
}
102
{ACAD_REACTORS
330
D8A9E
102
}
330
1F
100
AcDbEntity
  8
标注
 48
5.0
100
AcDbDimension
  2
*D16
 10
102954.3585950525
 20
-168756.3501398854
 30
0.0
 11
102828.1384681859
 21
-168756.3501398854
 31
0.0
 70
    32
 71
     5
 42
252.4402537331771
  3
副本Standard
100
AcDbAlignedDimension
 13
102701.9183413193
 23
-168788.1954895862
 33
0.0
 14
102954.3585950525
 24
-168788.1954895862
 34
0.0
100
AcDbRotatedDimension
  0
DIMENSION
  5
D8A9F
102
{ACAD_XDICTIONARY
360
D8AAD
102
}
102
{ACAD_REACTORS
330
D8AB8
102
}
330
1F
100
AcDbEntity
  8
标注
 48
5.0
100
AcDbDimension
  2
*D17
 10
103206.7988487857
 20
-168721.0020244966
 30
0.0
 11
102828.6860952353
 21
-168721.0020244966
 31
0.0
 70
   160
 71
     5
 42
504.8805074663687
  3
副本Standard
100
AcDbAlignedDimension
 13
102701.9183413193
 23
-168788.1954895862
 33
0.0
 14
103206.7988487857
 24
-168788.1954895862
 34
0.0
100
AcDbRotatedDimension
  0
DIMENSION
  5
D8B2A
102
{ACAD_XDICTIONARY
360
D8B36
102
}
102
{ACAD_REACTORS
330
D8B3F
102
}
330
1F
100
AcDbEntity
  8
标注
 48
5.0
100
AcDbDimension
  2
*D18
 10
102956.4851924072
 20
-168786.0794594136
 30
0.0
 11
102905.1570798698
 21
-168837.1525196691
 31
0.0
 70
    35
  1
{\fGulim|b0|i0|c129|p34;5-<>}
 71
     5
 42
5.999999999985447
  3
副本Standard
100
AcDbDiametricDimension
 15
102952.2319976979
 25
-168790.3115197588
 35
0.0
 40
0.0
1001
ACAD
1000
DSTYLE
1002
{
1070
   288
1070
     1
1002
}
1001
ACAD_DSTYLE_DIMRADIAL_EXTENSION
1070
   387
1070
     1
1070
   388
1040
0.0
1070
   390
1040
0.0
  0
DIMENSION
  5
D8B49
102
{ACAD_XDICTIONARY
360
D8B52
102
}
102
{ACAD_REACTORS
330
D8B58
102
}
330
1F
100
AcDbEntity
  8
标注
 48
5.0
100
AcDbDimension
  2
*D19
 10
102954.3585950524
 20
-169027.1954895852
 30
0.0
 11
102900.3034542204
 21
-168610.9686456935
 31
0.0
 70
   164
 71
     5
 42
479.9999999989521
  3
副本Standard
100
AcDbRadialDimension
 15
102892.5404061989
 25
-168551.1928514351
 35
0.0
 40
0.0
1001
ACAD
1000
DSTYLE
1002
{
1070
   288
1070
     1
1002
}
1001
ACAD_DSTYLE_DIMRADIAL_EXTENSION
1070
   387
1070
     1
1070
   388
1040
1.284812408437685
1070
   390
1040
1.856780245151061
  0
ENDSEC
  0
SECTION
  2
OBJECTS
  0
DICTIONARY
  5
C
330
0
100
AcDbDictionary
281
     1
  3
ACAD_2007HEADERVARS_RT
350
D8BD3
  3
ACAD_COLOR
350
6C
  3
ACAD_GROUP
350
D
  3
ACAD_LAYOUT
350
1A
  3
ACAD_MATERIAL
350
6B
  3
ACAD_MLEADERSTYLE
350
CEDBA
  3
ACAD_MLINESTYLE
350
17
  3
ACAD_PLOTSETTINGS
350
19
  3
ACAD_PLOTSTYLENAME
350
E
  3
ACAD_SCALELIST
350
CED98
  3
ACAD_TABLESTYLE
350
FAF
  3
ACAD_VISUALSTYLE
350
CED87
  3
AcadDim
350
100FD
  3
ACDB_RECOMPOSE_DATA
350
D0C4C
  3
AcDbVariableDictionary
350
59
  3
ASE_INDEX_DICTIONARY
350
C2668
  3
DWGPROPS
350
D8BD2
  3
lxx_dict
350
A9D16
  0
DICTIONARY
  5
AB
330
2
100
AcDbDictionary
280
     1
281
     1
  3
ACAD_LAYERFILTERS
360
D5CEC
  3
ACAD_LAYERSTATES
360
AC
  3
ACLYDICTIONARY
360
D5CEB
  0
DICTIONARY
  5
CF251
330
10
100
AcDbDictionary
280
     1
281
     1
  3
ADSK_XREC_LAYER_RECONCILED
360
CF252
  0
DICTIONARY
  5
CF259
330
9D
100
AcDbDictionary
280
     1
281
     1
  3
ADSK_XREC_LAYER_RECONCILED
360
CF25A
  0
DICTIONARY
  5
CF25B
330
9E
100
AcDbDictionary
280
     1
281
     1
  3
ADSK_XREC_LAYER_RECONCILED
360
CF25C
  0
DICTIONARY
  5
CF25D
330
16DF9
100
AcDbDictionary
280
     1
281
     1
  3
ADSK_XREC_LAYER_RECONCILED
360
CF25E
  0
DICTIONARY
  5
D81F5
330
D81F4
100
AcDbDictionary
280
     1
281
     1
  0
DICTIONARY
  5
118B
330
1F
100
AcDbDictionary
280
     1
281
     1
  3
ACAD_SORTENTS
360
118C
  0
DICTIONARY
  5
D8BE2
330
D8B42
100
AcDbDictionary
280
     1
281
     1
  3
ACAD_MTEXT_RT
360
D8BE3
  0
DICTIONARY
  5
D88C9
330
D88BB
100
AcDbDictionary
280
     1
281
     1
  3
ACAD_DIMASSOC
360
D88D4
  0
DICTIONARY
  5
D88E3
330
D88D5
100
AcDbDictionary
280
     1
281
     1
  3
ACAD_DIMASSOC
360
D88EE
  0
DICTIONARY
  5
D891C
330
D8913
100
AcDbDictionary
280
     1
281
     1
  3
ACAD_DIMASSOC
360
D8922
  0
DICTIONARY
  5
D892C
330
D8923
100
AcDbDictionary
280
     1
281
     1
  3
ACAD_DIMASSOC
360
D8932
  0
DICTIONARY
  5
D894C
330
D8943
100
AcDbDictionary
280
     1
281
     1
  3
ACAD_DIMASSOC
360
D8952
  0
DICTIONARY
  5
D8961
330
D8953
100
AcDbDictionary
280
     1
281
     1
  3
ACAD_DIMASSOC
360
D896C
  0
DICTIONARY
  5
D89B3
330
D89A4
100
AcDbDictionary
280
     1
281
     1
  3
ACAD_DIMASSOC
360
D89BF
  0
DICTIONARY
  5
D89ED
330
D89DF
100
AcDbDictionary
280
     1
281
     1
  3
ACAD_DIMASSOC
360
D89F8
  0
DICTIONARY
  5
D8A5F
330
D8A53
100
AcDbDictionary
280
     1
281
     1
  3
ACAD_DIMASSOC
360
D8A68
  0
DICTIONARY
  5
D8A78
330
D8A69
100
AcDbDictionary
280
     1
281
     1
  3
ACAD_DIMASSOC
360
D8A84
  0
DICTIONARY
  5
D8A93
330
D8A85
100
AcDbDictionary
280
     1
281
     1
  3
ACAD_DIMASSOC
360
D8A9E
  0
DICTIONARY
  5
D8AAD
330
D8A9F
100
AcDbDictionary
280
     1
281
     1
  3
ACAD_DIMASSOC
360
D8AB8
  0
DICTIONARY
  5
D8B36
330
D8B2A
100
AcDbDictionary
280
     1
281
     1
  3
ACAD_DIMASSOC
360
D8B3F
  0
DICTIONARY
  5
D8B52
330
D8B49
100
AcDbDictionary
280
     1
281
     1
  3
ACAD_DIMASSOC
360
D8B58
  0
DICTIONARY
  5
D8BD3
102
{ACAD_REACTORS
330
C
102
}
330
C
100
AcDbDictionary
281
     1
  3
DIMARCSYM
350
D8BD6
  3
DIMFXL
350
D8BD5
  3
DIMFXLON
350
D8BD4
  3
DIMJOGANG
350
D8BD7
  3
DIMLTEX1
350
D8BD9
  3
DIMLTEX2
350
D8BDA
  3
DIMLTYPE
350
D8BD8
  0
DICTIONARY
  5
6C
102
{ACAD_REACTORS
330
C
102
}
330
C
100
AcDbDictionary
281
     1
  0
DICTIONARY
  5
D
102
{ACAD_REACTORS
330
C
102
}
330
C
100
AcDbDictionary
281
     1
  0
DICTIONARY
  5
1A
102
{ACAD_REACTORS
330
C
102
}
330
C
100
AcDbDictionary
281
     1
  3
Model
350
22
  3
布局1
350
74
  3
布局2
350
79
  0
DICTIONARY
  5
6B
102
{ACAD_REACTORS
330
C
102
}
330
C
100
AcDbDictionary
281
     1
  3
ByBlock
350
CED77
  3
ByLayer
350
CED6F
  3
Global
350
CED7F
  0
DICTIONARY
  5
CEDBA
102
{ACAD_REACTORS
330
C
102
}
330
C
100
AcDbDictionary
281
     1
  3
Standard
350
CEDBB
  0
DICTIONARY
  5
17
102
{ACAD_REACTORS
330
C
102
}
330
C
100
AcDbDictionary
281
     1
  3
Standard
350
18
  0
DICTIONARY
  5
19
102
{ACAD_REACTORS
330
C
102
}
330
C
100
AcDbDictionary
281
     1
  0
ACDBDICTIONARYWDFLT
  5
E
102
{ACAD_REACTORS
330
C
102
}
330
C
100
AcDbDictionary
281
     1
  3
Normal
350
F
100
AcDbDictionaryWithDefault
340
F
  0
DICTIONARY
  5
CED98
102
{ACAD_REACTORS
330
C
102
}
330
C
100
AcDbDictionary
281
     1
  3
A0
350
CED99
  3
A1
350
CED9A
  3
A2
350
CED9B
  3
A3
350
CED9C
  3
A4
350
CED9D
  3
A5
350
CED9E
  3
A6
350
CED9F
  3
A7
350
CEDA0
  3
A8
350
CEDA1
  3
A9
350
CEDA2
  3
B0
350
CEDA3
  3
B1
350
CEDA4
  3
B2
350
CEDA5
  3
B3
350
CEDA6
  3
B4
350
CEDA7
  3
B5
350
CEDA8
  3
B6
350
CEDA9
  3
B7
350
CEDAA
  3
B8
350
CEDAB
  3
B9
350
CEDAC
  3
C0
350
CEDAD
  3
C1
350
CEDAE
  3
C2
350
CEDAF
  3
C3
350
CEDB0
  3
C4
350
CEDB1
  3
C5
350
CEDB2
  3
C6
350
CEDB3
  3
C7
350
CEDB4
  3
C8
350
CEDB5
  3
C9
350
CEDB6
  3
D0
350
CEDB7
  3
D1
350
CEDB8
  3
D2
350
CEDB9
  0
DICTIONARY
  5
FAF
102
{ACAD_REACTORS
330
C
102
}
330
C
100
AcDbDictionary
281
     1
  3
Standard
350
FB0
  0
DICTIONARY
  5
CED87
102
{ACAD_REACTORS
330
C
102
}
330
C
100
AcDbDictionary
281
     1
  3
2dWireframe
350
CED8D
  3
3D Hidden
350
CED8F
  3
3dWireframe
350
CED8E
  3
Basic
350
CED8C
  3
Brighten
350
CED93
  3
ColorChange
350
CED97
  3
Conceptual
350
CED90
  3
Dim
350
CED92
  3
Facepattern
350
CED96
  3
Flat
350
CED88
  3
FlatWithEdges
350
CED89
  3
Gouraud
350
CED8A
  3
GouraudWithEdges
350
CED8B
  3
Linepattern
350
CED95
  3
Realistic
350
CED91
  3
Thicken
350
CED94
  0
XRECORD
  5
100FD
102
{ACAD_REACTORS
330
C
102
}
330
C
100
AcDbXrecord
280
     1
 90
   990106
  3

 60
     0
 61
     0
 62
     1
 63
     3
 64
     0
 65
     0
 66
     0
 67
     3
 68
     1
 69
     0
 70
     0
 71
     0
 72
     0
 40
0.0
170
     0
  0
XRECORD
  5
D0C4C
102
{ACAD_REACTORS
330
C
102
}
330
C
100
AcDbXrecord
280
     1
 90
        1
330
FB0
  0
DICTIONARY
  5
59
102
{ACAD_REACTORS
330
C
102
}
330
C
100
AcDbDictionary
281
     1
  3
CANNOSCALE
350
D0C4F
  3
CMLEADERSTYLE
350
D0C4D
  3
CTABLESTYLE
350
100D
  3
DIMASSOC
350
5A
  3
HIDETEXT
350
5E
  3
INDEXCTL
350
D8BA9
  3
LIGHTINGUNITS
350
D0C50
  3
MSLTSCALE
350
D0C4E
  3
SORTENTS
350
D8BA8
  0
DICTIONARY
  5
C2668
102
{ACAD_REACTORS
330
C
102
}
330
C
100
AcDbDictionary
281
     1
  3
ASEBlockHierarchyIndexRecord
350
C2669
1001
DCO15
1040
1779131318.625
  0
XRECORD
  5
D8BD2
102
{ACAD_REACTORS
330
C
102
}
330
C
100
AcDbXrecord
280
     1
  1
DWGPROPS COOKIE
  2

  3

  4

  6

  7

  8
Administrator
  9

300
=
301
=
302
=
303
=
304
=
305
=
306
=
307
=
308
=
309
=
 40
8.861383599537036
 41
2454355.343801713
 42
2457938.597492454
  1

 90
        0
  0
DICTIONARY
  5
A9D16
102
{ACAD_REACTORS
330
C
102
}
330
C
100
AcDbDictionary
281
     1
  3
lxx_dimth
350
A9D17
  0
DICTIONARY
  5
D5CEC
102
{ACAD_REACTORS
330
AB
102
}
330
AB
100
AcDbDictionary
281
     1
  0
DICTIONARY
  5
AC
102
{ACAD_REACTORS
330
AB
102
}
330
AB
100
AcDbDictionary
281
     1
  0
DICTIONARY
  5
D5CEB
102
{ACAD_REACTORS
330
AB
102
}
330
AB
100
AcDbDictionary
281
     1
1001
ACAD
1000
<All
  0
XRECORD
  5
CF252
102
{ACAD_REACTORS
330
CF251
102
}
330
CF251
100
AcDbXrecord
280
     1
290
     1
  0
XRECORD
  5
CF25A
102
{ACAD_REACTORS
330
CF259
102
}
330
CF259
100
AcDbXrecord
280
     1
290
     1
  0
XRECORD
  5
CF25C
102
{ACAD_REACTORS
330
CF25B
102
}
330
CF25B
100
AcDbXrecord
280
     1
290
     1
  0
XRECORD
  5
CF25E
102
{ACAD_REACTORS
330
CF25D
102
}
330
CF25D
100
AcDbXrecord
280
     1
290
     1
  0
SORTENTSTABLE
  5
118C
102
{ACAD_REACTORS
330
118B
102
}
330
118B
100
AcDbSortentsTable
330
1F
331
D8988
  5
D8989
331
D88A1
  5
D88A1
331
D8882
  5
D8882
331
D8989
  5
D898B
331
D887A
  5
D8881
331
D898A
  5
D898C
331
D89A2
  5
D898A
331
D88BB
  5
D88BB
331
D8913
  5
D8913
331
D8923
  5
D8923
331
D8943
  5
D8943
331
D898B
  5
D898D
331
D8953
  5
D8953
331
D89A3
  5
D8988
331
D88FC
  5
D88FC
331
D898C
  5
D89A2
331
D88D5
  5
D88D5
331
D898D
  5
D89A3
331
D8887
  5
D8887
331
D88EF
  5
D88EF
331
D8987
  5
D8987
  0
XRECORD
  5
D8BE3
102
{ACAD_REACTORS
330
D8BE2
102
}
330
D8BE2
100
AcDbXrecord
280
     1
 40
57865.0
  1
\A1;{\fGulim|b0|i0|c129|p34;5-\U+22056}
  0
DIMASSOC
  5
D88D4
102
{ACAD_REACTORS
330
D88C9
102
}
330
D88C9
100
AcDbDimAssoc
330
D88BB
 90
        3
 70
     0
 71
     0
  1
AcDbOsnapPointRef
 72
     6
331
D887A
 73
     2
 91
        3
 40
0.999999999999018
 10
0.0
 20
0.0
 30
0.0
332
D887A
 74
     2
 92
        4
 75
     0
  1
AcDbOsnapPointRef
 72
     2
331
D887A
 73
     2
 91
        7
 40
1.57079632679435
 10
0.0
 20
0.0
 30
0.0
 75
     0
  0
DIMASSOC
  5
D88EE
102
{ACAD_REACTORS
330
D88E3
102
}
330
D88E3
100
AcDbDimAssoc
330
D88D5
 90
        3
 70
     0
 71
     0
  1
AcDbOsnapPointRef
 72
     6
331
D8882
 73
     2
 91
        3
 40
0.999999999999018
 10
0.0
 20
0.0
 30
0.0
332
D8882
 74
     2
 92
        4
 75
     0
  1
AcDbOsnapPointRef
 72
     2
331
D8882
 73
     2
 91
        7
 40
1.570796326794384
 10
0.0
 20
0.0
 30
0.0
 75
     0
  0
DIMASSOC
  5
D8922
102
{ACAD_REACTORS
330
D891C
102
}
330
D891C
100
AcDbDimAssoc
330
D8913
 90
        2
 70
     0
 71
     0
  1
AcDbOsnapPointRef
 72
     3
331
D887A
 73
     2
 91
        2
 40
0.0
 10
0.0
 20
0.0
 30
0.0
 75
     0
  0
DIMASSOC
  5
D8932
102
{ACAD_REACTORS
330
D892C
102
}
330
D892C
100
AcDbDimAssoc
330
D8923
 90
        2
 70
     0
 71
     0
  1
AcDbOsnapPointRef
 72
     3
331
D887A
 73
     2
 91
        8
 40
0.0
 10
0.0
 20
0.0
 30
0.0
 75
     0
  0
DIMASSOC
  5
D8952
102
{ACAD_REACTORS
330
D894C
102
}
330
D894C
100
AcDbDimAssoc
330
D8943
 90
        2
 70
     0
 71
     0
  1
AcDbOsnapPointRef
 72
     3
331
D887A
 73
     2
 91
        6
 40
0.0
 10
0.0
 20
0.0
 30
0.0
 75
     0
  0
DIMASSOC
  5
D896C
102
{ACAD_REACTORS
330
D8961
102
}
330
D8961
100
AcDbDimAssoc
330
D8953
 90
       15
 70
     0
 71
     0
  1
AcDbOsnapPointRef
 72
    13
331
D887A
 73
     2
 91
        3
 40
0.0
 10
0.0
 20
0.0
 30
2.000000000000000E+50
 75
     0
  1
AcDbOsnapPointRef
 72
     1
331
D887A
 73
     2
 91
        3
 40
1.0
 10
0.0
 20
0.0
 30
2.000000000000000E+50
 75
     0
  1
AcDbOsnapPointRef
 72
    13
331
D887A
 73
     2
 91
        1
 40
0.0
 10
0.0
 20
0.0
 30
2.000000000000000E+50
 75
     0
  1
AcDbOsnapPointRef
 72
     1
331
D887A
 73
     2
 91
        1
 40
1.0
 10
0.0
 20
0.0
 30
2.000000000000000E+50
 75
     0
  0
DIMASSOC
  5
D89BF
102
{ACAD_REACTORS
330
D89B3
102
}
330
D89B3
100
AcDbDimAssoc
330
D89A4
 90
        3
 70
     0
 71
     0
  1
AcDbOsnapPointRef
 72
     2
331
D8882
 73
     2
 91
        3
 40
0.5
 10
0.0
 20
0.0
 30
0.0
 75
     0
  1
AcDbOsnapPointRef
 72
    13
331
D8988
 73
     2
 91
        0
 40
0.0
 10
0.0
 20
0.0
 30
2.000000000000000E+50
 75
     0
  0
DIMASSOC
  5
D89F8
102
{ACAD_REACTORS
330
D89ED
102
}
330
D89ED
100
AcDbDimAssoc
330
D89DF
 90
        2
 70
     0
 71
     0
  1
AcDbOsnapPointRef
 72
     3
331
D898D
 73
     2
 91
        0
 40
0.0
 10
0.0
 20
0.0
 30
0.0
 75
     0
  0
DIMASSOC
  5
D8A68
102
{ACAD_REACTORS
330
D8A5F
102
}
330
D8A5F
100
AcDbDimAssoc
330
D8A53
 90
        2
 70
     0
 71
     0
  1
AcDbOsnapPointRef
 72
     8
331
D89A3
 73
     2
 91
        0
 40
0.1467442105054448
 10
0.0
 20
0.0
 30
0.0
 75
     1
  1
AcDbOsnapPointRef
 72
     0
 40
0.0
 10
102993.9625081548
 20
-169015.1954895962
 30
0.0
 75
     0
  0
DIMASSOC
  5
D8A84
102
{ACAD_REACTORS
330
D8A78
102
}
330
D8A78
100
AcDbDimAssoc
330
D8A69
 90
        3
 70
     0
 71
     0
  1
AcDbOsnapPointRef
 72
     3
331
D898B
 73
     2
 91
        0
 40
0.0
 10
0.0
 20
0.0
 30
0.0
 75
     0
  1
AcDbOsnapPointRef
 72
     6
331
D8882
 73
     2
 91
        1
 40
0.2995539370814356
 10
0.0
 20
0.0
 30
0.0
332
D8987
 74
     2
 92
        0
 75
     0
  0
DIMASSOC
  5
D8A9E
102
{ACAD_REACTORS
330
D8A93
102
}
330
D8A93
100
AcDbDimAssoc
330
D8A85
 90
        3
 70
     0
 71
     0
  1
AcDbOsnapPointRef
 72
    13
331
D8987
 73
     2
 91
        0
 40
0.0
 10
0.0
 20
0.0
 30
2.000000000000000E+50
 75
     0
  1
AcDbOsnapPointRef
 72
     3
331
D8989
 73
     2
 91
        0
 40
0.0
 10
0.0
 20
0.0
 30
0.0
 75
     0
  0
DIMASSOC
  5
D8AB8
102
{ACAD_REACTORS
330
D8AAD
102
}
330
D8AAD
100
AcDbDimAssoc
330
D8A9F
 90
        2
 70
     0
 71
     0
  1
AcDbOsnapPointRef
 72
     3
331
D898C
 73
     2
 91
        0
 40
0.0
 10
0.0
 20
0.0
 30
0.0
 75
     0
  0
DIMASSOC
  5
D8B3F
102
{ACAD_REACTORS
330
D8B36
102
}
330
D8B36
100
AcDbDimAssoc
330
D8B2A
 90
        2
 70
     0
 71
     0
  1
AcDbOsnapPointRef
 72
     3
331
D8989
 73
     2
 91
        0
 40
0.0
 10
0.0
 20
0.0
 30
0.0
 75
     0
  0
DIMASSOC
  5
D8B58
102
{ACAD_REACTORS
330
D8B52
102
}
330
D8B52
100
AcDbDimAssoc
330
D8B49
 90
        2
 70
     0
 71
     0
  1
AcDbOsnapPointRef
 72
     3
331
D887A
 73
     2
 91
        7
 40
0.0
 10
0.0
 20
0.0
 30
0.0
 75
     0
  0
XRECORD
  5
D8BD6
102
{ACAD_REACTORS
330
D8BD3
102
}
330
D8BD3
100
AcDbXrecord
280
     1
 70
     1
  0
XRECORD
  5
D8BD5
102
{ACAD_REACTORS
330
D8BD3
102
}
330
D8BD3
100
AcDbXrecord
280
     1
 40
1.25
  0
XRECORD
  5
D8BD4
102
{ACAD_REACTORS
330
D8BD3
102
}
330
D8BD3
100
AcDbXrecord
280
     1
290
     1
  0
XRECORD
  5
D8BD7
102
{ACAD_REACTORS
330
D8BD3
102
}
330
D8BD3
100
AcDbXrecord
280
     1
 40
1.570796326794896
  0
XRECORD
  5
D8BD9
102
{ACAD_REACTORS
330
D8BD3
102
}
330
D8BD3
100
AcDbXrecord
280
     1
340
14
  0
XRECORD
  5
D8BDA
102
{ACAD_REACTORS
330
D8BD3
102
}
330
D8BD3
100
AcDbXrecord
280
     1
340
14
  0
XRECORD
  5
D8BD8
102
{ACAD_REACTORS
330
D8BD3
102
}
330
D8BD3
100
AcDbXrecord
280
     1
340
14
  0
LAYOUT
  5
22
102
{ACAD_XDICTIONARY
360
D8BDB
102
}
102
{ACAD_REACTORS
330
1A
102
}
330
1A
100
AcDbPlotSettings
  1

  2
\\PC-201204061032\Canon LBP2900
  4
A4
  6

 40
5.873749732971191
 41
6.805091857910156
 42
5.873748779296875
 43
4.857757568359375
 44
209.9733276367186
 45
296.9259948730469
 46
-5.889999999999998
 47
-5.87
 48
85766.02374884076
 49
-163980.7810393121
140
88736.02374884079
141
-161880.7810393122
142
1.0
143
10.0
 70
 11940
 72
     1
 73
     1
 74
     4
  7
monochrome.ctb
 75
     0
147
0.1
148
-85766.02374884076
149
163980.7810393121
100
AcDbLayout
  1
Model
 70
     1
 71
     0
 10
0.0
 20
0.0
 11
12.0
 21
9.0
 12
0.0
 22
0.0
 32
0.0
 14
0.0
 24
0.0
 34
0.0
 15
0.0
 25
0.0
 35
0.0
146
0.0
 13
0.0
 23
0.0
 33
0.0
 16
1.0
 26
0.0
 36
0.0
 17
0.0
 27
1.0
 37
0.0
 76
     0
330
1F
331
CED6D
  0
LAYOUT
  5
74
102
{ACAD_XDICTIONARY
360
D8BDD
102
}
102
{ACAD_REACTORS
330
1A
102
}
330
1A
100
AcDbPlotSettings
  1

  2
\\ADSCCNDC1\hq601xrx1
  4

  6

 40
0.0
 41
0.0
 42
0.0
 43
0.0
 44
0.0
 45
0.0
 46
0.0
 47
0.0
 48
0.0
 49
0.0
140
0.0
141
0.0
142
1.0
143
1.0
 70
   688
 72
     0
 73
     0
 74
     5
  7
monochrome.ctb
 75
    16
147
1.0
148
0.0
149
0.0
100
AcDbLayout
  1
布局1
 70
     1
 71
     1
 10
0.0
 20
0.0
 11
12.0
 21
9.0
 12
0.0
 22
0.0
 32
0.0
 14
0.0
 24
0.0
 34
0.0
 15
0.0
 25
0.0
 35
0.0
146
0.0
 13
0.0
 23
0.0
 33
0.0
 16
1.0
 26
0.0
 36
0.0
 17
0.0
 27
1.0
 37
0.0
 76
     0
330
73
  0
LAYOUT
  5
79
102
{ACAD_XDICTIONARY
360
D8BDF
102
}
102
{ACAD_REACTORS
330
1A
102
}
330
1A
100
AcDbPlotSettings
  1

  2
\\ADSCCNDC1\hq601xrx1
  4

  6

 40
0.0
 41
0.0
 42
0.0
 43
0.0
 44
0.0
 45
0.0
 46
0.0
 47
0.0
 48
0.0
 49
0.0
140
0.0
141
0.0
142
1.0
143
1.0
 70
   688
 72
     0
 73
     0
 74
     5
  7
monochrome.ctb
 75
    16
147
1.0
148
0.0
149
0.0
100
AcDbLayout
  1
布局2
 70
     1
 71
     2
 10
0.0
 20
0.0
 11
12.0
 21
9.0
 12
0.0
 22
0.0
 32
0.0
 14
0.0
 24
0.0
 34
0.0
 15
0.0
 25
0.0
 35
0.0
146
0.0
 13
0.0
 23
0.0
 33
0.0
 16
1.0
 26
0.0
 36
0.0
 17
0.0
 27
1.0
 37
0.0
 76
     0
330
78
  0
MATERIAL
  5
CED77
102
{ACAD_XDICTIONARY
360
CED78
102
}
102
{ACAD_REACTORS
330
6B
102
}
330
6B
100
AcDbMaterial
  1
ByBlock
 72
     0
 43
0.0208333333333333
 43
0.0
 43
0.0
 43
0.0
 43
0.0
 43
0.0208333333333333
 43
0.0
 43
0.0
 43
0.0
 43
0.0
 43
1.0
 43
0.0
 43
0.0
 43
0.0
 43
0.0
 43
1.0
 77
     0
 47
0.0208333333333333
 47
0.0
 47
0.0
 47
0.0
 47
0.0
 47
0.0208333333333333
 47
0.0
 47
0.0
 47
0.0
 47
0.0
 47
1.0
 47
0.0
 47
0.0
 47
0.0
 47
0.0
 47
1.0
171
     0
 49
0.0208333333333333
 49
0.0
 49
0.0
 49
0.0
 49
0.0
 49
0.0208333333333333
 49
0.0
 49
0.0
 49
0.0
 49
0.0
 49
1.0
 49
0.0
 49
0.0
 49
0.0
 49
0.0
 49
1.0
175
     0
142
0.0208333333333333
142
0.0
142
0.0
142
0.0
142
0.0
142
0.0208333333333333
142
0.0
142
0.0
142
0.0
142
0.0
142
1.0
142
0.0
142
0.0
142
0.0
142
0.0
142
1.0
179
     0
144
0.0208333333333333
144
0.0
144
0.0
144
0.0
144
0.0
144
0.0208333333333333
144
0.0
144
0.0
144
0.0
144
0.0
144
1.0
144
0.0
144
0.0
144
0.0
144
0.0
144
1.0
147
0.0208333333333333
147
0.0
147
0.0
147
0.0
147
0.0
147
0.0208333333333333
147
0.0
147
0.0
147
0.0
147
0.0
147
1.0
147
0.0
147
0.0
147
0.0
147
0.0
147
1.0
  0
MATERIAL
  5
CED6F
102
{ACAD_XDICTIONARY
360
CED70
102
}
102
{ACAD_REACTORS
330
6B
102
}
330
6B
100
AcDbMaterial
  1
ByLayer
 72
     0
 43
0.0208333333333333
 43
0.0
 43
0.0
 43
0.0
 43
0.0
 43
0.0208333333333333
 43
0.0
 43
0.0
 43
0.0
 43
0.0
 43
1.0
 43
0.0
 43
0.0
 43
0.0
 43
0.0
 43
1.0
 77
     0
 47
0.0208333333333333
 47
0.0
 47
0.0
 47
0.0
 47
0.0
 47
0.0208333333333333
 47
0.0
 47
0.0
 47
0.0
 47
0.0
 47
1.0
 47
0.0
 47
0.0
 47
0.0
 47
0.0
 47
1.0
171
     0
 49
0.0208333333333333
 49
0.0
 49
0.0
 49
0.0
 49
0.0
 49
0.0208333333333333
 49
0.0
 49
0.0
 49
0.0
 49
0.0
 49
1.0
 49
0.0
 49
0.0
 49
0.0
 49
0.0
 49
1.0
175
     0
142
0.0208333333333333
142
0.0
142
0.0
142
0.0
142
0.0
142
0.0208333333333333
142
0.0
142
0.0
142
0.0
142
0.0
142
1.0
142
0.0
142
0.0
142
0.0
142
0.0
142
1.0
179
     0
144
0.0208333333333333
144
0.0
144
0.0
144
0.0
144
0.0
144
0.0208333333333333
144
0.0
144
0.0
144
0.0
144
0.0
144
1.0
144
0.0
144
0.0
144
0.0
144
0.0
144
1.0
147
0.0208333333333333
147
0.0
147
0.0
147
0.0
147
0.0
147
0.0208333333333333
147
0.0
147
0.0
147
0.0
147
0.0
147
1.0
147
0.0
147
0.0
147
0.0
147
0.0
147
1.0
  0
MATERIAL
  5
CED7F
102
{ACAD_XDICTIONARY
360
CED80
102
}
102
{ACAD_REACTORS
330
6B
102
}
330
6B
100
AcDbMaterial
  1
Global
 72
     0
 43
0.0208333333333333
 43
0.0
 43
0.0
 43
0.0
 43
0.0
 43
0.0208333333333333
 43
0.0
 43
0.0
 43
0.0
 43
0.0
 43
1.0
 43
0.0
 43
0.0
 43
0.0
 43
0.0
 43
1.0
 77
     0
 47
0.0208333333333333
 47
0.0
 47
0.0
 47
0.0
 47
0.0
 47
0.0208333333333333
 47
0.0
 47
0.0
 47
0.0
 47
0.0
 47
1.0
 47
0.0
 47
0.0
 47
0.0
 47
0.0
 47
1.0
171
     0
 49
0.0208333333333333
 49
0.0
 49
0.0
 49
0.0
 49
0.0
 49
0.0208333333333333
 49
0.0
 49
0.0
 49
0.0
 49
0.0
 49
1.0
 49
0.0
 49
0.0
 49
0.0
 49
0.0
 49
1.0
175
     0
142
0.0208333333333333
142
0.0
142
0.0
142
0.0
142
0.0
142
0.0208333333333333
142
0.0
142
0.0
142
0.0
142
0.0
142
1.0
142
0.0
142
0.0
142
0.0
142
0.0
142
1.0
179
     0
144
0.0208333333333333
144
0.0
144
0.0
144
0.0
144
0.0
144
0.0208333333333333
144
0.0
144
0.0
144
0.0
144
0.0
144
1.0
144
0.0
144
0.0
144
0.0
144
0.0
144
1.0
147
0.0208333333333333
147
0.0
147
0.0
147
0.0
147
0.0
147
0.0208333333333333
147
0.0
147
0.0
147
0.0
147
0.0
147
1.0
147
0.0
147
0.0
147
0.0
147
0.0
147
1.0
  0
MLEADERSTYLE
  5
CEDBB
102
{ACAD_REACTORS
330
CEDBA
102
}
330
CEDBA
100
AcDbMLeaderStyle
170
     2
171
     1
172
     0
 90
        2
 40
0.0
 41
0.0
173
     1
 91
-1056964608
340
14
 92
       -2
290
     1
 42
0.09
291
     1
 43
0.36
  3
Standard
 44
0.18
300

342
11
174
     1
178
     6
175
     1
176
     0
 93
-1056964608
 45
0.18
292
     0
297
     0
 46
0.18
 94
-1056964608
 47
1.0
 49
1.0
140
1.0
293
     1
141
0.0
294
     1
177
     0
142
1.0
295
     0
296
     0
143
0.125
1001
ACAD_MLEADERVER
1070
     2
  0
MLINESTYLE
  5
18
102
{ACAD_REACTORS
330
17
102
}
330
17
100
AcDbMlineStyle
  2
STANDARD
 70
     0
  3

 62
   256
 51
90.0
 52
90.0
 71
     2
 49
0.5
 62
   256
  6
BYLAYER
 49
-0.5
 62
   256
  6
BYLAYER
  0
ACDBPLACEHOLDER
  5
F
102
{ACAD_REACTORS
330
E
102
}
330
E
  0
SCALE
  5
CED99
102
{ACAD_REACTORS
330
CED98
102
}
330
CED98
100
AcDbScale
 70
     0
300
1:1
140
1.0
141
1.0
290
     1
  0
SCALE
  5
CED9A
102
{ACAD_REACTORS
330
CED98
102
}
330
CED98
100
AcDbScale
 70
     0
300
1:2
140
1.0
141
2.0
290
     0
  0
SCALE
  5
CED9B
102
{ACAD_REACTORS
330
CED98
102
}
330
CED98
100
AcDbScale
 70
     0
300
1:4
140
1.0
141
4.0
290
     0
  0
SCALE
  5
CED9C
102
{ACAD_REACTORS
330
CED98
102
}
330
CED98
100
AcDbScale
 70
     0
300
1:5
140
1.0
141
5.0
290
     0
  0
SCALE
  5
CED9D
102
{ACAD_REACTORS
330
CED98
102
}
330
CED98
100
AcDbScale
 70
     0
300
1:8
140
1.0
141
8.0
290
     0
  0
SCALE
  5
CED9E
102
{ACAD_REACTORS
330
CED98
102
}
330
CED98
100
AcDbScale
 70
     0
300
1:10
140
1.0
141
10.0
290
     0
  0
SCALE
  5
CED9F
102
{ACAD_REACTORS
330
CED98
102
}
330
CED98
100
AcDbScale
 70
     0
300
1:16
140
1.0
141
16.0
290
     0
  0
SCALE
  5
CEDA0
102
{ACAD_REACTORS
330
CED98
102
}
330
CED98
100
AcDbScale
 70
     0
300
1:20
140
1.0
141
20.0
290
     0
  0
SCALE
  5
CEDA1
102
{ACAD_REACTORS
330
CED98
102
}
330
CED98
100
AcDbScale
 70
     0
300
1:30
140
1.0
141
30.0
290
     0
  0
SCALE
  5
CEDA2
102
{ACAD_REACTORS
330
CED98
102
}
330
CED98
100
AcDbScale
 70
     0
300
1:40
140
1.0
141
40.0
290
     0
  0
SCALE
  5
CEDA3
102
{ACAD_REACTORS
330
CED98
102
}
330
CED98
100
AcDbScale
 70
     0
300
1:50
140
1.0
141
50.0
290
     0
  0
SCALE
  5
CEDA4
102
{ACAD_REACTORS
330
CED98
102
}
330
CED98
100
AcDbScale
 70
     0
300
1:100
140
1.0
141
100.0
290
     0
  0
SCALE
  5
CEDA5
102
{ACAD_REACTORS
330
CED98
102
}
330
CED98
100
AcDbScale
 70
     0
300
2:1
140
2.0
141
1.0
290
     0
  0
SCALE
  5
CEDA6
102
{ACAD_REACTORS
330
CED98
102
}
330
CED98
100
AcDbScale
 70
     0
300
4:1
140
4.0
141
1.0
290
     0
  0
SCALE
  5
CEDA7
102
{ACAD_REACTORS
330
CED98
102
}
330
CED98
100
AcDbScale
 70
     0
300
8:1
140
8.0
141
1.0
290
     0
  0
SCALE
  5
CEDA8
102
{ACAD_REACTORS
330
CED98
102
}
330
CED98
100
AcDbScale
 70
     0
300
10:1
140
10.0
141
1.0
290
     0
  0
SCALE
  5
CEDA9
102
{ACAD_REACTORS
330
CED98
102
}
330
CED98
100
AcDbScale
 70
     0
300
100:1
140
100.0
141
1.0
290
     0
  0
SCALE
  5
CEDAA
102
{ACAD_REACTORS
330
CED98
102
}
330
CED98
100
AcDbScale
 70
     0
300
1/128" = 1'-0"
140
0.0078125
141
12.0
290
     0
  0
SCALE
  5
CEDAB
102
{ACAD_REACTORS
330
CED98
102
}
330
CED98
100
AcDbScale
 70
     0
300
1/64" = 1'-0"
140
0.015625
141
12.0
290
     0
  0
SCALE
  5
CEDAC
102
{ACAD_REACTORS
330
CED98
102
}
330
CED98
100
AcDbScale
 70
     0
300
1/32" = 1'-0"
140
0.03125
141
12.0
290
     0
  0
SCALE
  5
CEDAD
102
{ACAD_REACTORS
330
CED98
102
}
330
CED98
100
AcDbScale
 70
     0
300
1/16" = 1'-0"
140
0.0625
141
12.0
290
     0
  0
SCALE
  5
CEDAE
102
{ACAD_REACTORS
330
CED98
102
}
330
CED98
100
AcDbScale
 70
     0
300
3/32" = 1'-0"
140
0.09375
141
12.0
290
     0
  0
SCALE
  5
CEDAF
102
{ACAD_REACTORS
330
CED98
102
}
330
CED98
100
AcDbScale
 70
     0
300
1/8" = 1'-0"
140
0.125
141
12.0
290
     0
  0
SCALE
  5
CEDB0
102
{ACAD_REACTORS
330
CED98
102
}
330
CED98
100
AcDbScale
 70
     0
300
3/16" = 1'-0"
140
0.1875
141
12.0
290
     0
  0
SCALE
  5
CEDB1
102
{ACAD_REACTORS
330
CED98
102
}
330
CED98
100
AcDbScale
 70
     0
300
1/4" = 1'-0"
140
0.25
141
12.0
290
     0
  0
SCALE
  5
CEDB2
102
{ACAD_REACTORS
330
CED98
102
}
330
CED98
100
AcDbScale
 70
     0
300
3/8" = 1'-0"
140
0.375
141
12.0
290
     0
  0
SCALE
  5
CEDB3
102
{ACAD_REACTORS
330
CED98
102
}
330
CED98
100
AcDbScale
 70
     0
300
1/2" = 1'-0"
140
0.5
141
12.0
290
     0
  0
SCALE
  5
CEDB4
102
{ACAD_REACTORS
330
CED98
102
}
330
CED98
100
AcDbScale
 70
     0
300
3/4" = 1'-0"
140
0.75
141
12.0
290
     0
  0
SCALE
  5
CEDB5
102
{ACAD_REACTORS
330
CED98
102
}
330
CED98
100
AcDbScale
 70
     0
300
1" = 1'-0"
140
1.0
141
12.0
290
     0
  0
SCALE
  5
CEDB6
102
{ACAD_REACTORS
330
CED98
102
}
330
CED98
100
AcDbScale
 70
     0
300
1-1/2" = 1'-0"
140
1.5
141
12.0
290
     0
  0
SCALE
  5
CEDB7
102
{ACAD_REACTORS
330
CED98
102
}
330
CED98
100
AcDbScale
 70
     0
300
3" = 1'-0"
140
3.0
141
12.0
290
     0
  0
SCALE
  5
CEDB8
102
{ACAD_REACTORS
330
CED98
102
}
330
CED98
100
AcDbScale
 70
     0
300
6" = 1'-0"
140
6.0
141
12.0
290
     0
  0
SCALE
  5
CEDB9
102
{ACAD_REACTORS
330
CED98
102
}
330
CED98
100
AcDbScale
 70
     0
300
1'-0" = 1'-0"
140
12.0
141
12.0
290
     0
  0
TABLESTYLE
  5
FB0
102
{ACAD_XDICTIONARY
360
D0C45
102
}
102
{ACAD_REACTORS
330
FAF
102
}
330
FAF
100
AcDbTableStyle
  3
Standard
 70
     0
 71
     0
 40
0.06
 41
0.06
280
     0
281
     0
  7
Standard
140
0.18
170
     2
 62
     0
 63
     7
283
     0
274
    -2
284
     1
 64
     0
275
    -2
285
     1
 65
     0
276
    -2
286
     1
 66
     0
277
    -2
287
     1
 67
     0
278
    -2
288
     1
 68
     0
279
    -2
289
     1
 69
     0
  7
Standard
140
0.25
170
     5
 62
     0
 63
     7
283
     0
274
    -2
284
     1
 64
     0
275
    -2
285
     1
 65
     0
276
    -2
286
     1
 66
     0
277
    -2
287
     1
 67
     0
278
    -2
288
     1
 68
     0
279
    -2
289
     1
 69
     0
  7
Standard
140
0.18
170
     5
 62
     0
 63
     7
283
     0
274
    -2
284
     1
 64
     0
275
    -2
285
     1
 65
     0
276
    -2
286
     1
 66
     0
277
    -2
287
     1
 67
     0
278
    -2
288
     1
 68
     0
279
    -2
289
     1
 69
     0
  0
VISUALSTYLE
  5
CED8D
102
{ACAD_REACTORS
330
CED87
102
}
330
CED87
100
AcDbVisualStyle
  2
2dWireframe
 70
     4
 71
     0
 72
     2
 73
     0
 90
        0
 40
-0.6
 41
-30.0
 62
     5
 63
     7
 74
     1
 91
        4
 64
     7
 65
   257
 75
     1
175
     1
 42
1.0
 92
        0
 66
   257
 43
1.0
 76
     1
 77
     6
 78
     2
 67
     7
 79
     5
170
     0
171
     0
290
     0
174
     0
 93
        1
 44
0.0
173
     0
291
     0
 45
0.0
1001
ACAD
1000
AcDbSavedByObjectVersion
1070
     0
1000
AcDbSavedByObjectVersion
1070
     0
  0
VISUALSTYLE
  5
CED8F
102
{ACAD_REACTORS
330
CED87
102
}
330
CED87
100
AcDbVisualStyle
  2
3D Hidden
 70
     6
 71
     1
 72
     2
 73
     2
 90
        0
 40
-0.6
 41
-30.0
 62
     5
 63
     7
 74
     2
 91
        2
 64
     7
 65
   257
 75
     2
175
     1
 42
40.0
 92
        0
 66
   257
 43
1.0
 76
     1
 77
     6
 78
     2
 67
     7
 79
     3
170
     0
171
     0
290
     0
174
     0
 93
        1
 44
0.0
173
     0
291
     0
 45
0.0
1001
ACAD
1000
AcDbSavedByObjectVersion
1070
     0
1000
AcDbSavedByObjectVersion
1070
     0
  0
VISUALSTYLE
  5
CED8E
102
{ACAD_REACTORS
330
CED87
102
}
330
CED87
100
AcDbVisualStyle
  2
3dWireframe
 70
     5
 71
     0
 72
     2
 73
     0
 90
        0
 40
-0.6
 41
-30.0
 62
     5
 63
     7
 74
     1
 91
        4
 64
     7
 65
   257
 75
     1
175
     1
 42
1.0
 92
        0
 66
   257
 43
1.0
 76
     1
 77
     6
 78
     2
 67
     7
 79
     5
170
     0
171
     0
290
     0
174
     0
 93
        1
 44
0.0
173
     0
291
     0
 45
0.0
1001
ACAD
1000
AcDbSavedByObjectVersion
1070
     0
1000
AcDbSavedByObjectVersion
1070
     0
  0
VISUALSTYLE
  5
CED8C
102
{ACAD_REACTORS
330
CED87
102
}
330
CED87
100
AcDbVisualStyle
  2
Basic
 70
     7
 71
     1
 72
     0
 73
     1
 90
        0
 40
-0.6
 41
-30.0
 62
     5
 63
     7
 74
     0
 91
        4
 64
     7
 65
   257
 75
     1
175
     1
 42
1.0
 92
        8
 66
     7
 43
1.0
 76
     1
 77
     6
 78
     2
 67
     7
 79
     5
170
     0
171
     0
290
     0
174
     0
 93
        1
 44
0.0
173
     0
291
     1
 45
0.0
1001
ACAD
1000
AcDbSavedByObjectVersion
1070
     0
1000
AcDbSavedByObjectVersion
1070
     0
  0
VISUALSTYLE
  5
CED93
102
{ACAD_REACTORS
330
CED87
102
}
330
CED87
100
AcDbVisualStyle
  2
Brighten
 70
    12
 71
     2
 72
     2
 73
     0
 90
        0
 40
-0.6
 41
-30.0
 62
     5
 63
     7
 74
     1
 91
        4
 64
     7
 65
   257
 75
     1
175
     1
 42
1.0
 92
        8
 66
     7
 43
1.0
 76
     1
 77
     6
 78
     2
 67
     7
 79
     5
170
     0
171
     0
290
     0
174
     0
 93
        1
 44
50.0
173
     0
291
     1
 45
0.0
1001
ACAD
1000
AcDbSavedByObjectVersion
1070
     0
1000
AcDbSavedByObjectVersion
1070
     0
  0
VISUALSTYLE
  5
CED97
102
{ACAD_REACTORS
330
CED87
102
}
330
CED87
100
AcDbVisualStyle
  2
ColorChange
 70
    16
 71
     2
 72
     2
 73
     3
 90
        0
 40
-0.6
 41
-30.0
 62
     5
 63
     8
 74
     1
 91
        4
 64
     7
 65
   257
 75
     1
175
     1
 42
1.0
 92
        8
 66
     8
 43
1.0
 76
     1
 77
     6
 78
     2
 67
     7
 79
     5
170
     0
171
     0
290
     0
174
     0
 93
        1
 44
0.0
173
     0
291
     1
 45
0.0
1001
ACAD
1000
AcDbSavedByObjectVersion
1070
     0
1000
AcDbSavedByObjectVersion
1070
     0
  0
VISUALSTYLE
  5
CED90
102
{ACAD_REACTORS
330
CED87
102
}
330
CED87
100
AcDbVisualStyle
  2
Conceptual
 70
     9
 71
     3
 72
     2
 73
     0
 90
        0
 40
-0.6
 41
-30.0
 62
     5
 63
     7
 74
     2
 91
        2
 64
     7
 65
   257
 75
     1
175
     1
 42
40.0
 92
        8
 66
     7
 43
1.0
 76
     1
 77
     6
 78
     2
 67
     7
 79
     3
170
     0
171
     0
290
     0
174
     0
 93
        1
 44
0.0
173
     0
291
     0
 45
0.0
1001
ACAD
1000
AcDbSavedByObjectVersion
1070
     0
1000
AcDbSavedByObjectVersion
1070
     0
  0
VISUALSTYLE
  5
CED92
102
{ACAD_REACTORS
330
CED87
102
}
330
CED87
100
AcDbVisualStyle
  2
Dim
 70
    11
 71
     2
 72
     2
 73
     0
 90
        0
 40
-0.6
 41
-30.0
 62
     5
 63
     7
 74
     1
 91
        4
 64
     7
 65
   257
 75
     1
175
     1
 42
1.0
 92
        8
 66
     7
 43
1.0
 76
     1
 77
     6
 78
     2
 67
     7
 79
     5
170
     0
171
     0
290
     0
174
     0
 93
        1
 44
-50.0
173
     0
291
     1
 45
0.0
1001
ACAD
1000
AcDbSavedByObjectVersion
1070
     0
1000
AcDbSavedByObjectVersion
1070
     0
  0
VISUALSTYLE
  5
CED96
102
{ACAD_REACTORS
330
CED87
102
}
330
CED87
100
AcDbVisualStyle
  2
Facepattern
 70
    15
 71
     2
 72
     2
 73
     0
 90
        0
 40
-0.6
 41
-30.0
 62
     5
 63
     7
 74
     1
 91
        4
 64
     7
 65
   257
 75
     1
175
     1
 42
1.0
 92
        8
 66
     7
 43
1.0
 76
     1
 77
     6
 78
     2
 67
     7
 79
     5
170
     0
171
     0
290
     0
174
     0
 93
        1
 44
0.0
173
     0
291
     1
 45
0.0
1001
ACAD
1000
AcDbSavedByObjectVersion
1070
     0
1000
AcDbSavedByObjectVersion
1070
     0
  0
VISUALSTYLE
  5
CED88
102
{ACAD_REACTORS
330
CED87
102
}
330
CED87
100
AcDbVisualStyle
  2
Flat
 70
     0
 71
     2
 72
     1
 73
     1
 90
        2
 40
-0.6
 41
30.0
 62
     5
 63
     7
 74
     0
 91
        4
 64
     7
 65
   257
 75
     1
175
     1
 42
1.0
 92
        8
 66
     7
 43
1.0
 76
     1
 77
     6
 78
     2
 67
     7
 79
     5
170
     0
171
     0
290
     0
174
     0
 93
       13
 44
0.0
173
     0
291
     1
 45
0.0
1001
ACAD
1000
AcDbSavedByObjectVersion
1070
     0
1000
AcDbSavedByObjectVersion
1070
     0
  0
VISUALSTYLE
  5
CED89
102
{ACAD_REACTORS
330
CED87
102
}
330
CED87
100
AcDbVisualStyle
  2
FlatWithEdges
 70
     1
 71
     2
 72
     1
 73
     1
 90
        2
 40
-0.6
 41
30.0
 62
     5
 63
     7
 74
     1
 91
        4
 64
     7
 65
   257
 75
     1
175
     1
 42
1.0
 92
        0
 66
   257
 43
1.0
 76
     1
 77
     6
 78
     2
 67
     7
 79
     5
170
     0
171
     0
290
     0
174
     0
 93
       13
 44
0.0
173
     0
291
     1
 45
0.0
1001
ACAD
1000
AcDbSavedByObjectVersion
1070
     0
1000
AcDbSavedByObjectVersion
1070
     0
  0
VISUALSTYLE
  5
CED8A
102
{ACAD_REACTORS
330
CED87
102
}
330
CED87
100
AcDbVisualStyle
  2
Gouraud
 70
     2
 71
     2
 72
     2
 73
     1
 90
        2
 40
-0.6
 41
30.0
 62
     5
 63
     7
 74
     0
 91
        4
 64
     7
 65
   257
 75
     1
175
     1
 42
1.0
 92
        0
 66
     7
 43
1.0
 76
     1
 77
     6
 78
     2
 67
     7
 79
     5
170
     0
171
     0
290
     0
174
     0
 93
       13
 44
0.0
173
     0
291
     1
 45
0.0
1001
ACAD
1000
AcDbSavedByObjectVersion
1070
     0
1000
AcDbSavedByObjectVersion
1070
     0
  0
VISUALSTYLE
  5
CED8B
102
{ACAD_REACTORS
330
CED87
102
}
330
CED87
100
AcDbVisualStyle
  2
GouraudWithEdges
 70
     3
 71
     2
 72
     2
 73
     1
 90
        2
 40
-0.6
 41
30.0
 62
     5
 63
     7
 74
     1
 91
        4
 64
     7
 65
   257
 75
     1
175
     1
 42
1.0
 92
        0
 66
   257
 43
1.0
 76
     1
 77
     6
 78
     2
 67
     7
 79
     5
170
     0
171
     0
290
     0
174
     0
 93
       13
 44
0.0
173
     0
291
     1
 45
0.0
1001
ACAD
1000
AcDbSavedByObjectVersion
1070
     0
1000
AcDbSavedByObjectVersion
1070
     0
  0
VISUALSTYLE
  5
CED95
102
{ACAD_REACTORS
330
CED87
102
}
330
CED87
100
AcDbVisualStyle
  2
Linepattern
 70
    14
 71
     2
 72
     2
 73
     0
 90
        0
 40
-0.6
 41
-30.0
 62
     5
 63
     7
 74
     1
 91
        4
 64
     7
 65
   257
 75
     7
175
     7
 42
1.0
 92
        8
 66
     7
 43
1.0
 76
     1
 77
     6
 78
     2
 67
     7
 79
     5
170
     0
171
     0
290
     0
174
     0
 93
        1
 44
0.0
173
     0
291
     1
 45
0.0
1001
ACAD
1000
AcDbSavedByObjectVersion
1070
     0
1000
AcDbSavedByObjectVersion
1070
     0
  0
VISUALSTYLE
  5
CED91
102
{ACAD_REACTORS
330
CED87
102
}
330
CED87
100
AcDbVisualStyle
  2
Realistic
 70
     8
 71
     2
 72
     2
 73
     0
 90
        0
 40
-0.6
 41
-30.0
 62
     5
 63
     7
 74
     1
 91
        0
 64
     7
 65
   257
 75
     1
175
     1
 42
1.0
 92
        8
 66
     8
 43
1.0
 76
     1
 77
     6
 78
     2
 67
     7
 79
     5
170
     0
171
     0
290
     0
174
     0
 93
       13
 44
0.0
173
     0
291
     0
 45
0.0
1001
ACAD
1000
AcDbSavedByObjectVersion
1070
     0
1000
AcDbSavedByObjectVersion
1070
     0
  0
VISUALSTYLE
  5
CED94
102
{ACAD_REACTORS
330
CED87
102
}
330
CED87
100
AcDbVisualStyle
  2
Thicken
 70
    13
 71
     2
 72
     2
 73
     0
 90
        0
 40
-0.6
 41
-30.0
 62
     5
 63
     7
 74
     1
 91
        4
 64
     7
 65
   257
 75
     1
175
     1
 42
1.0
 92
       12
 66
     7
 43
1.0
 76
     1
 77
     6
 78
     2
 67
     7
 79
     5
170
     0
171
     0
290
     0
174
     0
 93
        1
 44
0.0
173
     0
291
     1
 45
0.0
1001
ACAD
1000
AcDbSavedByObjectVersion
1070
     0
1000
AcDbSavedByObjectVersion
1070
     0
  0
DICTIONARYVAR
  5
D0C4F
102
{ACAD_REACTORS
330
59
102
}
330
59
100
DictionaryVariables
280
     0
  1
1:1
  0
DICTIONARYVAR
  5
D0C4D
102
{ACAD_REACTORS
330
59
102
}
330
59
100
DictionaryVariables
280
     0
  1
STANDARD
  0
DICTIONARYVAR
  5
100D
102
{ACAD_REACTORS
330
59
102
}
330
59
100
DictionaryVariables
280
     0
  1
STANDARD
  0
DICTIONARYVAR
  5
5A
102
{ACAD_REACTORS
330
59
102
}
330
59
100
DictionaryVariables
280
     0
  1
2
  0
DICTIONARYVAR
  5
5E
102
{ACAD_REACTORS
330
59
102
}
330
59
100
DictionaryVariables
280
     0
  1
1
  0
DICTIONARYVAR
  5
D8BA9
102
{ACAD_REACTORS
330
59
102
}
330
59
100
DictionaryVariables
280
     0
  1
0
  0
DICTIONARYVAR
  5
D0C50
102
{ACAD_REACTORS
330
59
102
}
330
59
100
DictionaryVariables
280
     0
  1
0
  0
DICTIONARYVAR
  5
D0C4E
102
{ACAD_REACTORS
330
59
102
}
330
59
100
DictionaryVariables
280
     0
  1
0
  0
DICTIONARYVAR
  5
D8BA8
102
{ACAD_REACTORS
330
59
102
}
330
59
100
DictionaryVariables
280
     0
  1
127
  0
XRECORD
  5
C2669
102
{ACAD_REACTORS
330
C2668
102
}
330
C2668
100
AcDbXrecord
280
     1
330
0
330
0
330
0
330
0
330
0
330
0
330
0
330
0
330
0
330
0
330
0
330
0
330
0
330
0
330
0
330
0
330
0
330
0
330
0
330
0
330
0
330
0
330
0
330
0
330
0
330
0
330
0
330
0
330
0
330
0
330
0
330
0
330
0
  0
VLO-VL
  5
A9D17
102
{ACAD_REACTORS
330
A9D16
102
}
330
A9D16
100
vlo_VL
 90
   -64512
 91
       12
 92
        1
 40
2.5
300
(&VLO-R . 0)
  0
DICTIONARY
  5
D8BDB
330
22
100
AcDbDictionary
280
     1
281
     1
  3
ACAD_XREC_ROUNDTRIP
360
D8BDC
  0
DICTIONARY
  5
D8BDD
330
74
100
AcDbDictionary
280
     1
281
     1
  3
ACAD_XREC_ROUNDTRIP
360
D8BDE
  0
DICTIONARY
  5
D8BDF
330
79
100
AcDbDictionary
280
     1
281
     1
  3
ACAD_XREC_ROUNDTRIP
360
D8BE0
  0
DICTIONARY
  5
CED78
330
CED77
100
AcDbDictionary
280
     1
281
     1
  3
ACAD_XREC_ROUNDTRIP
360
D8BC2
  3
BUMPTILE
360
CED7A
  3
DIFFUSETILE
360
CED79
  3
OPACITYTILE
360
CED7D
  3
REFLECTIONTILE
360
CED7C
  3
REFRACTIONTILE
360
CED7E
  3
SPECULARTILE
360
CED7B
  0
DICTIONARY
  5
CED70
330
CED6F
100
AcDbDictionary
280
     1
281
     1
  3
ACAD_XREC_ROUNDTRIP
360
D8BC1
  3
BUMPTILE
360
CED72
  3
DIFFUSETILE
360
CED71
  3
OPACITYTILE
360
CED75
  3
REFLECTIONTILE
360
CED74
  3
REFRACTIONTILE
360
CED76
  3
SPECULARTILE
360
CED73
  0
DICTIONARY
  5
CED80
330
CED7F
100
AcDbDictionary
280
     1
281
     1
  3
ACAD_XREC_ROUNDTRIP
360
D8BC3
  3
BUMPTILE
360
CED82
  3
DIFFUSETILE
360
CED81
  3
OPACITYTILE
360
CED85
  3
REFLECTIONTILE
360
CED84
  3
REFRACTIONTILE
360
CED86
  3
SPECULARTILE
360
CED83
  0
DICTIONARY
  5
D0C45
330
FB0
100
AcDbDictionary
280
     1
281
     1
  3
ACAD_ROUNDTRIP_2008_TABLESTYLE_CELLSTYLEMAP
360
D8BD1
  3
ACAD_XREC_ROUNDTRIP
360
D8BE1
  0
XRECORD
  5
D8BDC
102
{ACAD_REACTORS
330
D8BDB
102
}
330
D8BDB
100
AcDbXrecord
280
     1
102
SHADEPLOT
 70
     0
102
SHADEPLOTRESLEVEL
 70
     2
102
SHADEPLOTCUSTOMDPI
 70
   300
  0
XRECORD
  5
D8BDE
102
{ACAD_REACTORS
330
D8BDD
102
}
330
D8BDD
100
AcDbXrecord
280
     1
102
SHADEPLOT
 70
     0
102
SHADEPLOTRESLEVEL
 70
     2
102
SHADEPLOTCUSTOMDPI
 70
   300
  0
XRECORD
  5
D8BE0
102
{ACAD_REACTORS
330
D8BDF
102
}
330
D8BDF
100
AcDbXrecord
280
     1
102
SHADEPLOT
 70
     0
102
SHADEPLOTRESLEVEL
 70
     2
102
SHADEPLOTCUSTOMDPI
 70
   300
  0
XRECORD
  5
D8BC2
102
{ACAD_REACTORS
330
CED78
102
}
330
CED78
100
AcDbXrecord
280
     1
102
MATERIAL
148
0.0
149
0.0
149
0.0
 93
        0
 94
      127
282
     0
 72
     0
 77
     0
171
     0
175
     0
179
     0
273
     0
  0
XRECORD
  5
CED7A
102
{ACAD_REACTORS
330
CED78
102
}
330
CED78
100
AcDbXrecord
280
     1
270
     1
271
     1
  0
XRECORD
  5
CED79
102
{ACAD_REACTORS
330
CED78
102
}
330
CED78
100
AcDbXrecord
280
     1
270
     1
271
     1
  0
XRECORD
  5
CED7D
102
{ACAD_REACTORS
330
CED78
102
}
330
CED78
100
AcDbXrecord
280
     1
270
     1
271
     1
  0
XRECORD
  5
CED7C
102
{ACAD_REACTORS
330
CED78
102
}
330
CED78
100
AcDbXrecord
280
     1
270
     1
271
     1
  0
XRECORD
  5
CED7E
102
{ACAD_REACTORS
330
CED78
102
}
330
CED78
100
AcDbXrecord
280
     1
270
     1
271
     1
  0
XRECORD
  5
CED7B
102
{ACAD_REACTORS
330
CED78
102
}
330
CED78
100
AcDbXrecord
280
     1
270
     1
271
     1
  0
XRECORD
  5
D8BC1
102
{ACAD_REACTORS
330
CED70
102
}
330
CED70
100
AcDbXrecord
280
     1
102
MATERIAL
148
0.0
149
0.0
149
0.0
 93
        0
 94
      127
282
     0
 72
     0
 77
     0
171
     0
175
     0
179
     0
273
     0
  0
XRECORD
  5
CED72
102
{ACAD_REACTORS
330
CED70
102
}
330
CED70
100
AcDbXrecord
280
     1
270
     1
271
     1
  0
XRECORD
  5
CED71
102
{ACAD_REACTORS
330
CED70
102
}
330
CED70
100
AcDbXrecord
280
     1
270
     1
271
     1
  0
XRECORD
  5
CED75
102
{ACAD_REACTORS
330
CED70
102
}
330
CED70
100
AcDbXrecord
280
     1
270
     1
271
     1
  0
XRECORD
  5
CED74
102
{ACAD_REACTORS
330
CED70
102
}
330
CED70
100
AcDbXrecord
280
     1
270
     1
271
     1
  0
XRECORD
  5
CED76
102
{ACAD_REACTORS
330
CED70
102
}
330
CED70
100
AcDbXrecord
280
     1
270
     1
271
     1
  0
XRECORD
  5
CED73
102
{ACAD_REACTORS
330
CED70
102
}
330
CED70
100
AcDbXrecord
280
     1
270
     1
271
     1
  0
XRECORD
  5
D8BC3
102
{ACAD_REACTORS
330
CED80
102
}
330
CED80
100
AcDbXrecord
280
     1
102
MATERIAL
148
0.0
149
0.0
149
0.0
 93
        0
 94
      127
282
     0
 72
     0
 77
     0
171
     0
175
     0
179
     0
273
     0
  0
XRECORD
  5
CED82
102
{ACAD_REACTORS
330
CED80
102
}
330
CED80
100
AcDbXrecord
280
     1
270
     1
271
     1
  0
XRECORD
  5
CED81
102
{ACAD_REACTORS
330
CED80
102
}
330
CED80
100
AcDbXrecord
280
     1
270
     1
271
     1
  0
XRECORD
  5
CED85
102
{ACAD_REACTORS
330
CED80
102
}
330
CED80
100
AcDbXrecord
280
     1
270
     1
271
     1
  0
XRECORD
  5
CED84
102
{ACAD_REACTORS
330
CED80
102
}
330
CED80
100
AcDbXrecord
280
     1
270
     1
271
     1
  0
XRECORD
  5
CED86
102
{ACAD_REACTORS
330
CED80
102
}
330
CED80
100
AcDbXrecord
280
     1
270
     1
271
     1
  0
XRECORD
  5
CED83
102
{ACAD_REACTORS
330
CED80
102
}
330
CED80
100
AcDbXrecord
280
     1
270
     1
271
     1
  0
CELLSTYLEMAP
  5
D8BD1
102
{ACAD_REACTORS
330
D0C45
102
}
330
D0C45
100
AcDbCellStyleMap
 90
        3
300
CELLSTYLE
  1
TABLEFORMAT_BEGIN
 90
        5
170
     1
 91
        0
 92
    32768
 62
   257
 93
        1
300
CONTENTFORMAT
  1
CONTENTFORMAT_BEGIN
 90
        0
 91
        0
 92
        4
 93
        0
300

 40
0.0
140
1.0
 94
        5
 62
     0
340
11
144
0.25
309
CONTENTFORMAT_END
171
     1
301
MARGIN
  1
CELLMARGIN_BEGIN
 40
0.06
 40
0.06
 40
0.06
 40
0.06
 40
0.18
 40
0.18
309
CELLMARGIN_END
 94
        6
 95
        1
302
GRIDFORMAT
  1
GRIDFORMAT_BEGIN
 90
        0
 91
        1
 62
     0
 92
       -2
340
0
 93
        0
 40
0.045
309
GRIDFORMAT_END
 95
        2
302
GRIDFORMAT
  1
GRIDFORMAT_BEGIN
 90
        0
 91
        1
 62
     0
 92
       -2
340
0
 93
        0
 40
0.045
309
GRIDFORMAT_END
 95
        4
302
GRIDFORMAT
  1
GRIDFORMAT_BEGIN
 90
        0
 91
        1
 62
     0
 92
       -2
340
0
 93
        0
 40
0.045
309
GRIDFORMAT_END
 95
        8
302
GRIDFORMAT
  1
GRIDFORMAT_BEGIN
 90
        0
 91
        1
 62
     0
 92
       -2
340
0
 93
        0
 40
0.045
309
GRIDFORMAT_END
 95
       16
302
GRIDFORMAT
  1
GRIDFORMAT_BEGIN
 90
        0
 91
        1
 62
     0
 92
       -2
340
0
 93
        0
 40
0.045
309
GRIDFORMAT_END
 95
       32
302
GRIDFORMAT
  1
GRIDFORMAT_BEGIN
 90
        0
 91
        1
 62
     0
 92
       -2
340
0
 93
        0
 40
0.045
309
GRIDFORMAT_END
309
TABLEFORMAT_END
  1
CELLSTYLE_BEGIN
 90
        1
 91
        1
300
_TITLE
309
CELLSTYLE_END
300
CELLSTYLE
  1
TABLEFORMAT_BEGIN
 90
        5
170
     1
 91
        0
 92
        0
 62
   257
 93
        1
300
CONTENTFORMAT
  1
CONTENTFORMAT_BEGIN
 90
        0
 91
        0
 92
        4
 93
        0
300

 40
0.0
140
1.0
 94
        5
 62
     0
340
11
144
0.18
309
CONTENTFORMAT_END
171
     1
301
MARGIN
  1
CELLMARGIN_BEGIN
 40
0.06
 40
0.06
 40
0.06
 40
0.06
 40
0.18
 40
0.18
309
CELLMARGIN_END
 94
        6
 95
        1
302
GRIDFORMAT
  1
GRIDFORMAT_BEGIN
 90
        0
 91
        1
 62
     0
 92
       -2
340
0
 93
        0
 40
0.045
309
GRIDFORMAT_END
 95
        2
302
GRIDFORMAT
  1
GRIDFORMAT_BEGIN
 90
        0
 91
        1
 62
     0
 92
       -2
340
0
 93
        0
 40
0.045
309
GRIDFORMAT_END
 95
        4
302
GRIDFORMAT
  1
GRIDFORMAT_BEGIN
 90
        0
 91
        1
 62
     0
 92
       -2
340
0
 93
        0
 40
0.045
309
GRIDFORMAT_END
 95
        8
302
GRIDFORMAT
  1
GRIDFORMAT_BEGIN
 90
        0
 91
        1
 62
     0
 92
       -2
340
0
 93
        0
 40
0.045
309
GRIDFORMAT_END
 95
       16
302
GRIDFORMAT
  1
GRIDFORMAT_BEGIN
 90
        0
 91
        1
 62
     0
 92
       -2
340
0
 93
        0
 40
0.045
309
GRIDFORMAT_END
 95
       32
302
GRIDFORMAT
  1
GRIDFORMAT_BEGIN
 90
        0
 91
        1
 62
     0
 92
       -2
340
0
 93
        0
 40
0.045
309
GRIDFORMAT_END
309
TABLEFORMAT_END
  1
CELLSTYLE_BEGIN
 90
        2
 91
        1
300
_HEADER
309
CELLSTYLE_END
300
CELLSTYLE
  1
TABLEFORMAT_BEGIN
 90
        5
170
     1
 91
        0
 92
        0
 62
   257
 93
        1
300
CONTENTFORMAT
  1
CONTENTFORMAT_BEGIN
 90
        0
 91
        0
 92
        4
 93
        0
300

 40
0.0
140
1.0
 94
        2
 62
     0
340
11
144
0.18
309
CONTENTFORMAT_END
171
     1
301
MARGIN
  1
CELLMARGIN_BEGIN
 40
0.06
 40
0.06
 40
0.06
 40
0.06
 40
0.18
 40
0.18
309
CELLMARGIN_END
 94
        6
 95
        1
302
GRIDFORMAT
  1
GRIDFORMAT_BEGIN
 90
        0
 91
        1
 62
     0
 92
       -2
340
0
 93
        0
 40
0.045
309
GRIDFORMAT_END
 95
        2
302
GRIDFORMAT
  1
GRIDFORMAT_BEGIN
 90
        0
 91
        1
 62
     0
 92
       -2
340
0
 93
        0
 40
0.045
309
GRIDFORMAT_END
 95
        4
302
GRIDFORMAT
  1
GRIDFORMAT_BEGIN
 90
        0
 91
        1
 62
     0
 92
       -2
340
0
 93
        0
 40
0.045
309
GRIDFORMAT_END
 95
        8
302
GRIDFORMAT
  1
GRIDFORMAT_BEGIN
 90
        0
 91
        1
 62
     0
 92
       -2
340
0
 93
        0
 40
0.045
309
GRIDFORMAT_END
 95
       16
302
GRIDFORMAT
  1
GRIDFORMAT_BEGIN
 90
        0
 91
        1
 62
     0
 92
       -2
340
0
 93
        0
 40
0.045
309
GRIDFORMAT_END
 95
       32
302
GRIDFORMAT
  1
GRIDFORMAT_BEGIN
 90
        0
 91
        1
 62
     0
 92
       -2
340
0
 93
        0
 40
0.045
309
GRIDFORMAT_END
309
TABLEFORMAT_END
  1
CELLSTYLE_BEGIN
 90
        3
 91
        2
300
_DATA
309
CELLSTYLE_END
  0
XRECORD
  5
D8BE1
102
{ACAD_REACTORS
330
D0C45
102
}
330
D0C45
100
AcDbXrecord
280
     1
102
ACAD_ROUNDTRIP_PRE2007_TABLESTYLE
 90
        4
 91
        0
  1

 92
        4
 93
        0
  2

 94
        4
 95
        0
  3

  0
ENDSEC
  0
EOF
