  0
SECTION
  2
HEADER
  9
$ACADVER
  1
AC1015
  9
$ACADMAINTVER
 70
    20
  9
$DWGCODEPAGE
  3
ANSI_936
  9
$INSBASE
 10
0.0
 20
0.0
 30
0.0
  9
$EXTMIN
 10
107717.5908706951
 20
-172022.1165318311
 30
-0.0000000349181948
  9
$EXTMAX
 10
109564.9040395998
 20
-166011.0810240527
 30
0.0000000814935747
  9
$LIMMIN
 10
0.0
 20
0.0
  9
$LIMMAX
 10
12.0
 20
9.0
  9
$ORTHOMODE
 70
     0
  9
$REGENMODE
 70
     1
  9
$FILLMODE
 70
     1
  9
$QTEXTMODE
 70
     0
  9
$MIRRTEXT
 70
     0
  9
$LTSCALE
 40
1.0
  9
$ATTMODE
 70
     1
  9
$TEXTSIZE
 40
0.2
  9
$TRACEWID
 40
0.05
  9
$TEXTSTYLE
  7
Standard
  9
$CLAYER
  8
标注
  9
$CELTYPE
  6
ByLayer
  9
$CECOLOR
 62
   256
  9
$CELTSCALE
 40
5.0
  9
$DISPSILH
 70
     0
  9
$DIMSCALE
 40
1.0
  9
$DIMASZ
 40
10.0
  9
$DIMEXO
 40
7.0
  9
$DIMDLI
 40
0.38
  9
$DIMRND
 40
0.0
  9
$DIMDLE
 40
0.0
  9
$DIMEXE
 40
7.0
  9
$DIMTP
 40
0.0
  9
$DIMTM
 40
0.0
  9
$DIMTXT
 40
12.0
  9
$DIMCEN
 40
2.5
  9
$DIMTSZ
 40
0.0
  9
$DIMTOL
 70
     0
  9
$DIMLIM
 70
     0
  9
$DIMTIH
 70
     0
  9
$DIMTOH
 70
     0
  9
$DIMSE1
 70
     0
  9
$DIMSE2
 70
     0
  9
$DIMTAD
 70
     0
  9
$DIMZIN
 70
     8
  9
$DIMBLK
  1

  9
$DIMASO
 70
     1
  9
$DIMSHO
 70
     1
  9
$DIMPOST
  1

  9
$DIMAPOST
  1
"
  9
$DIMALT
 70
     0
  9
$DIMALTD
 70
     3
  9
$DIMALTF
 40
0.03937
  9
$DIMLFAC
 40
1.0
  9
$DIMTOFL
 70
     1
  9
$DIMTVP
 40
0.0
  9
$DIMTIX
 70
     0
  9
$DIMSOXD
 70
     0
  9
$DIMSAH
 70
     0
  9
$DIMBLK1
  1

  9
$DIMBLK2
  1

  9
$DIMSTYLE
  2
副本Standard
  9
$DIMCLRD
 70
   256
  9
$DIMCLRE
 70
   256
  9
$DIMCLRT
 70
   256
  9
$DIMTFAC
 40
1.0
  9
$DIMGAP
 40
0.5
  9
$DIMJUST
 70
     0
  9
$DIMSD1
 70
     0
  9
$DIMSD2
 70
     0
  9
$DIMTOLJ
 70
     1
  9
$DIMTZIN
 70
     0
  9
$DIMALTZ
 70
     0
  9
$DIMALTTZ
 70
     0
  9
$DIMUPT
 70
     0
  9
$DIMDEC
 70
     1
  9
$DIMTDEC
 70
     1
  9
$DIMALTU
 70
     7
  9
$DIMALTTD
 70
     3
  9
$DIMTXSTY
  7
Standard
  9
$DIMAUNIT
 70
     0
  9
$DIMADEC
 70
     0
  9
$DIMALTRND
 40
0.0
  9
$DIMAZIN
 70
     2
  9
$DIMDSEP
 70
    44
  9
$DIMATFIT
 70
     3
  9
$DIMFRAC
 70
     0
  9
$DIMLDRBLK
  1

  9
$DIMLUNIT
 70
     2
  9
$DIMLWD
 70
    -2
  9
$DIMLWE
 70
    -2
  9
$DIMTMOVE
 70
     0
  9
$LUNITS
 70
     2
  9
$LUPREC
 70
     4
  9
$SKETCHINC
 40
0.1
  9
$FILLETRAD
 40
104.0
  9
$AUNITS
 70
     0
  9
$AUPREC
 70
     0
  9
$MENU
  1
.
  9
$ELEVATION
 40
0.0
  9
$PELEVATION
 40
0.0
  9
$THICKNESS
 40
0.0
  9
$LIMCHECK
 70
     0
  9
$CHAMFERA
 40
26.6
  9
$CHAMFERB
 40
26.6
  9
$CHAMFERC
 40
0.0
  9
$CHAMFERD
 40
0.0
  9
$SKPOLY
 70
     0
  9
$TDCREATE
 40
2454355.343801713
  9
$TDUCREATE
 40
2454355.010468380
  9
$TDUPDATE
 40
2457938.597765787
  9
$TDUUPDATE
 40
2457938.264432454
  9
$TDINDWG
 40
8.8066971759
  9
$TDUSRTIMER
 40
8.8066969907
  9
$USRTIMER
 70
     1
  9
$ANGBASE
 50
0.0
  9
$ANGDIR
 70
     0
  9
$PDMODE
 70
     0
  9
$PDSIZE
 40
0.0
  9
$PLINEWID
 40
0.0
  9
$SPLFRAME
 70
     0
  9
$SPLINETYPE
 70
     6
  9
$SPLINESEGS
 70
     8
  9
$HANDSEED
  5
D5AD7
  9
$SURFTAB1
 70
     6
  9
$SURFTAB2
 70
     6
  9
$SURFTYPE
 70
     6
  9
$SURFU
 70
     6
  9
$SURFV
 70
     6
  9
$UCSBASE
  2

  9
$UCSNAME
  2

  9
$UCSORG
 10
0.0
 20
0.0
 30
0.0
  9
$UCSXDIR
 10
1.0
 20
0.0
 30
0.0
  9
$UCSYDIR
 10
0.0
 20
1.0
 30
0.0
  9
$UCSORTHOREF
  2

  9
$UCSORTHOVIEW
 70
     0
  9
$UCSORGTOP
 10
0.0
 20
0.0
 30
0.0
  9
$UCSORGBOTTOM
 10
0.0
 20
0.0
 30
0.0
  9
$UCSORGLEFT
 10
0.0
 20
0.0
 30
0.0
  9
$UCSORGRIGHT
 10
0.0
 20
0.0
 30
0.0
  9
$UCSORGFRONT
 10
0.0
 20
0.0
 30
0.0
  9
$UCSORGBACK
 10
0.0
 20
0.0
 30
0.0
  9
$PUCSBASE
  2

  9
$PUCSNAME
  2

  9
$PUCSORG
 10
0.0
 20
0.0
 30
0.0
  9
$PUCSXDIR
 10
1.0
 20
0.0
 30
0.0
  9
$PUCSYDIR
 10
0.0
 20
1.0
 30
0.0
  9
$PUCSORTHOREF
  2

  9
$PUCSORTHOVIEW
 70
     0
  9
$PUCSORGTOP
 10
0.0
 20
0.0
 30
0.0
  9
$PUCSORGBOTTOM
 10
0.0
 20
0.0
 30
0.0
  9
$PUCSORGLEFT
 10
0.0
 20
0.0
 30
0.0
  9
$PUCSORGRIGHT
 10
0.0
 20
0.0
 30
0.0
  9
$PUCSORGFRONT
 10
0.0
 20
0.0
 30
0.0
  9
$PUCSORGBACK
 10
0.0
 20
0.0
 30
0.0
  9
$USERI1
 70
     0
  9
$USERI2
 70
     0
  9
$USERI3
 70
     0
  9
$USERI4
 70
     0
  9
$USERI5
 70
     0
  9
$USERR1
 40
0.0
  9
$USERR2
 40
0.0
  9
$USERR3
 40
0.0
  9
$USERR4
 40
0.0
  9
$USERR5
 40
2.5
  9
$WORLDVIEW
 70
     1
  9
$SHADEDGE
 70
     3
  9
$SHADEDIF
 70
    70
  9
$TILEMODE
 70
     1
  9
$MAXACTVP
 70
    64
  9
$PINSBASE
 10
0.0
 20
0.0
 30
0.0
  9
$PLIMCHECK
 70
     0
  9
$PEXTMIN
 10
0.0
 20
0.0
 30
0.0
  9
$PEXTMAX
 10
0.0
 20
0.0
 30
0.0
  9
$PLIMMIN
 10
0.0
 20
0.0
  9
$PLIMMAX
 10
12.0
 20
9.0
  9
$UNITMODE
 70
     0
  9
$VISRETAIN
 70
     1
  9
$PLINEGEN
 70
     0
  9
$PSLTSCALE
 70
     1
  9
$TREEDEPTH
 70
  3020
  9
$CMLSTYLE
  2
Standard
  9
$CMLJUST
 70
     0
  9
$CMLSCALE
 40
1.0
  9
$PROXYGRAPHICS
 70
     1
  9
$MEASUREMENT
 70
     0
  9
$CELWEIGHT
370
    -1
  9
$ENDCAPS
280
     0
  9
$JOINSTYLE
280
     0
  9
$LWDISPLAY
290
     0
  9
$INSUNITS
 70
     4
  9
$HYPERLINKBASE
  1

  9
$STYLESHEET
  1
MONOCHROME.CTB
  9
$XEDIT
290
     1
  9
$CEPSNTYPE
380
     0
  9
$PSTYLEMODE
290
     1
  9
$FINGERPRINTGUID
  2
{35BD88C0-9548-11D2-9A29-0060089B3A3F}
  9
$VERSIONGUID
  2
{2932994F-5E45-4BE0-AB1B-4B8F89B4D66F}
  9
$EXTNAMES
290
     1
  9
$PSVPSCALE
 40
0.0
  9
$OLESTARTUP
290
     0
  0
ENDSEC
  0
SECTION
  2
CLASSES
  0
CLASS
  1
ACDBDICTIONARYWDFLT
  2
AcDbDictionaryWithDefault
  3
ObjectDBX Classes
 90
        0
280
     0
281
     0
  0
CLASS
  1
ACDBPLACEHOLDER
  2
AcDbPlaceHolder
  3
ObjectDBX Classes
 90
        0
280
     0
281
     0
  0
CLASS
  1
LAYOUT
  2
AcDbLayout
  3
ObjectDBX Classes
 90
        0
280
     0
281
     0
  0
CLASS
  1
DICTIONARYVAR
  2
AcDbDictionaryVar
  3
ObjectDBX Classes
 90
        0
280
     0
281
     0
  0
CLASS
  1
SORTENTSTABLE
  2
AcDbSortentsTable
  3
ObjectDBX Classes
 90
        0
280
     0
281
     0
  0
CLASS
  1
DIMASSOC
  2
AcDbDimAssoc
  3
"AcDbDimAssoc|Product Desc:     AcDim ARX App For Dimension|Company:          Autodesk, Inc.|WEB Address:      www.autodesk.com"
 90
        0
280
     0
281
     0
  0
CLASS
  1
TABLESTYLE
  2
AcDbTableStyle
  3
ObjectDBX Classes
 90
     4095
280
     0
281
     0
  0
CLASS
  1
VLO-VL
  2
vlo_VL
  3
VL|AutoLISP based application
 90
      129
280
     0
281
     0
  0
CLASS
  1
MATERIAL
  2
AcDbMaterial
  3
ObjectDBX Classes
 90
     1153
280
     0
281
     0
  0
CLASS
  1
VISUALSTYLE
  2
AcDbVisualStyle
  3
ObjectDBX Classes
 90
     4095
280
     0
281
     0
  0
CLASS
  1
SCALE
  2
AcDbScale
  3
ObjectDBX Classes
 90
     1153
280
     0
281
     0
  0
CLASS
  1
MLEADERSTYLE
  2
AcDbMLeaderStyle
  3
ACDB_MLEADERSTYLE_CLASS
 90
     4095
280
     0
281
     0
  0
CLASS
  1
CELLSTYLEMAP
  2
AcDbCellStyleMap
  3
ObjectDBX Classes
 90
     1152
280
     0
281
     0
  0
ENDSEC
  0
SECTION
  2
TABLES
  0
TABLE
  2
VPORT
  5
8
330
0
100
AcDbSymbolTable
 70
     1
  0
VPORT
  5
CED6D
330
8
100
AcDbSymbolTableRecord
100
AcDbViewportTableRecord
  2
*Active
 70
     0
 10
0.0
 20
0.0
 11
1.0
 21
1.0
 12
108641.2474551474
 22
-169016.5987779419
 13
0.0
 23
0.0
 14
0.5
 24
0.5
 15
0.5
 25
0.5
 16
0.0
 26
0.0
 36
1.0
 17
0.0
 27
0.0
 37
0.0
 40
6055.452026308747
 41
2.241676942046855
 42
50.0
 43
0.0
 44
0.0
 50
0.0
 51
0.0
 71
     0
 72
  1000
 73
     1
 74
     3
 75
     0
 76
     0
 77
     0
 78
     0
281
     0
 65
     1
110
0.0
120
0.0
130
0.0
111
1.0
121
0.0
131
0.0
112
0.0
122
1.0
132
0.0
 79
     0
146
0.0
  0
ENDTAB
  0
TABLE
  2
LTYPE
  5
5
330
0
100
AcDbSymbolTable
 70
     4
  0
LTYPE
  5
14
330
5
100
AcDbSymbolTableRecord
100
AcDbLinetypeTableRecord
  2
ByBlock
 70
     0
  3

 72
    65
 73
     0
 40
0.0
  0
LTYPE
  5
15
330
5
100
AcDbSymbolTableRecord
100
AcDbLinetypeTableRecord
  2
ByLayer
 70
     0
  3

 72
    65
 73
     0
 40
0.0
  0
LTYPE
  5
16
330
5
100
AcDbSymbolTableRecord
100
AcDbLinetypeTableRecord
  2
Continuous
 70
     0
  3
Solid line
 72
    65
 73
     0
 40
0.0
  0
LTYPE
  5
98
330
5
100
AcDbSymbolTableRecord
100
AcDbLinetypeTableRecord
  2
HIDDEN2
 70
     0
  3
Hidden (.5x) _ _ _ _ _ _ _ _ _ _ _ _ _ _ _ _ _
 72
    65
 73
     2
 40
4.762499999999998
 49
3.174999999999998
 74
     0
 49
-1.587499999999999
 74
     0
  0
LTYPE
  5
D54F3
330
5
100
AcDbSymbolTableRecord
100
AcDbLinetypeTableRecord
  2
CENTERX2
 70
     0
  3
Center (2x) ________  __  ________  __  _____
 72
    65
 73
     4
 40
101.6
 49
63.5
 74
     0
 49
-12.7
 74
     0
 49
12.7
 74
     0
 49
-12.7
 74
     0
  0
LTYPE
  5
D57DB
330
5
100
AcDbSymbolTableRecord
100
AcDbLinetypeTableRecord
  2
CENTER
 70
     0
  3
Center ____ _ ____ _ ____ _ ____ _ ____ _ ____
 72
    65
 73
     4
 40
50.8
 49
31.75
 74
     0
 49
-6.349999999999998
 74
     0
 49
6.349999999999998
 74
     0
 49
-6.349999999999998
 74
     0
  0
ENDTAB
  0
TABLE
  2
LAYER
  5
2
102
{ACAD_XDICTIONARY
360
AB
102
}
330
0
100
AcDbSymbolTable
 70
     6
  0
LAYER
  5
10
102
{ACAD_XDICTIONARY
360
CF251
102
}
330
2
100
AcDbSymbolTableRecord
100
AcDbLayerTableRecord
  2
0
 70
     0
 62
     7
  6
Continuous
370
    18
390
F
  0
LAYER
  5
9D
102
{ACAD_XDICTIONARY
360
CF259
102
}
330
2
100
AcDbSymbolTableRecord
100
AcDbLayerTableRecord
  2
虚线
 70
     0
 62
     4
  6
HIDDEN2
370
     9
390
F
  0
LAYER
  5
9E
102
{ACAD_XDICTIONARY
360
CF25B
102
}
330
2
100
AcDbSymbolTableRecord
100
AcDbLayerTableRecord
  2
细实线
 70
     0
 62
     7
  6
Continuous
370
     9
390
F
  0
LAYER
  5
582
330
2
100
AcDbSymbolTableRecord
100
AcDbLayerTableRecord
  2
Defpoints
 70
     0
 62
     7
  6
Continuous
290
     0
370
     9
390
F
  0
LAYER
  5
16DF9
102
{ACAD_XDICTIONARY
360
CF25D
102
}
330
2
100
AcDbSymbolTableRecord
100
AcDbLayerTableRecord
  2
标注
 70
     0
 62
    80
  6
Continuous
370
     5
390
F
1001
AcAecLayerStandard
1000

1000

  0
LAYER
  5
D54F4
330
2
100
AcDbSymbolTableRecord
100
AcDbLayerTableRecord
  2
中心线
 70
     0
 62
   230
  6
CENTERX2
370
    -3
390
F
1001
AcAecLayerStandard
1000

1000

  0
ENDTAB
  0
TABLE
  2
STYLE
  5
3
330
0
100
AcDbSymbolTable
 70
     2
  0
STYLE
  5
11
330
3
100
AcDbSymbolTableRecord
100
AcDbTextStyleTableRecord
  2
Standard
 70
     0
 40
0.0
 41
1.0
 50
0.0
 71
     0
 42
0.2
  3
SimSun.ttf
  4

1001
ACAD
1000
SimSun
1071
    34306
  0
STYLE
  5
9D6ED
330
3
100
AcDbSymbolTableRecord
100
AcDbTextStyleTableRecord
  2
A301
 70
     0
 40
3.5
 41
0.75
 50
0.0
 71
     0
 42
0.0
  3
SimSun.ttf
  4

1001
ACAD
1000
SimSun
1071
    34306
  0
ENDTAB
  0
TABLE
  2
VIEW
  5
6
330
0
100
AcDbSymbolTable
 70
     0
  0
ENDTAB
  0
TABLE
  2
UCS
  5
7
330
0
100
AcDbSymbolTable
 70
     0
  0
ENDTAB
  0
TABLE
  2
APPID
  5
9
330
0
100
AcDbSymbolTable
 70
    17
  0
APPID
  5
12
330
9
100
AcDbSymbolTableRecord
100
AcDbRegAppTableRecord
  2
ACAD
 70
     0
  0
APPID
  5
A5
330
9
100
AcDbSymbolTableRecord
100
AcDbRegAppTableRecord
  2
AcAecLayerStandard
 70
     0
  0
APPID
  5
A6
330
9
100
AcDbSymbolTableRecord
100
AcDbRegAppTableRecord
  2
ACAD_DSTYLE_DIMEXT_LENGTH
 70
     0
  0
APPID
  5
A7
330
9
100
AcDbSymbolTableRecord
100
AcDbRegAppTableRecord
  2
ACAD_DSTYLE_DIMEXT_ENABLED
 70
     0
  0
APPID
  5
A8
330
9
100
AcDbSymbolTableRecord
100
AcDbRegAppTableRecord
  2
ACAD_DSTYLE_DIMJOGGED_JOGANGLE_SYMBOL
 70
     0
  0
APPID
  5
A9
330
9
100
AcDbSymbolTableRecord
100
AcDbRegAppTableRecord
  2
ACAD_DSTYLE_DIMARC_LENGTH_SYMBOL
 70
     0
  0
APPID
  5
AA
330
9
100
AcDbSymbolTableRecord
100
AcDbRegAppTableRecord
  2
ACAD_PSEXT
 70
     0
  0
APPID
  5
173
330
9
100
AcDbSymbolTableRecord
100
AcDbRegAppTableRecord
  2
DCO15
 70
     0
  0
APPID
  5
11D5
330
9
100
AcDbSymbolTableRecord
100
AcDbRegAppTableRecord
  2
ACAD_EXEMPT_FROM_CAD_STANDARDS
 70
     0
  0
APPID
  5
B456
330
9
100
AcDbSymbolTableRecord
100
AcDbRegAppTableRecord
  2
ACAD_DSTYLE_DIMTEXT_FILL
 70
     0
  0
APPID
  5
B459
330
9
100
AcDbSymbolTableRecord
100
AcDbRegAppTableRecord
  2
ACAD_DSTYLE_DIM_LINETYPE
 70
     0
  0
APPID
  5
B45A
330
9
100
AcDbSymbolTableRecord
100
AcDbRegAppTableRecord
  2
ACAD_DSTYLE_DIM_EXT1_LINETYPE
 70
     0
  0
APPID
  5
B45B
330
9
100
AcDbSymbolTableRecord
100
AcDbRegAppTableRecord
  2
ACAD_DSTYLE_DIM_EXT2_LINETYPE
 70
     0
  0
APPID
  5
CEDBC
330
9
100
AcDbSymbolTableRecord
100
AcDbRegAppTableRecord
  2
ACAD_MLEADERVER
 70
     0
  0
APPID
  5
CF35C
330
9
100
AcDbSymbolTableRecord
100
AcDbRegAppTableRecord
  2
ACAD_DSTYLE_DIMRADIAL_EXTENSION
 70
     0
  0
APPID
  5
CF43A
330
9
100
AcDbSymbolTableRecord
100
AcDbRegAppTableRecord
  2
ACAD_DSTYLE_DIMJAG
 70
     0
  0
APPID
  5
CF43B
330
9
100
AcDbSymbolTableRecord
100
AcDbRegAppTableRecord
  2
ACAD_DSTYLE_DIMTALN
 70
     0
  0
ENDTAB
  0
TABLE
  2
DIMSTYLE
  5
A
330
0
100
AcDbSymbolTable
 70
     3
100
AcDbDimStyleTable
 71
     2
340
3BDB5
340
27
  0
DIMSTYLE
105
27
330
A
100
AcDbSymbolTableRecord
100
AcDbDimStyleTableRecord
  2
Standard
 70
     0
 41
20.0
 42
25.0
 44
8.0
 73
     0
 74
     0
 78
     8
 79
     2
140
20.0
147
5.0
172
     1
176
     3
177
     3
178
     3
179
     1
271
     1
272
     1
278
    44
340
11
1001
ACAD_DSTYLE_DIMJOGGED_JOGANGLE_SYMBOL
1070
   384
1040
0.7853981633974483
1001
ACAD_DSTYLE_DIMEXT_LENGTH
1070
   378
1040
8.0
  0
DIMSTYLE
105
3BDB5
102
{ACAD_REACTORS
330
D571D
330
D571E
330
D5721
330
D5724
330
D5727
330
D572A
330
D572E
330
D5731
330
D5734
330
D57FE
330
D580E
330
D581E
330
D582E
330
D584E
330
D585E
330
D587C
330
D5896
330
D58A5
330
D58B3
330
D58D1
330
D58FF
330
D56EF
330
D56F0
330
D56F3
330
D56F6
330
D56F9
330
D56FC
330
D56FF
330
D5700
330
D5703
330
D5706
102
}
330
A
100
AcDbSymbolTableRecord
100
AcDbDimStyleTableRecord
  2
副本Standard
 70
     0
  4
"
 41
16.0
 42
7.0
 44
7.0
 73
     0
 74
     0
 78
     8
 79
     2
140
20.0
141
2.5
143
0.03937
147
1.0
171
     3
172
     1
176
   256
177
   256
178
   256
179
     1
271
     1
272
     1
273
     7
274
     3
278
    44
340
11
1001
ACAD_DSTYLE_DIMJAG
1070
   388
1040
1.5
1001
ACAD_DSTYLE_DIMTALN
1070
   392
1070
     0
  0
DIMSTYLE
105
D54F5
330
A
100
AcDbSymbolTableRecord
100
AcDbDimStyleTableRecord
  2
mav
 70
     0
 41
12.0
 42
7.0
 43
3.75
 44
1.25
 73
     0
 74
     0
 77
     1
 78
     8
140
15.0
141
2.5
143
0.03937007874016
147
5.0
171
     3
172
     1
271
     2
272
     2
274
     3
278
    44
283
     0
284
     8
340
11
1001
ACAD_DSTYLE_DIMEXT_LENGTH
1070
   378
1040
1.25
1001
ACAD_DSTYLE_DIMJOGGED_JOGANGLE_SYMBOL
1070
   384
1040
1.570796326794896
  0
ENDTAB
  0
TABLE
  2
BLOCK_RECORD
  5
1
330
0
100
AcDbSymbolTable
 70
    33
  0
BLOCK_RECORD
  5
1F
102
{ACAD_XDICTIONARY
360
118B
102
}
330
1
100
AcDbSymbolTableRecord
100
AcDbBlockTableRecord
  2
*Model_Space
340
22
  0
BLOCK_RECORD
  5
73
330
1
100
AcDbSymbolTableRecord
100
AcDbBlockTableRecord
  2
*Paper_Space
340
74
  0
BLOCK_RECORD
  5
78
330
1
100
AcDbSymbolTableRecord
100
AcDbBlockTableRecord
  2
*Paper_Space0
340
79
  0
BLOCK_RECORD
  5
D566A
330
1
100
AcDbSymbolTableRecord
100
AcDbBlockTableRecord
  2
*D1
340
0
  0
BLOCK_RECORD
  5
D5676
330
1
100
AcDbSymbolTableRecord
100
AcDbBlockTableRecord
  2
*D2
340
0
  0
BLOCK_RECORD
  5
D5684
330
1
100
AcDbSymbolTableRecord
100
AcDbBlockTableRecord
  2
*D3
340
0
  0
BLOCK_RECORD
  5
D5691
330
1
100
AcDbSymbolTableRecord
100
AcDbBlockTableRecord
  2
*D4
340
0
  0
BLOCK_RECORD
  5
D569E
330
1
100
AcDbSymbolTableRecord
100
AcDbBlockTableRecord
  2
*D5
340
0
  0
BLOCK_RECORD
  5
D56AB
330
1
100
AcDbSymbolTableRecord
100
AcDbBlockTableRecord
  2
*D6
340
0
  0
BLOCK_RECORD
  5
D56B8
330
1
100
AcDbSymbolTableRecord
100
AcDbBlockTableRecord
  2
*D7
340
0
  0
BLOCK_RECORD
  5
D56C0
330
1
100
AcDbSymbolTableRecord
100
AcDbBlockTableRecord
  2
*D8
340
0
  0
BLOCK_RECORD
  5
D56C8
330
1
100
AcDbSymbolTableRecord
100
AcDbBlockTableRecord
  2
*D9
340
0
  0
BLOCK_RECORD
  5
D56D0
330
1
100
AcDbSymbolTableRecord
100
AcDbBlockTableRecord
  2
*D10
340
0
  0
BLOCK_RECORD
  5
D56DE
102
{ACAD_XDICTIONARY
360
D5709
102
}
330
1
100
AcDbSymbolTableRecord
100
AcDbBlockTableRecord
  2
A$C585C4634
340
0
1001
ACAD
1000
DesignCenter Data
1002
{
1070
     1
1070
     4
1002
}
  0
BLOCK_RECORD
  5
D5737
330
1
100
AcDbSymbolTableRecord
100
AcDbBlockTableRecord
  2
*D12
340
0
  0
BLOCK_RECORD
  5
D5754
330
1
100
AcDbSymbolTableRecord
100
AcDbBlockTableRecord
  2
*D13
340
0
  0
BLOCK_RECORD
  5
D5762
330
1
100
AcDbSymbolTableRecord
100
AcDbBlockTableRecord
  2
*D14
340
0
  0
BLOCK_RECORD
  5
D576F
330
1
100
AcDbSymbolTableRecord
100
AcDbBlockTableRecord
  2
*D15
340
0
  0
BLOCK_RECORD
  5
D577C
330
1
100
AcDbSymbolTableRecord
100
AcDbBlockTableRecord
  2
*D16
340
0
  0
BLOCK_RECORD
  5
D5789
330
1
100
AcDbSymbolTableRecord
100
AcDbBlockTableRecord
  2
*D17
340
0
  0
BLOCK_RECORD
  5
D579B
330
1
100
AcDbSymbolTableRecord
100
AcDbBlockTableRecord
  2
*D18
340
0
  0
BLOCK_RECORD
  5
D57A3
330
1
100
AcDbSymbolTableRecord
100
AcDbBlockTableRecord
  2
*D19
340
0
  0
BLOCK_RECORD
  5
D57AB
330
1
100
AcDbSymbolTableRecord
100
AcDbBlockTableRecord
  2
*D20
340
0
  0
BLOCK_RECORD
  5
D57FF
330
1
100
AcDbSymbolTableRecord
100
AcDbBlockTableRecord
  2
*D21
340
0
  0
BLOCK_RECORD
  5
D580F
330
1
100
AcDbSymbolTableRecord
100
AcDbBlockTableRecord
  2
*D22
340
0
  0
BLOCK_RECORD
  5
D581F
330
1
100
AcDbSymbolTableRecord
100
AcDbBlockTableRecord
  2
*D23
340
0
  0
BLOCK_RECORD
  5
D582F
330
1
100
AcDbSymbolTableRecord
100
AcDbBlockTableRecord
  2
*D24
340
0
  0
BLOCK_RECORD
  5
D584F
330
1
100
AcDbSymbolTableRecord
100
AcDbBlockTableRecord
  2
*D25
340
0
  0
BLOCK_RECORD
  5
D585F
330
1
100
AcDbSymbolTableRecord
100
AcDbBlockTableRecord
  2
*D26
340
0
  0
BLOCK_RECORD
  5
D587D
330
1
100
AcDbSymbolTableRecord
100
AcDbBlockTableRecord
  2
*D27
340
0
  0
BLOCK_RECORD
  5
D5897
330
1
100
AcDbSymbolTableRecord
100
AcDbBlockTableRecord
  2
*D28
340
0
  0
BLOCK_RECORD
  5
D58A6
330
1
100
AcDbSymbolTableRecord
100
AcDbBlockTableRecord
  2
*D29
340
0
  0
BLOCK_RECORD
  5
D58B4
330
1
100
AcDbSymbolTableRecord
100
AcDbBlockTableRecord
  2
*D30
340
0
  0
BLOCK_RECORD
  5
D58D2
330
1
100
AcDbSymbolTableRecord
100
AcDbBlockTableRecord
  2
*D31
340
0
  0
BLOCK_RECORD
  5
D5900
330
1
100
AcDbSymbolTableRecord
100
AcDbBlockTableRecord
  2
*D32
340
0
  0
ENDTAB
  0
ENDSEC
  0
SECTION
  2
BLOCKS
  0
BLOCK
  5
20
330
1F
100
AcDbEntity
  8
0
100
AcDbBlockBegin
  2
*Model_Space
 70
     0
 10
0.0
 20
0.0
 30
0.0
  3
*Model_Space
  1

  0
ENDBLK
  5
21
330
1F
100
AcDbEntity
  8
0
100
AcDbBlockEnd
  0
BLOCK
  5
75
330
73
100
AcDbEntity
 67
     1
  8
0
100
AcDbBlockBegin
  2
*Paper_Space
 70
     0
 10
0.0
 20
0.0
 30
0.0
  3
*Paper_Space
  1

  0
ENDBLK
  5
76
330
73
100
AcDbEntity
 67
     1
  8
0
100
AcDbBlockEnd
  0
BLOCK
  5
7A
330
78
100
AcDbEntity
 67
     1
  8
0
100
AcDbBlockBegin
  2
*Paper_Space0
 70
     0
 10
0.0
 20
0.0
 30
0.0
  3
*Paper_Space0
  1

  0
ENDBLK
  5
7B
330
78
100
AcDbEntity
 67
     1
  8
0
100
AcDbBlockEnd
  0
BLOCK
  5
D566B
330
D566A
100
AcDbEntity
  8
0
 48
5.0
100
AcDbBlockBegin
  2
*D1
 70
     1
 10
0.0
 20
0.0
 30
0.0
  3
*D1
  1

  0
LINE
  5
D566C
330
D566A
100
AcDbEntity
  8
标注
 48
5.0
370
    -2
100
AcDbLine
 10
106354.1971649153
 20
-169647.6017100983
 30
0.0
 11
106354.1971649153
 21
-169657.6017100984
 31
0.0
  0
LINE
  5
D566D
330
D566A
100
AcDbEntity
  8
标注
 48
5.0
370
    -2
100
AcDbLine
 10
106354.1971649153
 20
-169623.5967038366
 30
0.0
 11
106354.1971649153
 21
-169613.5967038366
 31
0.0
  0
LINE
  5
D566E
330
D566A
100
AcDbEntity
  8
标注
 48
5.0
370
    -2
100
AcDbLine
 10
106354.1971649153
 20
-169637.6017100984
 30
0.0
 11
106354.1971649153
 21
-169633.5967038366
 31
0.0
  0
SOLID
  5
D566F
330
D566A
100
AcDbEntity
  8
标注
 48
5.0
100
AcDbTrace
 10
106352.5304982487
 20
-169647.6017100983
 30
0.0
 11
106355.863831582
 21
-169647.6017100983
 31
0.0
 12
106354.1971649153
 22
-169637.6017100984
 32
0.0
 13
106354.1971649153
 23
-169637.6017100984
 33
0.0
  0
SOLID
  5
D5670
330
D566A
100
AcDbEntity
  8
标注
 48
5.0
100
AcDbTrace
 10
106352.5304982487
 20
-169623.5967038366
 30
0.0
 11
106355.863831582
 21
-169623.5967038366
 31
0.0
 12
106354.1971649153
 22
-169633.5967038366
 32
0.0
 13
106354.1971649153
 23
-169633.5967038366
 33
0.0
  0
MTEXT
  5
D5671
330
D566A
100
AcDbEntity
  8
标注
 48
5.0
100
AcDbMText
 10
106354.1971649153
 20
-169609.4300371699
 30
0.0
 40
12.0
 41
0.0
 71
     5
 72
     1
  1
\A1;4
 11
0.0000000000000001
 21
1.0
 31
0.0
 73
     1
 44
1.0
1001
ACAD
1000
MTEXTBEGIN
1070
    73
1070
     1
1070
    44
1040
1.0
1070
    74
1070
     0
1000
MTEXTEND
  0
POINT
  5
D5672
330
D566A
100
AcDbEntity
  8
Defpoints
 62
     0
 48
5.0
100
AcDbPoint
 10
106354.1971649153
 20
-169637.6017100984
 30
0.0
  0
POINT
  5
D5673
330
D566A
100
AcDbEntity
  8
Defpoints
 62
     0
 48
5.0
100
AcDbPoint
 10
106354.1971649153
 20
-169633.5967038366
 30
0.0
  0
POINT
  5
D5674
330
D566A
100
AcDbEntity
  8
Defpoints
 62
     0
 48
5.0
100
AcDbPoint
 10
106354.1971649153
 20
-169633.5967038366
 30
0.0
  0
ENDBLK
  5
D5675
330
D566A
100
AcDbEntity
  8
0
 48
5.0
100
AcDbBlockEnd
  0
BLOCK
  5
D5677
330
D5676
100
AcDbEntity
  8
0
 48
5.0
100
AcDbBlockBegin
  2
*D2
 70
     1
 10
0.0
 20
0.0
 30
0.0
  3
*D2
  1

  0
LINE
  5
D5678
330
D5676
100
AcDbEntity
  8
标注
 48
5.0
370
    -2
100
AcDbLine
 10
106244.7129454424
 20
-169324.4974895118
 30
0.0
 11
106244.7129454424
 21
-169324.2672542177
 31
0.0
  0
LINE
  5
D5679
330
D5676
100
AcDbEntity
  8
标注
 48
5.0
370
    -2
100
AcDbLine
 10
106240.7063028964
 20
-169324.4974895118
 30
0.0
 11
106240.7063028964
 21
-169324.2672542177
 31
0.0
  0
LINE
  5
D567A
330
D5676
100
AcDbEntity
  8
标注
 48
5.0
370
    -2
100
AcDbLine
 10
106254.7129454424
 20
-169331.2672542177
 30
0.0
 11
106264.7129454424
 21
-169331.2672542177
 31
0.0
  0
LINE
  5
D567B
330
D5676
100
AcDbEntity
  8
标注
 48
5.0
370
    -2
100
AcDbLine
 10
106230.7063028964
 20
-169331.2672542177
 30
0.0
 11
106220.7063028964
 21
-169331.2672542177
 31
0.0
  0
LINE
  5
D567C
330
D5676
100
AcDbEntity
  8
标注
 48
5.0
370
    -2
100
AcDbLine
 10
106244.7129454424
 20
-169331.2672542177
 30
0.0
 11
106240.7063028964
 21
-169331.2672542177
 31
0.0
  0
SOLID
  5
D567D
330
D5676
100
AcDbEntity
  8
标注
 48
5.0
100
AcDbTrace
 10
106254.7129454424
 20
-169329.600587551
 30
0.0
 11
106254.7129454424
 21
-169332.9339208843
 31
0.0
 12
106244.7129454424
 22
-169331.2672542177
 32
0.0
 13
106244.7129454424
 23
-169331.2672542177
 33
0.0
  0
SOLID
  5
D567E
330
D5676
100
AcDbEntity
  8
标注
 48
5.0
100
AcDbTrace
 10
106230.7063028964
 20
-169329.600587551
 30
0.0
 11
106230.7063028964
 21
-169332.9339208843
 31
0.0
 12
106240.7063028964
 22
-169331.2672542177
 32
0.0
 13
106240.7063028964
 23
-169331.2672542177
 33
0.0
  0
MTEXT
  5
D567F
330
D5676
100
AcDbEntity
  8
标注
 48
5.0
100
AcDbMText
 10
106216.5396362297
 20
-169331.2672542177
 30
0.0
 40
12.0
 41
0.0
 71
     5
 72
     1
  1
\A1;4
 73
     1
 44
1.0
1001
ACAD
1000
MTEXTBEGIN
1070
    73
1070
     1
1070
    44
1040
1.0
1070
    74
1070
     0
1000
MTEXTEND
  0
POINT
  5
D5680
330
D5676
100
AcDbEntity
  8
Defpoints
 62
     0
 48
5.0
100
AcDbPoint
 10
106244.7129454424
 20
-169331.4974895118
 30
0.0
  0
POINT
  5
D5681
330
D5676
100
AcDbEntity
  8
Defpoints
 62
     0
 48
5.0
100
AcDbPoint
 10
106240.7063028964
 20
-169331.4974895117
 30
0.0
  0
POINT
  5
D5682
330
D5676
100
AcDbEntity
  8
Defpoints
 62
     0
 48
5.0
100
AcDbPoint
 10
106240.7063028964
 20
-169331.2672542177
 30
0.0
  0
ENDBLK
  5
D5683
330
D5676
100
AcDbEntity
  8
0
 48
5.0
100
AcDbBlockEnd
  0
BLOCK
  5
D5685
330
D5684
100
AcDbEntity
  8
0
 48
5.0
100
AcDbBlockBegin
  2
*D3
 70
     1
 10
0.0
 20
0.0
 30
0.0
  3
*D3
  1

  0
LINE
  5
D5686
330
D5684
100
AcDbEntity
  8
标注
 48
5.0
370
    -2
100
AcDbLine
 10
106786.7655588371
 20
-169442.1033718647
 30
0.0
 11
106786.7655588371
 21
-169677.0007824764
 31
0.0
  0
LINE
  5
D5687
330
D5684
100
AcDbEntity
  8
标注
 48
5.0
370
    -2
100
AcDbLine
 10
106241.7287553734
 20
-169442.1033718647
 30
0.0
 11
106241.7287553734
 21
-169677.0007824764
 31
0.0
  0
LINE
  5
D5688
330
D5684
100
AcDbEntity
  8
标注
 48
5.0
370
    -2
100
AcDbLine
 10
106776.7655588371
 20
-169670.0007824764
 30
0.0
 11
106526.5138237719
 21
-169670.0007824764
 31
0.0
  0
LINE
  5
D5689
330
D5684
100
AcDbEntity
  8
标注
 48
5.0
370
    -2
100
AcDbLine
 10
106251.7287553734
 20
-169670.0007824764
 30
0.0
 11
106501.9804904386
 21
-169670.0007824764
 31
0.0
  0
SOLID
  5
D568A
330
D5684
100
AcDbEntity
  8
标注
 48
5.0
100
AcDbTrace
 10
106776.7655588371
 20
-169668.3341158098
 30
0.0
 11
106776.7655588371
 21
-169671.6674491431
 31
0.0
 12
106786.7655588371
 22
-169670.0007824764
 32
0.0
 13
106786.7655588371
 23
-169670.0007824764
 33
0.0
  0
SOLID
  5
D568B
330
D5684
100
AcDbEntity
  8
标注
 48
5.0
100
AcDbTrace
 10
106251.7287553734
 20
-169668.3341158098
 30
0.0
 11
106251.7287553734
 21
-169671.6674491431
 31
0.0
 12
106241.7287553734
 22
-169670.0007824764
 32
0.0
 13
106241.7287553734
 23
-169670.0007824764
 33
0.0
  0
MTEXT
  5
D568C
330
D5684
100
AcDbEntity
  8
标注
 48
5.0
100
AcDbMText
 10
106514.2471571053
 20
-169670.0007824764
 30
0.0
 40
12.0
 41
0.0
 71
     5
 72
     1
  1
\A1;545
 73
     1
 44
1.0
1001
ACAD
1000
MTEXTBEGIN
1070
    73
1070
     1
1070
    44
1040
1.0
1070
    74
1070
     0
1000
MTEXTEND
  0
POINT
  5
D568D
330
D5684
100
AcDbEntity
  8
Defpoints
 62
     0
 48
5.0
100
AcDbPoint
 10
106786.7655588371
 20
-169435.1033718647
 30
0.0
  0
POINT
  5
D568E
330
D5684
100
AcDbEntity
  8
Defpoints
 62
     0
 48
5.0
100
AcDbPoint
 10
106241.7287553734
 20
-169435.1033718647
 30
0.0
  0
POINT
  5
D568F
330
D5684
100
AcDbEntity
  8
Defpoints
 62
     0
 48
5.0
100
AcDbPoint
 10
106241.7287553734
 20
-169670.0007824764
 30
0.0
  0
ENDBLK
  5
D5690
330
D5684
100
AcDbEntity
  8
0
 48
5.0
100
AcDbBlockEnd
  0
BLOCK
  5
D5692
330
D5691
100
AcDbEntity
  8
0
 48
5.0
100
AcDbBlockBegin
  2
*D4
 70
     1
 10
0.0
 20
0.0
 30
0.0
  3
*D4
  1

  0
LINE
  5
D5693
330
D5691
100
AcDbEntity
  8
标注
 48
5.0
370
    -2
100
AcDbLine
 10
106790.7655588371
 20
-169442.1033718647
 30
0.0
 11
106790.7655588371
 21
-169702.7834330795
 31
0.0
  0
LINE
  5
D5694
330
D5691
100
AcDbEntity
  8
标注
 48
5.0
370
    -2
100
AcDbLine
 10
106237.7287553734
 20
-169442.1033718647
 30
0.0
 11
106237.7287553734
 21
-169702.7834330795
 31
0.0
  0
LINE
  5
D5695
330
D5691
100
AcDbEntity
  8
标注
 48
5.0
370
    -2
100
AcDbLine
 10
106780.7655588371
 20
-169695.7834330795
 30
0.0
 11
106526.5138237719
 21
-169695.7834330795
 31
0.0
  0
LINE
  5
D5696
330
D5691
100
AcDbEntity
  8
标注
 48
5.0
370
    -2
100
AcDbLine
 10
106247.7287553734
 20
-169695.7834330795
 30
0.0
 11
106501.9804904386
 21
-169695.7834330795
 31
0.0
  0
SOLID
  5
D5697
330
D5691
100
AcDbEntity
  8
标注
 48
5.0
100
AcDbTrace
 10
106780.7655588371
 20
-169694.1167664128
 30
0.0
 11
106780.7655588371
 21
-169697.4500997461
 31
0.0
 12
106790.7655588371
 22
-169695.7834330795
 32
0.0
 13
106790.7655588371
 23
-169695.7834330795
 33
0.0
  0
SOLID
  5
D5698
330
D5691
100
AcDbEntity
  8
标注
 48
5.0
100
AcDbTrace
 10
106247.7287553734
 20
-169694.1167664128
 30
0.0
 11
106247.7287553734
 21
-169697.4500997461
 31
0.0
 12
106237.7287553734
 22
-169695.7834330795
 32
0.0
 13
106237.7287553734
 23
-169695.7834330795
 33
0.0
  0
MTEXT
  5
D5699
330
D5691
100
AcDbEntity
  8
标注
 48
5.0
100
AcDbMText
 10
106514.2471571053
 20
-169695.7834330795
 30
0.0
 40
12.0
 41
0.0
 71
     5
 72
     1
  1
\A1;553
 73
     1
 44
1.0
1001
ACAD
1000
MTEXTBEGIN
1070
    73
1070
     1
1070
    44
1040
1.0
1070
    74
1070
     0
1000
MTEXTEND
  0
POINT
  5
D569A
330
D5691
100
AcDbEntity
  8
Defpoints
 62
     0
 48
5.0
100
AcDbPoint
 10
106790.7655588371
 20
-169435.1033718647
 30
0.0
  0
POINT
  5
D569B
330
D5691
100
AcDbEntity
  8
Defpoints
 62
     0
 48
5.0
100
AcDbPoint
 10
106237.7287553734
 20
-169435.1033718647
 30
0.0
  0
POINT
  5
D569C
330
D5691
100
AcDbEntity
  8
Defpoints
 62
     0
 48
5.0
100
AcDbPoint
 10
106237.7287553734
 20
-169695.7834330795
 30
0.0
  0
ENDBLK
  5
D569D
330
D5691
100
AcDbEntity
  8
0
 48
5.0
100
AcDbBlockEnd
  0
BLOCK
  5
D569F
330
D569E
100
AcDbEntity
  8
0
 48
5.0
100
AcDbBlockBegin
  2
*D5
 70
     1
 10
0.0
 20
0.0
 30
0.0
  3
*D5
  1

  0
LINE
  5
D56A0
330
D569E
100
AcDbEntity
  8
标注
 48
5.0
370
    -2
100
AcDbLine
 10
106521.2471571053
 20
-169637.6017100984
 30
0.0
 11
106829.8369756758
 21
-169637.6017100984
 31
0.0
  0
LINE
  5
D56A1
330
D569E
100
AcDbEntity
  8
标注
 48
5.0
370
    -2
100
AcDbLine
 10
106521.2471571053
 20
-169232.6050336311
 30
0.0
 11
106829.8369756758
 21
-169232.6050336311
 31
0.0
  0
LINE
  5
D56A2
330
D569E
100
AcDbEntity
  8
标注
 48
5.0
370
    -2
100
AcDbLine
 10
106822.8369756758
 20
-169627.6017100984
 30
0.0
 11
106822.8369756758
 21
-169447.5700385314
 31
0.0
  0
LINE
  5
D56A3
330
D569E
100
AcDbEntity
  8
标注
 48
5.0
370
    -2
100
AcDbLine
 10
106822.8369756758
 20
-169242.6050336311
 30
0.0
 11
106822.8369756758
 21
-169422.6367051981
 31
0.0
  0
SOLID
  5
D56A4
330
D569E
100
AcDbEntity
  8
标注
 48
5.0
100
AcDbTrace
 10
106821.1703090091
 20
-169627.6017100984
 30
0.0
 11
106824.5036423425
 21
-169627.6017100984
 31
0.0
 12
106822.8369756758
 22
-169637.6017100984
 32
0.0
 13
106822.8369756758
 23
-169637.6017100984
 33
0.0
  0
SOLID
  5
D56A5
330
D569E
100
AcDbEntity
  8
标注
 48
5.0
100
AcDbTrace
 10
106821.1703090091
 20
-169242.6050336311
 30
0.0
 11
106824.5036423425
 21
-169242.6050336311
 31
0.0
 12
106822.8369756758
 22
-169232.6050336311
 32
0.0
 13
106822.8369756758
 23
-169232.6050336311
 33
0.0
  0
MTEXT
  5
D56A6
330
D569E
100
AcDbEntity
  8
标注
 48
5.0
100
AcDbMText
 10
106822.8369756758
 20
-169435.1033718647
 30
0.0
 40
12.0
 41
0.0
 71
     5
 72
     1
  1
\A1;405
 11
0.0000000000000001
 21
1.0
 31
0.0
 73
     1
 44
1.0
1001
ACAD
1000
MTEXTBEGIN
1070
    73
1070
     1
1070
    44
1040
1.0
1070
    74
1070
     0
1000
MTEXTEND
  0
POINT
  5
D56A7
330
D569E
100
AcDbEntity
  8
Defpoints
 62
     0
 48
5.0
100
AcDbPoint
 10
106514.2471571053
 20
-169637.6017100984
 30
0.0
  0
POINT
  5
D56A8
330
D569E
100
AcDbEntity
  8
Defpoints
 62
     0
 48
5.0
100
AcDbPoint
 10
106514.2471571053
 20
-169232.6050336311
 30
0.0
  0
POINT
  5
D56A9
330
D569E
100
AcDbEntity
  8
Defpoints
 62
     0
 48
5.0
100
AcDbPoint
 10
106822.8369756758
 20
-169232.6050336311
 30
0.0
  0
ENDBLK
  5
D56AA
330
D569E
100
AcDbEntity
  8
0
 48
5.0
100
AcDbBlockEnd
  0
BLOCK
  5
D56AC
330
D56AB
100
AcDbEntity
  8
0
 48
5.0
100
AcDbBlockBegin
  2
*D6
 70
     1
 10
0.0
 20
0.0
 30
0.0
  3
*D6
  1

  0
LINE
  5
D56AD
330
D56AB
100
AcDbEntity
  8
标注
 48
5.0
370
    -2
100
AcDbLine
 10
106521.2471571053
 20
-169228.6050336311
 30
0.0
 11
106852.8823770132
 21
-169228.6050336311
 31
0.0
  0
LINE
  5
D56AE
330
D56AB
100
AcDbEntity
  8
标注
 48
5.0
370
    -2
100
AcDbLine
 10
106521.2471571053
 20
-169641.6017100984
 30
0.0
 11
106852.8823770132
 21
-169641.6017100984
 31
0.0
  0
LINE
  5
D56AF
330
D56AB
100
AcDbEntity
  8
标注
 48
5.0
370
    -2
100
AcDbLine
 10
106845.8823770132
 20
-169238.6050336311
 30
0.0
 11
106845.8823770132
 21
-169422.6367051981
 31
0.0
  0
LINE
  5
D56B0
330
D56AB
100
AcDbEntity
  8
标注
 48
5.0
370
    -2
100
AcDbLine
 10
106845.8823770132
 20
-169631.6017100983
 30
0.0
 11
106845.8823770132
 21
-169447.5700385314
 31
0.0
  0
SOLID
  5
D56B1
330
D56AB
100
AcDbEntity
  8
标注
 48
5.0
100
AcDbTrace
 10
106844.2157103465
 20
-169238.6050336311
 30
0.0
 11
106847.5490436799
 21
-169238.6050336311
 31
0.0
 12
106845.8823770132
 22
-169228.6050336311
 32
0.0
 13
106845.8823770132
 23
-169228.6050336311
 33
0.0
  0
SOLID
  5
D56B2
330
D56AB
100
AcDbEntity
  8
标注
 48
5.0
100
AcDbTrace
 10
106844.2157103465
 20
-169631.6017100983
 30
0.0
 11
106847.5490436799
 21
-169631.6017100983
 31
0.0
 12
106845.8823770132
 22
-169641.6017100984
 32
0.0
 13
106845.8823770132
 23
-169641.6017100984
 33
0.0
  0
MTEXT
  5
D56B3
330
D56AB
100
AcDbEntity
  8
标注
 48
5.0
100
AcDbMText
 10
106845.8823770132
 20
-169435.1033718647
 30
0.0
 40
12.0
 41
0.0
 71
     5
 72
     1
  1
\A1;413
 11
0.0000000000000001
 21
1.0
 31
0.0
 73
     1
 44
1.0
1001
ACAD
1000
MTEXTBEGIN
1070
    73
1070
     1
1070
    44
1040
1.0
1070
    74
1070
     0
1000
MTEXTEND
  0
POINT
  5
D56B4
330
D56AB
100
AcDbEntity
  8
Defpoints
 62
     0
 48
5.0
100
AcDbPoint
 10
106514.2471571053
 20
-169228.6050336311
 30
0.0
  0
POINT
  5
D56B5
330
D56AB
100
AcDbEntity
  8
Defpoints
 62
     0
 48
5.0
100
AcDbPoint
 10
106514.2471571053
 20
-169641.6017100984
 30
0.0
  0
POINT
  5
D56B6
330
D56AB
100
AcDbEntity
  8
Defpoints
 62
     0
 48
5.0
100
AcDbPoint
 10
106845.8823770132
 20
-169641.6017100984
 30
0.0
  0
ENDBLK
  5
D56B7
330
D56AB
100
AcDbEntity
  8
0
 48
5.0
100
AcDbBlockEnd
  0
BLOCK
  5
D56B9
330
D56B8
100
AcDbEntity
  8
0
 48
5.0
100
AcDbBlockBegin
  2
*D7
 70
     1
 10
0.0
 20
0.0
 30
0.0
  3
*D7
  1

  0
LINE
  5
D56BA
330
D56B8
100
AcDbEntity
  8
标注
 48
5.0
370
    -2
100
AcDbLine
 10
106293.2873150446
 20
-169289.2041880754
 30
0.0
 11
106278.8843871173
 21
-169275.7033869948
 31
0.0
  0
MTEXT
  5
D56BB
330
D56B8
100
AcDbEntity
  8
标注
 48
5.0
100
AcDbMText
 10
106311.7944883635
 20
-169306.5521652924
 30
0.0
 40
12.0
 41
0.0
 71
     5
 72
     1
  1
\A1;4-R100
 11
0.7295863332008348
 21
-0.6838887207774089
 31
0.0
 73
     1
 44
1.0
1001
ACAD
1000
MTEXTBEGIN
1070
    73
1070
     1
1070
    44
1040
1.0
1070
    74
1070
     0
1000
MTEXTEND
  0
SOLID
  5
D56BC
330
D56B8
100
AcDbEntity
  8
标注
 48
5.0
100
AcDbTrace
 10
106280.0242016519
 20
-169274.4874097727
 30
0.0
 11
106277.7445725826
 21
-169276.9193642168
 31
0.0
 12
106271.5885237852
 22
-169268.864499787
 32
0.0
 13
106271.5885237852
 23
-169268.864499787
 33
0.0
  0
POINT
  5
D56BD
330
D56B8
100
AcDbEntity
  8
Defpoints
 62
     0
 48
5.0
100
AcDbPoint
 10
106271.5885237852
 20
-169268.864499787
 30
0.0
  0
POINT
  5
D56BE
330
D56B8
100
AcDbEntity
  8
Defpoints
 62
     0
 48
5.0
100
AcDbPoint
 10
106344.5471571053
 20
-169337.2533718647
 30
0.0
  0
ENDBLK
  5
D56BF
330
D56B8
100
AcDbEntity
  8
0
 48
5.0
100
AcDbBlockEnd
  0
BLOCK
  5
D56C1
330
D56C0
100
AcDbEntity
  8
0
 48
5.0
100
AcDbBlockBegin
  2
*D8
 70
     1
 10
0.0
 20
0.0
 30
0.0
  3
*D8
  1

  0
LINE
  5
D56C2
330
D56C0
100
AcDbEntity
  8
标注
 48
5.0
370
    -2
100
AcDbLine
 10
106445.9196850078
 20
-169253.3391818099
 30
0.0
 11
106445.7048187433
 21
-169243.3414904519
 31
0.0
  0
MTEXT
  5
D56C3
330
D56C0
100
AcDbEntity
  8
标注
 48
5.0
100
AcDbMText
 10
106446.3737690467
 20
-169274.467636213
 30
0.0
 40
12.0
 41
0.0
 71
     5
 72
     1
  1
\A1;R3200
 11
0.0214866264457718
 21
-0.999769135792849
 31
0.0
 73
     1
 44
1.0
1001
ACAD
1000
MTEXTBEGIN
1070
    73
1070
     1
1070
    44
1040
1.0
1070
    74
1070
     0
1000
MTEXTEND
  0
SOLID
  5
D56C4
330
D56C0
100
AcDbEntity
  8
标注
 48
5.0
100
AcDbTrace
 10
106447.3711006363
 20
-169243.3056794078
 30
0.0
 11
106444.0385368503
 21
-169243.377301496
 31
0.0
 12
106445.4899524788
 22
-169233.343799094
 32
0.0
 13
106445.4899524788
 23
-169233.343799094
 33
0.0
  0
POINT
  5
D56C5
330
D56C0
100
AcDbEntity
  8
Defpoints
 62
     0
 48
5.0
100
AcDbPoint
 10
106445.4899524788
 20
-169233.343799094
 30
0.0
  0
POINT
  5
D56C6
330
D56C0
100
AcDbEntity
  8
Defpoints
 62
     0
 48
5.0
100
AcDbPoint
 10
106514.2471571053
 20
-172432.605033631
 30
0.0
  0
ENDBLK
  5
D56C7
330
D56C0
100
AcDbEntity
  8
0
 48
5.0
100
AcDbBlockEnd
  0
BLOCK
  5
D56C9
330
D56C8
100
AcDbEntity
  8
0
 48
5.0
100
AcDbBlockBegin
  2
*D9
 70
     1
 10
0.0
 20
0.0
 30
0.0
  3
*D9
  1

  0
LINE
  5
D56CA
330
D56C8
100
AcDbEntity
  8
标注
 48
5.0
370
    -2
100
AcDbLine
 10
106262.2744007538
 20
-169391.0329756198
 30
0.0
 11
106252.2774661772
 21
-169390.785389124
 31
0.0
  0
MTEXT
  5
D56CB
330
D56C8
100
AcDbEntity
  8
标注
 48
5.0
100
AcDbMText
 10
106283.4012558255
 20
-169391.5562084141
 30
0.0
 40
12.0
 41
0.0
 71
     5
 72
     1
  1
\A1;R1800
 11
0.9996934576514869
 21
-0.0247586495757508
 31
0.0
 73
     1
 44
1.0
1001
ACAD
1000
MTEXTBEGIN
1070
    73
1070
     1
1070
    44
1040
1.0
1070
    74
1070
     0
1000
MTEXTEND
  0
SOLID
  5
D56CC
330
D56C8
100
AcDbEntity
  8
标注
 48
5.0
100
AcDbTrace
 10
106252.3187305932
 20
-169389.1192333613
 30
0.0
 11
106252.2362017613
 21
-169392.4515448868
 31
0.0
 12
106242.2805316007
 22
-169390.5378026283
 32
0.0
 13
106242.2805316007
 23
-169390.5378026283
 33
0.0
  0
POINT
  5
D56CD
330
D56C8
100
AcDbEntity
  8
Defpoints
 62
     0
 48
5.0
100
AcDbPoint
 10
106242.2805316007
 20
-169390.5378026283
 30
0.0
  0
POINT
  5
D56CE
330
D56C8
100
AcDbEntity
  8
Defpoints
 62
     0
 48
5.0
100
AcDbPoint
 10
108041.7287553733
 20
-169435.1033718646
 30
0.0
  0
ENDBLK
  5
D56CF
330
D56C8
100
AcDbEntity
  8
0
 48
5.0
100
AcDbBlockEnd
  0
BLOCK
  5
D56D1
330
D56D0
100
AcDbEntity
  8
0
 48
5.0
100
AcDbBlockBegin
  2
*D10
 70
     1
 10
0.0
 20
0.0
 30
0.0
  3
*D10
  1

  0
LINE
  5
D56D2
330
D56D0
100
AcDbEntity
  8
标注
 48
5.0
370
    -2
100
AcDbLine
 10
106787.7747372346
 20
-169324.2672542173
 30
0.0
 11
106787.7747372346
 21
-169324.2657070898
 31
0.0
  0
LINE
  5
D56D3
330
D56D0
100
AcDbEntity
  8
标注
 48
5.0
370
    -2
100
AcDbLine
 10
106783.7813687681
 20
-169324.4974895115
 30
0.0
 11
106783.7813687681
 21
-169324.2657070898
 31
0.0
  0
LINE
  5
D56D4
330
D56D0
100
AcDbEntity
  8
标注
 48
5.0
370
    -2
100
AcDbLine
 10
106797.7747372346
 20
-169331.2657070898
 30
0.0
 11
106807.7747372346
 21
-169331.2657070898
 31
0.0
  0
LINE
  5
D56D5
330
D56D0
100
AcDbEntity
  8
标注
 48
5.0
370
    -2
100
AcDbLine
 10
106773.7813687681
 20
-169331.2657070898
 30
0.0
 11
106763.7813687681
 21
-169331.2657070898
 31
0.0
  0
LINE
  5
D56D6
330
D56D0
100
AcDbEntity
  8
标注
 48
5.0
370
    -2
100
AcDbLine
 10
106787.7747372346
 20
-169331.2657070898
 30
0.0
 11
106783.7813687681
 21
-169331.2657070898
 31
0.0
  0
SOLID
  5
D56D7
330
D56D0
100
AcDbEntity
  8
标注
 48
5.0
100
AcDbTrace
 10
106797.7747372346
 20
-169329.5990404231
 30
0.0
 11
106797.7747372346
 21
-169332.9323737565
 31
0.0
 12
106787.7747372346
 22
-169331.2657070898
 32
0.0
 13
106787.7747372346
 23
-169331.2657070898
 33
0.0
  0
SOLID
  5
D56D8
330
D56D0
100
AcDbEntity
  8
标注
 48
5.0
100
AcDbTrace
 10
106773.7813687681
 20
-169329.5990404231
 30
0.0
 11
106773.7813687681
 21
-169332.9323737565
 31
0.0
 12
106783.7813687681
 22
-169331.2657070898
 32
0.0
 13
106783.7813687681
 23
-169331.2657070898
 33
0.0
  0
MTEXT
  5
D56D9
330
D56D0
100
AcDbEntity
  8
标注
 48
5.0
100
AcDbMText
 10
106759.6147021014
 20
-169331.2657070898
 30
0.0
 40
12.0
 41
0.0
 71
     5
 72
     1
  1
\A1;4
 73
     1
 44
1.0
1001
ACAD
1000
MTEXTBEGIN
1070
    73
1070
     1
1070
    44
1040
1.0
1070
    74
1070
     0
1000
MTEXTEND
  0
POINT
  5
D56DA
330
D56D0
100
AcDbEntity
  8
Defpoints
 62
     0
 48
5.0
100
AcDbPoint
 10
106787.7747372346
 20
-169331.2672542173
 30
0.0
  0
POINT
  5
D56DB
330
D56D0
100
AcDbEntity
  8
Defpoints
 62
     0
 48
5.0
100
AcDbPoint
 10
106783.7813687681
 20
-169331.4974895114
 30
0.0
  0
POINT
  5
D56DC
330
D56D0
100
AcDbEntity
  8
Defpoints
 62
     0
 48
5.0
100
AcDbPoint
 10
106783.7813687681
 20
-169331.2657070898
 30
0.0
  0
ENDBLK
  5
D56DD
330
D56D0
100
AcDbEntity
  8
0
 48
5.0
100
AcDbBlockEnd
  0
BLOCK
  5
D570B
330
D56DE
100
AcDbEntity
  8
0
 48
5.0
100
AcDbBlockBegin
  2
A$C585C4634
 70
     0
 10
0.0
 20
0.0
 30
0.0
  3
A$C585C4634
  1

  0
ARC
  5
D56DF
102
{ACAD_REACTORS
330
D56F2
102
}
330
D56DE
100
AcDbEntity
  8
虚线
 48
5.0
100
AcDbCircle
 10
132.4448603127384
 20
3095.351660968912
 30
0.0
 40
100.0
100
AcDbArc
 50
93.13805048700926
 51
176.7002986301152
  0
ARC
  5
D56E0
102
{ACAD_REACTORS
330
D56F2
102
}
330
D56DE
100
AcDbEntity
  8
细实线
 48
5.0
100
AcDbCircle
 10
132.4448603127384
 20
3095.351660968912
 30
0.0
 40
104.0
100
AcDbArc
 50
93.13805048700926
 51
176.7002986301152
  0
ARC
  5
D56E1
330
D56DE
100
AcDbEntity
  8
虚线
 48
5.0
100
AcDbCircle
 10
132.4448603127384
 20
2899.651660968899
 30
0.0
 40
100.0
100
AcDbArc
 50
183.2997013698846
 51
266.8619495129907
  0
ARC
  5
D56E2
330
D56DE
100
AcDbEntity
  8
细实线
 48
5.0
100
AcDbCircle
 10
132.4448603127384
 20
2899.651660968899
 30
0.0
 40
104.0
100
AcDbArc
 50
183.2997013698846
 51
266.8619495129907
  0
ARC
  5
D56E3
330
D56DE
100
AcDbEntity
  8
虚线
 48
5.0
100
AcDbCircle
 10
471.8448603127326
 20
2899.651660968899
 30
0.0
 40
100.0
100
AcDbArc
 50
273.1380504870092
 51
356.7002986301152
  0
ARC
  5
D56E4
330
D56DE
100
AcDbEntity
  8
细实线
 48
5.0
100
AcDbCircle
 10
471.8448603127326
 20
2899.651660968899
 30
0.0
 40
104.0
100
AcDbArc
 50
273.1380504870092
 51
356.7002986301152
  0
ARC
  5
D56E5
330
D56DE
100
AcDbEntity
  8
虚线
 48
5.0
100
AcDbCircle
 10
471.8448603127326
 20
3095.351660968912
 30
0.0
 40
100.0
100
AcDbArc
 50
3.299701369884734
 51
86.86194951299075
  0
ARC
  5
D56E6
330
D56DE
100
AcDbEntity
  8
细实线
 48
5.0
100
AcDbCircle
 10
471.8448603127326
 20
3095.351660968912
 30
0.0
 40
104.0
100
AcDbArc
 50
3.299701369884734
 51
86.86194951299075
  0
ARC
  5
D56E7
102
{ACAD_REACTORS
330
D56FB
330
D5702
102
}
330
D56DE
100
AcDbEntity
  8
虚线
 48
5.0
100
AcDbCircle
 10
302.1448603127355
 20
-0.0000007974740583
 30
0.0
 40
3200.0
100
AcDbArc
 50
86.86194951299075
 51
93.13805048700926
  0
ARC
  5
D56E8
102
{ACAD_REACTORS
330
D56FE
102
}
330
D56DE
100
AcDbEntity
  8
细实线
 48
5.0
100
AcDbCircle
 10
302.1448603127355
 20
-0.0000007974740583
 30
0.0
 40
3204.0
100
AcDbArc
 50
86.86194951299075
 51
93.13805048700926
  0
ARC
  5
D56E9
102
{ACAD_REACTORS
330
D56F2
330
D56F5
330
D5705
102
}
330
D56DE
100
AcDbEntity
  8
虚线
 48
5.0
100
AcDbCircle
 10
1829.626458580882
 20
2997.501660968905
 30
0.0
 40
1800.0
100
AcDbArc
 50
176.7002986301152
 51
183.2997013698846
  0
ARC
  5
D56EA
102
{ACAD_REACTORS
330
D56F2
330
D56F8
102
}
330
D56DE
100
AcDbEntity
  8
细实线
 48
5.0
100
AcDbCircle
 10
1829.626458580882
 20
2997.501660968905
 30
0.0
 40
1804.0
100
AcDbArc
 50
176.7002986301152
 51
183.2997013698846
  0
ARC
  5
D56EB
102
{ACAD_REACTORS
330
D56F5
330
D5708
102
}
330
D56DE
100
AcDbEntity
  8
虚线
 48
5.0
100
AcDbCircle
 10
-1225.336737955411
 20
2997.501660968905
 30
0.0
 40
1800.0
100
AcDbArc
 50
356.7002986301152
 51
3.299701369884734
  0
ARC
  5
D56EC
102
{ACAD_REACTORS
330
D56F8
330
D5708
102
}
330
D56DE
100
AcDbEntity
  8
细实线
 48
5.0
100
AcDbCircle
 10
-1225.336737955411
 20
2997.501660968905
 30
0.0
 40
1804.0
100
AcDbArc
 50
356.7002986301152
 51
3.299701369884734
  0
ARC
  5
D56ED
102
{ACAD_REACTORS
330
D56FB
102
}
330
D56DE
100
AcDbEntity
  8
虚线
 48
5.0
100
AcDbCircle
 10
302.1448603127355
 20
5995.003322735283
 30
0.0
 40
3200.0
100
AcDbArc
 50
266.8619495129907
 51
273.1380504870092
  0
ARC
  5
D56EE
102
{ACAD_REACTORS
330
D56FE
102
}
330
D56DE
100
AcDbEntity
  8
细实线
 48
5.0
100
AcDbCircle
 10
302.1448603127355
 20
5995.003322735283
 30
0.0
 40
3204.0
100
AcDbArc
 50
266.8619495129907
 51
273.1380504870092
  0
DIMENSION
  5
D56EF
330
D56DE
100
AcDbEntity
  8
标注
 48
5.0
100
AcDbDimension
  2
*D1
 10
142.0948681227892
 20
2799.008328997035
 30
0.0
 11
142.0948681228183
 21
2823.174995663721
 31
0.0
 12
-106212.1022967925
 22
172432.6050328336
 32
0.0
 71
     5
 42
4.005006261751987
  3
副本Standard
100
AcDbAlignedDimension
 13
142.0948681227892
 23
2795.003322735283
 33
0.0
 14
142.0948681227892
 24
2799.008328997035
 34
0.0
 50
90.0
100
AcDbRotatedDimension
1001
ACAD
1000
DSTYLE
1002
{
1070
    41
1040
10.0
1070
    49
1040
8.0
1070
   140
1040
12.0
1070
   147
1040
0.5
1070
   179
1070
     0
1070
   345
1005
15
1002
}
  0
DIMENSION
  5
D56F0
102
{ACAD_XDICTIONARY
360
D56F1
102
}
102
{ACAD_REACTORS
330
D56F2
102
}
330
D56DE
100
AcDbEntity
  8
标注
 48
5.0
100
AcDbDimension
  2
*D2
 10
28.61728018339318
 20
3101.568013910059
 30
0.0
 11
4.437339437179615
 21
3101.337778615969
 31
0.0
 12
-106212.1022967925
 22
172432.6050328336
 32
0.0
 71
     5
 42
4.006642546053626
  3
副本Standard
100
AcDbAlignedDimension
 13
32.61064864990476
 23
3101.10754332185
 33
0.0
 14
28.6172801833934
 24
3101.337778615969
 34
0.0
100
AcDbRotatedDimension
1001
ACAD
1000
DSTYLE
1002
{
1070
    41
1040
10.0
1070
    49
1040
8.0
1070
   140
1040
12.0
1070
   147
1040
0.5
1070
   179
1070
     0
1070
   345
1005
15
1002
}
  0
DIMENSION
  5
D56F3
102
{ACAD_XDICTIONARY
360
D56F4
102
}
102
{ACAD_REACTORS
330
D56F5
102
}
330
D56DE
100
AcDbEntity
  8
标注
 48
5.0
100
AcDbDimension
  2
*D3
 10
29.62645858088217
 20
2762.604250357195
 30
0.0
 11
302.1448603127355
 21
2762.604250357195
 31
0.0
 12
-106212.1022967925
 22
172432.6050328336
 32
0.0
 70
   128
 71
     5
 42
545.0368034637066
  3
副本Standard
100
AcDbAlignedDimension
 13
574.6632620445888
 23
2997.501660968905
 33
0.0
 14
29.62645858088217
 24
2997.501660968905
 34
0.0
100
AcDbRotatedDimension
1001
ACAD
1000
DSTYLE
1002
{
1070
    41
1040
10.0
1070
    49
1040
8.0
1070
   140
1040
12.0
1070
   147
1040
0.5
1070
   179
1070
     0
1070
   345
1005
15
1002
}
  0
DIMENSION
  5
D56F6
102
{ACAD_XDICTIONARY
360
D56F7
102
}
102
{ACAD_REACTORS
330
D56F8
102
}
330
D56DE
100
AcDbEntity
  8
标注
 48
5.0
100
AcDbDimension
  2
*D4
 10
25.62645858088217
 20
2736.821599754127
 30
0.0
 11
302.1448603127355
 21
2736.821599754127
 31
0.0
 12
-106212.1022967925
 22
172432.6050328336
 32
0.0
 70
   128
 71
     5
 42
553.0368034637066
  3
副本Standard
100
AcDbAlignedDimension
 13
578.6632620445888
 23
2997.501660968905
 33
0.0
 14
25.62645858088217
 24
2997.501660968905
 34
0.0
100
AcDbRotatedDimension
1001
ACAD
1000
DSTYLE
1002
{
1070
    41
1040
10.0
1070
    49
1040
8.0
1070
   140
1040
12.0
1070
   147
1040
0.5
1070
   179
1070
     0
1070
   345
1005
15
1002
}
  0
DIMENSION
  5
D56F9
102
{ACAD_XDICTIONARY
360
D56FA
102
}
102
{ACAD_REACTORS
330
D56FB
102
}
330
D56DE
100
AcDbEntity
  8
标注
 48
5.0
100
AcDbDimension
  2
*D5
 10
610.7346788832797
 20
3199.999999202527
 30
0.0
 11
610.7346788833086
 21
2997.501660968934
 31
0.0
 12
-106212.1022967925
 22
172432.6050328336
 32
0.0
 70
   128
 71
     5
 42
404.9966764672426
  3
副本Standard
100
AcDbAlignedDimension
 13
302.144860312735
 23
2795.003322735283
 33
0.0
 14
302.144860312735
 24
3199.999999202527
 34
0.0
 50
90.0
100
AcDbRotatedDimension
1001
ACAD
1000
DSTYLE
1002
{
1070
    41
1040
10.0
1070
    49
1040
8.0
1070
   140
1040
12.0
1070
   147
1040
0.5
1070
   179
1070
     0
1070
   345
1005
15
1002
}
  0
DIMENSION
  5
D56FC
102
{ACAD_XDICTIONARY
360
D56FD
102
}
102
{ACAD_REACTORS
330
D56FE
102
}
330
D56DE
100
AcDbEntity
  8
标注
 48
5.0
100
AcDbDimension
  2
*D6
 10
633.7800802206337
 20
2791.003322735284
 30
0.0
 11
633.7800802206628
 21
2997.501660968934
 31
0.0
 12
-106212.1022967925
 22
172432.6050328336
 32
0.0
 70
   128
 71
     5
 42
412.9966764672426
  3
副本Standard
100
AcDbAlignedDimension
 13
302.1448603127363
 23
3203.999999202526
 33
0.0
 14
302.1448603127363
 24
2791.003322735284
 34
0.0
 50
90.0
100
AcDbRotatedDimension
1001
ACAD
1000
DSTYLE
1002
{
1070
    41
1040
10.0
1070
    49
1040
8.0
1070
   140
1040
12.0
1070
   147
1040
0.5
1070
   179
1070
     0
1070
   345
1005
15
1002
}
  0
DIMENSION
  5
D56FF
330
D56DE
100
AcDbEntity
  8
标注
 48
5.0
100
AcDbDimension
  2
*D7
 10
132.4448603127093
 20
3095.351660968969
 30
0.0
 11
99.69219157093904
 21
3126.052867541177
 31
0.0
 12
-106212.1022967925
 22
172432.6050328336
 32
0.0
 70
   132
  1
4-<>
 71
     5
 42
99.99999999991269
  3
副本Standard
100
AcDbRadialDimension
 15
59.48622699268161
 25
3163.740533046658
 35
0.0
 40
0.0
1001
ACAD
1000
DSTYLE
1002
{
1070
    41
1040
10.0
1070
    49
1040
8.0
1070
   140
1040
12.0
1070
   147
1040
0.5
1070
   179
1070
     0
1070
   288
1070
     1
1070
   345
1005
15
1002
}
1001
ACAD_DSTYLE_DIMRADIAL_EXTENSION
1070
   387
1070
     1
1070
   388
1040
1.625565639886259
1070
   390
1040
3.084002000345646
  0
DIMENSION
  5
D5700
102
{ACAD_XDICTIONARY
360
D5701
102
}
102
{ACAD_REACTORS
330
D5702
102
}
330
D56DE
100
AcDbEntity
  8
标注
 48
5.0
100
AcDbDimension
  2
*D8
 10
302.1448603127355
 20
-0.0000007974740583
 30
0.0
 11
234.2714722540841
 21
3158.137396620616
 31
0.0
 12
-106212.1022967926
 22
172432.6050328336
 32
0.0
 70
   132
 71
     5
 42
3199.999999999942
  3
副本Standard
100
AcDbRadialDimension
 15
233.3876556862669
 25
3199.261233739584
 35
0.0
 40
0.0
1001
ACAD
1000
DSTYLE
1002
{
1070
    41
1040
10.0
1070
    49
1040
8.0
1070
   140
1040
12.0
1070
   147
1040
0.5
1070
   179
1070
     0
1070
   288
1070
     1
1070
   345
1005
15
1002
}
1001
ACAD_DSTYLE_DIMRADIAL_EXTENSION
1070
   387
1070
     1
1070
   388
1040
1.516027013702773
1070
   390
1040
1.625565639887019
  0
DIMENSION
  5
D5703
102
{ACAD_XDICTIONARY
360
D5704
102
}
102
{ACAD_REACTORS
330
D5705
102
}
330
D56DE
100
AcDbEntity
  8
标注
 48
5.0
100
AcDbDimension
  2
*D9
 10
1829.626458580882
 20
2997.501660968905
 30
0.0
 11
71.29895903299621
 21
3041.048824419413
 31
0.0
 12
-106212.1022967924
 22
172432.6050328335
 32
0.0
 70
   132
 71
     5
 42
1799.999999999942
  3
副本Standard
100
AcDbRadialDimension
 15
30.17823480826337
 25
3042.067230205285
 35
0.0
 40
0.0
1001
ACAD
1000
DSTYLE
1002
{
1070
    41
1040
10.0
1070
    49
1040
8.0
1070
   140
1040
12.0
1070
   147
1040
0.5
1070
   179
1070
     0
1070
   288
1070
     1
1070
   345
1005
15
1002
}
1001
ACAD_DSTYLE_DIMRADIAL_EXTENSION
1070
   387
1070
     1
1070
   388
1040
3.084002000352736
1070
   390
1040
3.199183306826848
  0
DIMENSION
  5
D5706
102
{ACAD_XDICTIONARY
360
D5707
102
}
102
{ACAD_REACTORS
330
D5708
102
}
330
D56DE
100
AcDbEntity
  8
标注
 48
5.0
100
AcDbDimension
  2
*D10
 10
571.6790719762663
 20
3101.339325731191
 30
0.0
 11
547.5124053095946
 21
3101.339325731191
 31
0.0
 12
-106212.1022967918
 22
172432.605032821
 32
0.0
 71
     5
 42
3.993368466515676
  3
副本Standard
100
AcDbAlignedDimension
 13
575.6724404427817
 23
3101.337778603694
 33
0.0
 14
571.6790719762663
 24
3101.107543309576
 34
0.0
100
AcDbRotatedDimension
1001
ACAD
1000
DSTYLE
1002
{
1070
    41
1040
10.0
1070
    49
1040
8.0
1070
   140
1040
12.0
1070
   147
1040
0.5
1070
   179
1070
     0
1070
   345
1005
15
1002
}
  0
ENDBLK
  5
D570C
330
D56DE
100
AcDbEntity
  8
0
 48
5.0
100
AcDbBlockEnd
  0
BLOCK
  5
D5738
330
D5737
100
AcDbEntity
  8
0
 48
5.0
100
AcDbBlockBegin
  2
*D12
 70
     1
 10
0.0
 20
0.0
 30
0.0
  3
*D12
  1

  0
LINE
  5
D592E
330
D5737
100
AcDbEntity
  8
标注
 48
5.0
370
    -2
100
AcDbLine
 10
107870.9888970899
 20
-169226.4446452577
 30
0.0
 11
107870.9888970899
 21
-169236.4446452578
 31
0.0
  0
LINE
  5
D592F
330
D5737
100
AcDbEntity
  8
标注
 48
5.0
370
    -2
100
AcDbLine
 10
107870.9888970899
 20
-169202.4396389961
 30
0.0
 11
107870.9888970899
 21
-169192.4396389961
 31
0.0
  0
LINE
  5
D5930
330
D5737
100
AcDbEntity
  8
标注
 48
5.0
370
    -2
100
AcDbLine
 10
107870.9888970899
 20
-169216.4446452578
 30
0.0
 11
107870.9888970899
 21
-169212.4396389961
 31
0.0
  0
SOLID
  5
D5931
330
D5737
100
AcDbEntity
  8
标注
 48
5.0
100
AcDbTrace
 10
107869.3222304232
 20
-169226.4446452577
 30
0.0
 11
107872.6555637566
 21
-169226.4446452577
 31
0.0
 12
107870.9888970899
 22
-169216.4446452578
 32
0.0
 13
107870.9888970899
 23
-169216.4446452578
 33
0.0
  0
SOLID
  5
D5932
330
D5737
100
AcDbEntity
  8
标注
 48
5.0
100
AcDbTrace
 10
107869.3222304232
 20
-169202.4396389961
 30
0.0
 11
107872.6555637566
 21
-169202.4396389961
 31
0.0
 12
107870.9888970899
 22
-169212.4396389961
 32
0.0
 13
107870.9888970899
 23
-169212.4396389961
 33
0.0
  0
MTEXT
  5
D5933
330
D5737
100
AcDbEntity
  8
标注
 48
5.0
100
AcDbMText
 10
107870.9888970899
 20
-169188.2729723294
 30
0.0
 40
12.0
 41
0.0
 71
     5
 72
     1
  1
\A1;4
 11
0.0000000000000001
 21
1.0
 31
0.0
 73
     1
 44
1.0
1001
ACAD
1000
MTEXTBEGIN
1070
    73
1070
     1
1070
    44
1040
1.0
1070
    74
1070
     0
1000
MTEXTEND
  0
POINT
  5
D5934
330
D5737
100
AcDbEntity
  8
Defpoints
 62
     0
 48
5.0
100
AcDbPoint
 10
107870.9888970899
 20
-169216.4446452578
 30
0.0
  0
POINT
  5
D5935
330
D5737
100
AcDbEntity
  8
Defpoints
 62
     0
 48
5.0
100
AcDbPoint
 10
107870.9888970899
 20
-169212.4396389961
 30
0.0
  0
POINT
  5
D5936
330
D5737
100
AcDbEntity
  8
Defpoints
 62
     0
 48
5.0
100
AcDbPoint
 10
107870.9888970899
 20
-169212.4396389961
 30
0.0
  0
ENDBLK
  5
D5739
330
D5737
100
AcDbEntity
  8
0
 48
5.0
100
AcDbBlockEnd
  0
BLOCK
  5
D5755
330
D5754
100
AcDbEntity
  8
0
 48
5.0
100
AcDbBlockBegin
  2
*D13
 70
     1
 10
0.0
 20
0.0
 30
0.0
  3
*D13
  1

  0
LINE
  5
D59DD
330
D5754
100
AcDbEntity
  8
标注
 48
5.0
370
    -2
100
AcDbLine
 10
107761.504677617
 20
-168903.3404246712
 30
0.0
 11
107761.504677617
 21
-168902.8799540831
 31
0.0
  0
LINE
  5
D59DE
330
D5754
100
AcDbEntity
  8
标注
 48
5.0
370
    -2
100
AcDbLine
 10
107757.5113091505
 20
-168903.1101893771
 30
0.0
 11
107757.5113091505
 21
-168902.8799540831
 31
0.0
  0
LINE
  5
D59DF
330
D5754
100
AcDbEntity
  8
标注
 48
5.0
370
    -2
100
AcDbLine
 10
107771.504677617
 20
-168909.879954083
 30
0.0
 11
107781.504677617
 21
-168909.879954083
 31
0.0
  0
LINE
  5
D59E0
330
D5754
100
AcDbEntity
  8
标注
 48
5.0
370
    -2
100
AcDbLine
 10
107747.5113091505
 20
-168909.879954083
 30
0.0
 11
107737.5113091505
 21
-168909.879954083
 31
0.0
  0
LINE
  5
D59E1
330
D5754
100
AcDbEntity
  8
标注
 48
5.0
370
    -2
100
AcDbLine
 10
107761.504677617
 20
-168909.879954083
 30
0.0
 11
107757.5113091505
 21
-168909.879954083
 31
0.0
  0
SOLID
  5
D59E2
330
D5754
100
AcDbEntity
  8
标注
 48
5.0
100
AcDbTrace
 10
107771.504677617
 20
-168908.2132874164
 30
0.0
 11
107771.504677617
 21
-168911.5466207497
 31
0.0
 12
107761.504677617
 22
-168909.879954083
 32
0.0
 13
107761.504677617
 23
-168909.879954083
 33
0.0
  0
SOLID
  5
D59E3
330
D5754
100
AcDbEntity
  8
标注
 48
5.0
100
AcDbTrace
 10
107747.5113091505
 20
-168908.2132874164
 30
0.0
 11
107747.5113091505
 21
-168911.5466207497
 31
0.0
 12
107757.5113091505
 22
-168909.879954083
 32
0.0
 13
107757.5113091505
 23
-168909.879954083
 33
0.0
  0
MTEXT
  5
D59E4
330
D5754
100
AcDbEntity
  8
标注
 48
5.0
100
AcDbMText
 10
107733.3446424838
 20
-168909.879954083
 30
0.0
 40
12.0
 41
0.0
 71
     5
 72
     1
  1
\A1;4
 73
     1
 44
1.0
1001
ACAD
1000
MTEXTBEGIN
1070
    73
1070
     1
1070
    44
1040
1.0
1070
    74
1070
     0
1000
MTEXTEND
  0
POINT
  5
D59E5
330
D5754
100
AcDbEntity
  8
Defpoints
 62
     0
 48
5.0
100
AcDbPoint
 10
107761.504677617
 20
-168910.3404246713
 30
0.0
  0
POINT
  5
D59E6
330
D5754
100
AcDbEntity
  8
Defpoints
 62
     0
 48
5.0
100
AcDbPoint
 10
107757.5113091505
 20
-168910.1101893772
 30
0.0
  0
POINT
  5
D59E7
330
D5754
100
AcDbEntity
  8
Defpoints
 62
     0
 48
5.0
100
AcDbPoint
 10
107757.5113091505
 20
-168909.879954083
 30
0.0
  0
ENDBLK
  5
D5756
330
D5754
100
AcDbEntity
  8
0
 48
5.0
100
AcDbBlockEnd
  0
BLOCK
  5
D5763
330
D5762
100
AcDbEntity
  8
0
 48
5.0
100
AcDbBlockBegin
  2
*D14
 70
     1
 10
0.0
 20
0.0
 30
0.0
  3
*D14
  1

  0
LINE
  5
D5A01
330
D5762
100
AcDbEntity
  8
标注
 48
5.0
370
    -2
100
AcDbLine
 10
108303.5572910117
 20
-169020.9463070243
 30
0.0
 11
108303.5572910117
 21
-169255.843717636
 31
0.0
  0
LINE
  5
D5A02
330
D5762
100
AcDbEntity
  8
标注
 48
5.0
370
    -2
100
AcDbLine
 10
107758.520487548
 20
-169020.9463070243
 30
0.0
 11
107758.520487548
 21
-169255.843717636
 31
0.0
  0
LINE
  5
D5A03
330
D5762
100
AcDbEntity
  8
标注
 48
5.0
370
    -2
100
AcDbLine
 10
108293.5572910117
 20
-169248.843717636
 30
0.0
 11
108043.3055559465
 21
-169248.843717636
 31
0.0
  0
LINE
  5
D5A04
330
D5762
100
AcDbEntity
  8
标注
 48
5.0
370
    -2
100
AcDbLine
 10
107768.520487548
 20
-169248.843717636
 30
0.0
 11
108018.7722226132
 21
-169248.843717636
 31
0.0
  0
SOLID
  5
D5A05
330
D5762
100
AcDbEntity
  8
标注
 48
5.0
100
AcDbTrace
 10
108293.5572910117
 20
-169247.1770509693
 30
0.0
 11
108293.5572910117
 21
-169250.5103843026
 31
0.0
 12
108303.5572910117
 22
-169248.843717636
 32
0.0
 13
108303.5572910117
 23
-169248.843717636
 33
0.0
  0
SOLID
  5
D5A06
330
D5762
100
AcDbEntity
  8
标注
 48
5.0
100
AcDbTrace
 10
107768.520487548
 20
-169247.1770509693
 30
0.0
 11
107768.520487548
 21
-169250.5103843026
 31
0.0
 12
107758.520487548
 22
-169248.843717636
 32
0.0
 13
107758.520487548
 23
-169248.843717636
 33
0.0
  0
MTEXT
  5
D5A07
330
D5762
100
AcDbEntity
  8
标注
 48
5.0
100
AcDbMText
 10
108031.0388892798
 20
-169248.843717636
 30
0.0
 40
12.0
 41
0.0
 71
     5
 72
     1
  1
\A1;545
 73
     1
 44
1.0
1001
ACAD
1000
MTEXTBEGIN
1070
    73
1070
     1
1070
    44
1040
1.0
1070
    74
1070
     0
1000
MTEXTEND
  0
POINT
  5
D5A08
330
D5762
100
AcDbEntity
  8
Defpoints
 62
     0
 48
5.0
100
AcDbPoint
 10
108303.5572910117
 20
-169013.9463070243
 30
0.0
  0
POINT
  5
D5A09
330
D5762
100
AcDbEntity
  8
Defpoints
 62
     0
 48
5.0
100
AcDbPoint
 10
107758.520487548
 20
-169013.9463070243
 30
0.0
  0
POINT
  5
D5A0A
330
D5762
100
AcDbEntity
  8
Defpoints
 62
     0
 48
5.0
100
AcDbPoint
 10
107758.520487548
 20
-169248.843717636
 30
0.0
  0
ENDBLK
  5
D5764
330
D5762
100
AcDbEntity
  8
0
 48
5.0
100
AcDbBlockEnd
  0
BLOCK
  5
D5770
330
D576F
100
AcDbEntity
  8
0
 48
5.0
100
AcDbBlockBegin
  2
*D15
 70
     1
 10
0.0
 20
0.0
 30
0.0
  3
*D15
  1

  0
LINE
  5
D5A10
330
D576F
100
AcDbEntity
  8
标注
 48
5.0
370
    -2
100
AcDbLine
 10
108307.5572910117
 20
-169020.9463070243
 30
0.0
 11
108307.5572910117
 21
-169281.626368239
 31
0.0
  0
LINE
  5
D5A11
330
D576F
100
AcDbEntity
  8
标注
 48
5.0
370
    -2
100
AcDbLine
 10
107754.520487548
 20
-169020.9463070243
 30
0.0
 11
107754.520487548
 21
-169281.626368239
 31
0.0
  0
LINE
  5
D5A12
330
D576F
100
AcDbEntity
  8
标注
 48
5.0
370
    -2
100
AcDbLine
 10
108297.5572910117
 20
-169274.6263682391
 30
0.0
 11
108043.3055559465
 21
-169274.6263682391
 31
0.0
  0
LINE
  5
D5A13
330
D576F
100
AcDbEntity
  8
标注
 48
5.0
370
    -2
100
AcDbLine
 10
107764.520487548
 20
-169274.6263682391
 30
0.0
 11
108018.7722226132
 21
-169274.6263682391
 31
0.0
  0
SOLID
  5
D5A14
330
D576F
100
AcDbEntity
  8
标注
 48
5.0
100
AcDbTrace
 10
108297.5572910117
 20
-169272.9597015724
 30
0.0
 11
108297.5572910117
 21
-169276.2930349057
 31
0.0
 12
108307.5572910117
 22
-169274.6263682391
 32
0.0
 13
108307.5572910117
 23
-169274.6263682391
 33
0.0
  0
SOLID
  5
D5A15
330
D576F
100
AcDbEntity
  8
标注
 48
5.0
100
AcDbTrace
 10
107764.520487548
 20
-169272.9597015724
 30
0.0
 11
107764.520487548
 21
-169276.2930349057
 31
0.0
 12
107754.520487548
 22
-169274.6263682391
 32
0.0
 13
107754.520487548
 23
-169274.6263682391
 33
0.0
  0
MTEXT
  5
D5A16
330
D576F
100
AcDbEntity
  8
标注
 48
5.0
100
AcDbMText
 10
108031.0388892798
 20
-169274.6263682391
 30
0.0
 40
12.0
 41
0.0
 71
     5
 72
     1
  1
\A1;553
 73
     1
 44
1.0
1001
ACAD
1000
MTEXTBEGIN
1070
    73
1070
     1
1070
    44
1040
1.0
1070
    74
1070
     0
1000
MTEXTEND
  0
POINT
  5
D5A17
330
D576F
100
AcDbEntity
  8
Defpoints
 62
     0
 48
5.0
100
AcDbPoint
 10
108307.5572910117
 20
-169013.9463070243
 30
0.0
  0
POINT
  5
D5A18
330
D576F
100
AcDbEntity
  8
Defpoints
 62
     0
 48
5.0
100
AcDbPoint
 10
107754.520487548
 20
-169013.9463070243
 30
0.0
  0
POINT
  5
D5A19
330
D576F
100
AcDbEntity
  8
Defpoints
 62
     0
 48
5.0
100
AcDbPoint
 10
107754.520487548
 20
-169274.6263682391
 30
0.0
  0
ENDBLK
  5
D5771
330
D576F
100
AcDbEntity
  8
0
 48
5.0
100
AcDbBlockEnd
  0
BLOCK
  5
D577D
330
D577C
100
AcDbEntity
  8
0
 48
5.0
100
AcDbBlockBegin
  2
*D16
 70
     1
 10
0.0
 20
0.0
 30
0.0
  3
*D16
  1

  0
LINE
  5
D5956
330
D577C
100
AcDbEntity
  8
标注
 48
5.0
370
    -2
100
AcDbLine
 10
108038.0388892798
 20
-169216.4446452578
 30
0.0
 11
108346.6287078504
 21
-169216.4446452578
 31
0.0
  0
LINE
  5
D5957
330
D577C
100
AcDbEntity
  8
标注
 48
5.0
370
    -2
100
AcDbLine
 10
108038.0388892798
 20
-168811.4479687906
 30
0.0
 11
108346.6287078504
 21
-168811.4479687906
 31
0.0
  0
LINE
  5
D5958
330
D577C
100
AcDbEntity
  8
标注
 48
5.0
370
    -2
100
AcDbLine
 10
108339.6287078504
 20
-169206.4446452578
 30
0.0
 11
108339.6287078504
 21
-169026.4129736909
 31
0.0
  0
LINE
  5
D5959
330
D577C
100
AcDbEntity
  8
标注
 48
5.0
370
    -2
100
AcDbLine
 10
108339.6287078504
 20
-168821.4479687906
 30
0.0
 11
108339.6287078504
 21
-169001.4796403575
 31
0.0
  0
SOLID
  5
D595A
330
D577C
100
AcDbEntity
  8
标注
 48
5.0
100
AcDbTrace
 10
108337.9620411837
 20
-169206.4446452578
 30
0.0
 11
108341.295374517
 21
-169206.4446452578
 31
0.0
 12
108339.6287078504
 22
-169216.4446452578
 32
0.0
 13
108339.6287078504
 23
-169216.4446452578
 33
0.0
  0
SOLID
  5
D595B
330
D577C
100
AcDbEntity
  8
标注
 48
5.0
100
AcDbTrace
 10
108337.9620411837
 20
-168821.4479687906
 30
0.0
 11
108341.295374517
 21
-168821.4479687906
 31
0.0
 12
108339.6287078504
 22
-168811.4479687906
 32
0.0
 13
108339.6287078504
 23
-168811.4479687906
 33
0.0
  0
MTEXT
  5
D595C
330
D577C
100
AcDbEntity
  8
标注
 48
5.0
100
AcDbMText
 10
108339.6287078504
 20
-169013.9463070242
 30
0.0
 40
12.0
 41
0.0
 71
     5
 72
     1
  1
\A1;405
 11
0.0000000000000001
 21
1.0
 31
0.0
 73
     1
 44
1.0
1001
ACAD
1000
MTEXTBEGIN
1070
    73
1070
     1
1070
    44
1040
1.0
1070
    74
1070
     0
1000
MTEXTEND
  0
POINT
  5
D595D
330
D577C
100
AcDbEntity
  8
Defpoints
 62
     0
 48
5.0
100
AcDbPoint
 10
108031.0388892798
 20
-169216.4446452578
 30
0.0
  0
POINT
  5
D595E
330
D577C
100
AcDbEntity
  8
Defpoints
 62
     0
 48
5.0
100
AcDbPoint
 10
108031.0388892798
 20
-168811.4479687906
 30
0.0
  0
POINT
  5
D595F
330
D577C
100
AcDbEntity
  8
Defpoints
 62
     0
 48
5.0
100
AcDbPoint
 10
108339.6287078504
 20
-168811.4479687906
 30
0.0
  0
ENDBLK
  5
D577E
330
D577C
100
AcDbEntity
  8
0
 48
5.0
100
AcDbBlockEnd
  0
BLOCK
  5
D578A
330
D5789
100
AcDbEntity
  8
0
 48
5.0
100
AcDbBlockBegin
  2
*D17
 70
     1
 10
0.0
 20
0.0
 30
0.0
  3
*D17
  1

  0
LINE
  5
D5960
330
D5789
100
AcDbEntity
  8
标注
 48
5.0
370
    -2
100
AcDbLine
 10
108038.0388892798
 20
-168807.4479687906
 30
0.0
 11
108369.6741091877
 21
-168807.4479687906
 31
0.0
  0
LINE
  5
D5961
330
D5789
100
AcDbEntity
  8
标注
 48
5.0
370
    -2
100
AcDbLine
 10
108038.0388892798
 20
-169220.4446452578
 30
0.0
 11
108369.6741091877
 21
-169220.4446452578
 31
0.0
  0
LINE
  5
D5962
330
D5789
100
AcDbEntity
  8
标注
 48
5.0
370
    -2
100
AcDbLine
 10
108362.6741091877
 20
-168817.4479687906
 30
0.0
 11
108362.6741091877
 21
-169001.4796403575
 31
0.0
  0
LINE
  5
D5963
330
D5789
100
AcDbEntity
  8
标注
 48
5.0
370
    -2
100
AcDbLine
 10
108362.6741091877
 20
-169210.4446452578
 30
0.0
 11
108362.6741091877
 21
-169026.4129736909
 31
0.0
  0
SOLID
  5
D5964
330
D5789
100
AcDbEntity
  8
标注
 48
5.0
100
AcDbTrace
 10
108361.0074425211
 20
-168817.4479687906
 30
0.0
 11
108364.3407758544
 21
-168817.4479687906
 31
0.0
 12
108362.6741091877
 22
-168807.4479687906
 32
0.0
 13
108362.6741091877
 23
-168807.4479687906
 33
0.0
  0
SOLID
  5
D5965
330
D5789
100
AcDbEntity
  8
标注
 48
5.0
100
AcDbTrace
 10
108361.0074425211
 20
-169210.4446452578
 30
0.0
 11
108364.3407758544
 21
-169210.4446452578
 31
0.0
 12
108362.6741091877
 22
-169220.4446452578
 32
0.0
 13
108362.6741091877
 23
-169220.4446452578
 33
0.0
  0
MTEXT
  5
D5966
330
D5789
100
AcDbEntity
  8
标注
 48
5.0
100
AcDbMText
 10
108362.6741091878
 20
-169013.9463070242
 30
0.0
 40
12.0
 41
0.0
 71
     5
 72
     1
  1
\A1;413
 11
0.0000000000000001
 21
1.0
 31
0.0
 73
     1
 44
1.0
1001
ACAD
1000
MTEXTBEGIN
1070
    73
1070
     1
1070
    44
1040
1.0
1070
    74
1070
     0
1000
MTEXTEND
  0
POINT
  5
D5967
330
D5789
100
AcDbEntity
  8
Defpoints
 62
     0
 48
5.0
100
AcDbPoint
 10
108031.0388892798
 20
-168807.4479687906
 30
0.0
  0
POINT
  5
D5968
330
D5789
100
AcDbEntity
  8
Defpoints
 62
     0
 48
5.0
100
AcDbPoint
 10
108031.0388892798
 20
-169220.4446452578
 30
0.0
  0
POINT
  5
D5969
330
D5789
100
AcDbEntity
  8
Defpoints
 62
     0
 48
5.0
100
AcDbPoint
 10
108362.6741091877
 20
-169220.4446452578
 30
0.0
  0
ENDBLK
  5
D578B
330
D5789
100
AcDbEntity
  8
0
 48
5.0
100
AcDbBlockEnd
  0
BLOCK
  5
D579C
330
D579B
100
AcDbEntity
  8
0
 48
5.0
100
AcDbBlockBegin
  2
*D18
 70
     1
 10
0.0
 20
0.0
 30
0.0
  3
*D18
  1

  0
LINE
  5
D59FC
330
D579B
100
AcDbEntity
  8
标注
 48
5.0
370
    -2
100
AcDbLine
 10
107962.7114171822
 20
-168832.1821169695
 30
0.0
 11
107962.4965509178
 21
-168822.1844256115
 31
0.0
  0
MTEXT
  5
D59FD
330
D579B
100
AcDbEntity
  8
标注
 48
5.0
100
AcDbMText
 10
107963.1655012211
 20
-168853.3105713726
 30
0.0
 40
12.0
 41
0.0
 71
     5
 72
     1
  1
\A1;R3200
 11
0.0214866264457807
 21
-0.9997691357928486
 31
0.0
 73
     1
 44
1.0
1001
ACAD
1000
MTEXTBEGIN
1070
    73
1070
     1
1070
    44
1040
1.0
1070
    74
1070
     0
1000
MTEXTEND
  0
SOLID
  5
D59FE
330
D579B
100
AcDbEntity
  8
标注
 48
5.0
100
AcDbTrace
 10
107964.1628328108
 20
-168822.1486145674
 30
0.0
 11
107960.8302690248
 21
-168822.2202366555
 31
0.0
 12
107962.2816846533
 22
-168812.1867342535
 32
0.0
 13
107962.2816846533
 23
-168812.1867342535
 33
0.0
  0
POINT
  5
D59FF
330
D579B
100
AcDbEntity
  8
Defpoints
 62
     0
 48
5.0
100
AcDbPoint
 10
107962.2816846533
 20
-168812.1867342535
 30
0.0
  0
POINT
  5
D5A00
330
D579B
100
AcDbEntity
  8
Defpoints
 62
     0
 48
5.0
100
AcDbPoint
 10
108031.0388892798
 20
-172011.4479687906
 30
0.0
  0
ENDBLK
  5
D579D
330
D579B
100
AcDbEntity
  8
0
 48
5.0
100
AcDbBlockEnd
  0
BLOCK
  5
D57A4
330
D57A3
100
AcDbEntity
  8
0
 48
5.0
100
AcDbBlockBegin
  2
*D19
 70
     1
 10
0.0
 20
0.0
 30
0.0
  3
*D19
  1

  0
LINE
  5
D5A0B
330
D57A3
100
AcDbEntity
  8
标注
 48
5.0
370
    -2
100
AcDbLine
 10
107779.0661329284
 20
-168969.8759107793
 30
0.0
 11
107769.0691983519
 21
-168969.6283242836
 31
0.0
  0
MTEXT
  5
D5A0C
330
D57A3
100
AcDbEntity
  8
标注
 48
5.0
100
AcDbMText
 10
107800.1929880001
 20
-168970.3991435736
 30
0.0
 40
12.0
 41
0.0
 71
     5
 72
     1
  1
\A1;R1800
 11
0.9996934576514863
 21
-0.0247586495757679
 31
0.0
 73
     1
 44
1.0
1001
ACAD
1000
MTEXTBEGIN
1070
    73
1070
     1
1070
    44
1040
1.0
1070
    74
1070
     0
1000
MTEXTEND
  0
SOLID
  5
D5A0D
330
D57A3
100
AcDbEntity
  8
标注
 48
5.0
100
AcDbTrace
 10
107769.1104627678
 20
-168967.9621685208
 30
0.0
 11
107769.0279339359
 21
-168971.2944800463
 31
0.0
 12
107759.0722637754
 22
-168969.3807377877
 32
0.0
 13
107759.0722637754
 23
-168969.3807377877
 33
0.0
  0
POINT
  5
D5A0E
330
D57A3
100
AcDbEntity
  8
Defpoints
 62
     0
 48
5.0
100
AcDbPoint
 10
107759.0722637754
 20
-168969.3807377877
 30
0.0
  0
POINT
  5
D5A0F
330
D57A3
100
AcDbEntity
  8
Defpoints
 62
     0
 48
5.0
100
AcDbPoint
 10
109558.520487548
 20
-169013.9463070242
 30
0.0
  0
ENDBLK
  5
D57A5
330
D57A3
100
AcDbEntity
  8
0
 48
5.0
100
AcDbBlockEnd
  0
BLOCK
  5
D57AC
330
D57AB
100
AcDbEntity
  8
0
 48
5.0
100
AcDbBlockBegin
  2
*D20
 70
     1
 10
0.0
 20
0.0
 30
0.0
  3
*D20
  1

  0
LINE
  5
D5A1A
330
D57AB
100
AcDbEntity
  8
标注
 48
5.0
370
    -2
100
AcDbLine
 10
108304.5664694092
 20
-168903.1101893769
 30
0.0
 11
108304.5664694092
 21
-168903.1086422493
 31
0.0
  0
LINE
  5
D5A1B
330
D57AB
100
AcDbEntity
  8
标注
 48
5.0
370
    -2
100
AcDbLine
 10
108300.5731009426
 20
-168903.340424671
 30
0.0
 11
108300.5731009426
 21
-168903.1086422493
 31
0.0
  0
LINE
  5
D5A1C
330
D57AB
100
AcDbEntity
  8
标注
 48
5.0
370
    -2
100
AcDbLine
 10
108314.5664694092
 20
-168910.1086422494
 30
0.0
 11
108324.5664694092
 21
-168910.1086422494
 31
0.0
  0
LINE
  5
D5A1D
330
D57AB
100
AcDbEntity
  8
标注
 48
5.0
370
    -2
100
AcDbLine
 10
108290.5731009426
 20
-168910.1086422494
 30
0.0
 11
108280.5731009426
 21
-168910.1086422494
 31
0.0
  0
LINE
  5
D5A1E
330
D57AB
100
AcDbEntity
  8
标注
 48
5.0
370
    -2
100
AcDbLine
 10
108304.5664694092
 20
-168910.1086422494
 30
0.0
 11
108300.5731009426
 21
-168910.1086422494
 31
0.0
  0
SOLID
  5
D5A1F
330
D57AB
100
AcDbEntity
  8
标注
 48
5.0
100
AcDbTrace
 10
108314.5664694092
 20
-168908.4419755827
 30
0.0
 11
108314.5664694092
 21
-168911.775308916
 31
0.0
 12
108304.5664694092
 22
-168910.1086422494
 32
0.0
 13
108304.5664694092
 23
-168910.1086422494
 33
0.0
  0
SOLID
  5
D5A20
330
D57AB
100
AcDbEntity
  8
标注
 48
5.0
100
AcDbTrace
 10
108290.5731009426
 20
-168908.4419755827
 30
0.0
 11
108290.5731009426
 21
-168911.775308916
 31
0.0
 12
108300.5731009426
 22
-168910.1086422494
 32
0.0
 13
108300.5731009426
 23
-168910.1086422494
 33
0.0
  0
MTEXT
  5
D5A21
330
D57AB
100
AcDbEntity
  8
标注
 48
5.0
100
AcDbMText
 10
108276.406434276
 20
-168910.1086422494
 30
0.0
 40
12.0
 41
0.0
 71
     5
 72
     1
  1
\A1;4
 73
     1
 44
1.0
1001
ACAD
1000
MTEXTBEGIN
1070
    73
1070
     1
1070
    44
1040
1.0
1070
    74
1070
     0
1000
MTEXTEND
  0
POINT
  5
D5A22
330
D57AB
100
AcDbEntity
  8
Defpoints
 62
     0
 48
5.0
100
AcDbPoint
 10
108304.5664694092
 20
-168910.1101893768
 30
0.0
  0
POINT
  5
D5A23
330
D57AB
100
AcDbEntity
  8
Defpoints
 62
     0
 48
5.0
100
AcDbPoint
 10
108300.5731009426
 20
-168910.340424671
 30
0.0
  0
POINT
  5
D5A24
330
D57AB
100
AcDbEntity
  8
Defpoints
 62
     0
 48
5.0
100
AcDbPoint
 10
108300.5731009426
 20
-168910.1086422494
 30
0.0
  0
ENDBLK
  5
D57AD
330
D57AB
100
AcDbEntity
  8
0
 48
5.0
100
AcDbBlockEnd
  0
BLOCK
  5
D5800
330
D57FF
100
AcDbEntity
  8
0
 48
5.0
100
AcDbBlockBegin
  2
*D21
 70
     1
 10
0.0
 20
0.0
 30
0.0
  3
*D21
  1

  0
LINE
  5
D59E8
330
D57FF
100
AcDbEntity
  8
标注
 48
5.0
370
    -2
100
AcDbLine
 10
107799.265612388
 20
-168865.6294040491
 30
0.0
 11
107791.5064527765
 21
-168859.3210411772
 31
0.0
  0
MTEXT
  5
D59E9
330
D57FF
100
AcDbEntity
  8
标注
 48
5.0
100
AcDbMText
 10
107812.3527282661
 20
-168876.2695094264
 30
0.0
 40
12.0
 41
0.0
 71
     5
 72
     1
  1
\A1;R100
 11
0.7759159611484485
 21
-0.6308362871895366
 31
0.0
 73
     1
 44
1.0
1001
ACAD
1000
MTEXTBEGIN
1070
    73
1070
     1
1070
    44
1040
1.0
1070
    74
1070
     0
1000
MTEXTEND
  0
SOLID
  5
D59EA
330
D57FF
100
AcDbEntity
  8
标注
 48
5.0
100
AcDbTrace
 10
107792.5578465885
 20
-168858.0278479086
 30
0.0
 11
107790.4550589645
 21
-168860.6142344458
 31
0.0
 12
107783.747293165
 22
-168853.0126783053
 32
0.0
 13
107783.747293165
 23
-168853.0126783053
 33
0.0
  0
POINT
  5
D59EB
330
D57FF
100
AcDbEntity
  8
Defpoints
 62
     0
 48
5.0
100
AcDbPoint
 10
107783.747293165
 20
-168853.0126783053
 30
0.0
  0
POINT
  5
D59EC
330
D57FF
100
AcDbEntity
  8
Defpoints
 62
     0
 48
5.0
100
AcDbPoint
 10
107861.3388892798
 20
-168916.0963070242
 30
0.0
  0
ENDBLK
  5
D5801
330
D57FF
100
AcDbEntity
  8
0
 48
5.0
100
AcDbBlockEnd
  0
BLOCK
  5
D5810
330
D580F
100
AcDbEntity
  8
0
 48
5.0
100
AcDbBlockBegin
  2
*D22
 70
     1
 10
0.0
 20
0.0
 30
0.0
  3
*D22
  1

  0
LINE
  5
D59ED
330
D580F
100
AcDbEntity
  8
标注
 48
5.0
370
    -2
100
AcDbLine
 10
107802.1312589103
 20
-169165.5964604256
 30
0.0
 11
107794.7303051141
 21
-169172.3214796008
 31
0.0
  0
MTEXT
  5
D59EE
330
D580F
100
AcDbEntity
  8
标注
 48
5.0
100
AcDbMText
 10
107814.6142009799
 20
-169154.2535947501
 30
0.0
 40
12.0
 41
0.0
 71
     5
 72
     1
  1
\A1;R100
 11
0.7400953796200441
 21
0.6725019175177592
 31
0.0
 73
     1
 44
1.0
1001
ACAD
1000
MTEXTBEGIN
1070
    73
1070
     1
1070
    44
1040
1.0
1070
    74
1070
     0
1000
MTEXTEND
  0
SOLID
  5
D59EF
330
D580F
100
AcDbEntity
  8
标注
 48
5.0
100
AcDbTrace
 10
107793.6094685849
 20
-169171.0879873014
 30
0.0
 11
107795.8511416433
 21
-169173.5549719001
 31
0.0
 12
107787.3293513179
 22
-169179.0464987759
 32
0.0
 13
107787.3293513179
 23
-169179.0464987759
 33
0.0
  0
POINT
  5
D59F0
330
D580F
100
AcDbEntity
  8
Defpoints
 62
     0
 48
5.0
100
AcDbPoint
 10
107787.3293513179
 20
-169179.0464987759
 30
0.0
  0
POINT
  5
D59F1
330
D580F
100
AcDbEntity
  8
Defpoints
 62
     0
 48
5.0
100
AcDbPoint
 10
107861.3388892798
 20
-169111.7963070242
 30
0.0
  0
ENDBLK
  5
D5811
330
D580F
100
AcDbEntity
  8
0
 48
5.0
100
AcDbBlockEnd
  0
BLOCK
  5
D5820
330
D581F
100
AcDbEntity
  8
0
 48
5.0
100
AcDbBlockBegin
  2
*D23
 70
     1
 10
0.0
 20
0.0
 30
0.0
  3
*D23
  1

  0
LINE
  5
D5A2A
330
D581F
100
AcDbEntity
  8
标注
 48
5.0
370
    -2
100
AcDbLine
 10
108000.3957633118
 20
-169196.2970001365
 30
0.0
 11
108000.2994012804
 21
-169206.2965358436
 31
0.0
  0
MTEXT
  5
D5A2B
330
D581F
100
AcDbEntity
  8
标注
 48
5.0
100
AcDbMText
 10
108000.5994084047
 20
-169175.1646480087
 30
0.0
 40
12.0
 41
0.0
 71
     5
 72
     1
  1
\A1;R3200
 11
0.0096362031346116
 21
0.9999535707167352
 31
0.0
 73
     1
 44
1.0
1001
ACAD
1000
MTEXTBEGIN
1070
    73
1070
     1
1070
    44
1040
1.0
1070
    74
1070
     0
1000
MTEXTEND
  0
SOLID
  5
D5A2C
330
D581F
100
AcDbEntity
  8
标注
 48
5.0
100
AcDbTrace
 10
107998.6328119959
 20
-169206.2804755051
 30
0.0
 11
108001.965990565
 21
-169206.3125961822
 31
0.0
 12
108000.2030392491
 22
-169216.2960715508
 32
0.0
 13
108000.2030392491
 23
-169216.2960715508
 33
0.0
  0
POINT
  5
D5A2D
330
D581F
100
AcDbEntity
  8
Defpoints
 62
     0
 48
5.0
100
AcDbPoint
 10
108000.2030392491
 20
-169216.2960715508
 30
0.0
  0
POINT
  5
D5A2E
330
D581F
100
AcDbEntity
  8
Defpoints
 62
     0
 48
5.0
100
AcDbPoint
 10
108031.0388892798
 20
-166016.4446452578
 30
0.0
  0
ENDBLK
  5
D5821
330
D581F
100
AcDbEntity
  8
0
 48
5.0
100
AcDbBlockEnd
  0
BLOCK
  5
D5830
330
D582F
100
AcDbEntity
  8
0
 48
5.0
100
AcDbBlockBegin
  2
*D24
 70
     1
 10
0.0
 20
0.0
 30
0.0
  3
*D24
  1

  0
LINE
  5
D59F2
330
D582F
100
AcDbEntity
  8
标注
 48
5.0
370
    -2
100
AcDbLine
 10
108241.8970727836
 20
-169180.396627218
 30
0.0
 11
108247.0418457216
 21
-169188.9716672423
 31
0.0
  0
MTEXT
  5
D59F3
330
D582F
100
AcDbEntity
  8
标注
 48
5.0
100
AcDbMText
 10
108233.2195557616
 20
-169165.9333930439
 30
0.0
 40
12.0
 41
0.0
 71
     5
 72
     1
  1
\A1;R100
 11
0.5144772937965464
 21
-0.8575040024208531
 31
0.0
 73
     1
 44
1.0
1001
ACAD
1000
MTEXTBEGIN
1070
    73
1070
     1
1070
    44
1040
1.0
1070
    74
1070
     0
1000
MTEXTEND
  0
SOLID
  5
D59F4
330
D582F
100
AcDbEntity
  8
标注
 48
5.0
100
AcDbTrace
 10
108248.471019059
 20
-169188.1142050859
 30
0.0
 11
108245.6126723843
 21
-169189.8291293986
 31
0.0
 12
108252.1866186596
 22
-169197.5467072665
 32
0.0
 13
108252.1866186596
 23
-169197.5467072665
 33
0.0
  0
POINT
  5
D59F5
330
D582F
100
AcDbEntity
  8
Defpoints
 62
     0
 48
5.0
100
AcDbPoint
 10
108252.1866186596
 20
-169197.5467072665
 30
0.0
  0
POINT
  5
D59F6
330
D582F
100
AcDbEntity
  8
Defpoints
 62
     0
 48
5.0
100
AcDbPoint
 10
108200.7388892798
 20
-169111.7963070242
 30
0.0
  0
ENDBLK
  5
D5831
330
D582F
100
AcDbEntity
  8
0
 48
5.0
100
AcDbBlockEnd
  0
BLOCK
  5
D5850
330
D584F
100
AcDbEntity
  8
0
 48
5.0
100
AcDbBlockBegin
  2
*D25
 70
     1
 10
0.0
 20
0.0
 30
0.0
  3
*D25
  1

  0
LINE
  5
D59F7
330
D584F
100
AcDbEntity
  8
标注
 48
5.0
370
    -2
100
AcDbLine
 10
108250.3906118019
 20
-168853.3690685184
 30
0.0
 11
108256.5970771172
 21
-168845.5281637051
 31
0.0
  0
MTEXT
  5
D59F8
330
D584F
100
AcDbEntity
  8
标注
 48
5.0
100
AcDbMText
 10
108239.9223736369
 20
-168866.5940613034
 30
0.0
 40
12.0
 41
0.0
 71
     5
 72
     1
  1
\A1;R100
 11
0.6206465315270452
 21
0.7840904813243487
 31
0.0
 73
     1
 44
1.0
1001
ACAD
1000
MTEXTBEGIN
1070
    73
1070
     1
1070
    44
1040
1.0
1070
    74
1070
     0
1000
MTEXTEND
  0
SOLID
  5
D59F9
330
D584F
100
AcDbEntity
  8
标注
 48
5.0
100
AcDbTrace
 10
108255.2902596484
 20
-168844.4937528192
 30
0.0
 11
108257.9038945861
 21
-168846.5625745909
 31
0.0
 12
108262.8035424325
 22
-168837.6872588918
 32
0.0
 13
108262.8035424325
 23
-168837.6872588918
 33
0.0
  0
POINT
  5
D59FA
330
D584F
100
AcDbEntity
  8
Defpoints
 62
     0
 48
5.0
100
AcDbPoint
 10
108262.8035424325
 20
-168837.6872588918
 30
0.0
  0
POINT
  5
D59FB
330
D584F
100
AcDbEntity
  8
Defpoints
 62
     0
 48
5.0
100
AcDbPoint
 10
108200.7388892798
 20
-168916.0963070242
 30
0.0
  0
ENDBLK
  5
D5851
330
D584F
100
AcDbEntity
  8
0
 48
5.0
100
AcDbBlockEnd
  0
BLOCK
  5
D5860
330
D585F
100
AcDbEntity
  8
0
 48
5.0
100
AcDbBlockBegin
  2
*D26
 70
     1
 10
0.0
 20
0.0
 30
0.0
  3
*D26
  1

  0
LINE
  5
D5A39
330
D585F
100
AcDbEntity
  8
标注
 48
5.0
370
    -2
100
AcDbLine
 10
108050.2075247615
 20
-169001.2355472604
 30
0.0
 11
108041.8733354216
 21
-169006.761964549
 31
0.0
  0
LINE
  5
D5A3A
330
D585F
100
AcDbEntity
  8
标注
 48
5.0
370
    -2
100
AcDbLine
 10
108020.204443138
 20
-169021.1306494994
 30
0.0
 11
108011.8702537982
 21
-169026.657066788
 31
0.0
  0
MTEXT
  5
D5A3B
102
{ACAD_XDICTIONARY
360
D5AD5
102
}
330
D585F
100
AcDbEntity
  8
标注
 48
5.0
100
AcDbMText
 10
108067.330344258
 20
-168989.8813720867
 30
0.0
 40
12.0
 41
0.0
 71
     5
 72
     1
  1
\A1;{\fGulim|b0|i0|c129|p34;5-\U+22056}
 11
0.8334189339839037
 21
0.5526417288597864
 31
0.0
 73
     1
 44
1.0
1001
ACAD
1000
MTEXTBEGIN
1070
    73
1070
     1
1070
    44
1040
1.0
1070
    74
1070
     0
1000
MTEXTEND
  0
LINE
  5
D5A3C
330
D585F
100
AcDbEntity
  8
标注
 48
5.0
370
    -2
100
AcDbLine
 10
108028.5386324778
 20
-169015.6042322108
 30
0.0
 11
108033.5391460818
 21
-169012.2883818376
 31
0.0
  0
SOLID
  5
D5A3D
330
D585F
100
AcDbEntity
  8
标注
 48
5.0
100
AcDbTrace
 10
108019.2833735899
 20
-169019.7416179427
 30
0.0
 11
108021.1255126861
 21
-169022.519681056
 31
0.0
 12
108028.5386324778
 22
-169015.6042322108
 32
0.0
 13
108028.5386324778
 23
-169015.6042322108
 33
0.0
  0
SOLID
  5
D5A3E
330
D585F
100
AcDbEntity
  8
标注
 48
5.0
100
AcDbTrace
 10
108040.9522658735
 20
-169005.3729329924
 30
0.0
 11
108042.7944049697
 21
-169008.1509961057
 31
0.0
 12
108033.5391460818
 22
-169012.2883818376
 32
0.0
 13
108033.5391460818
 23
-169012.2883818376
 33
0.0
  0
POINT
  5
D5A3F
330
D585F
100
AcDbEntity
  8
Defpoints
 62
     0
 48
5.0
100
AcDbPoint
 10
108033.5391460818
 20
-169012.2883818376
 30
0.0
  0
POINT
  5
D5A40
330
D585F
100
AcDbEntity
  8
Defpoints
 62
     0
 48
5.0
100
AcDbPoint
 10
108028.5386324778
 20
-169015.6042322108
 30
0.0
  0
ENDBLK
  5
D5861
330
D585F
100
AcDbEntity
  8
0
 48
5.0
100
AcDbBlockEnd
  0
BLOCK
  5
D587E
330
D587D
100
AcDbEntity
  8
0
 48
5.0
100
AcDbBlockBegin
  2
*D27
 70
     1
 10
0.0
 20
0.0
 30
0.0
  3
*D27
  1

  0
LINE
  5
D59A0
330
D587D
100
AcDbEntity
  8
标注
 48
5.0
370
    -2
100
AcDbLine
 10
107772.520487548
 20
-169020.9463070242
 30
0.0
 11
107772.520487548
 21
-169072.2987255526
 31
0.0
  0
LINE
  5
D59A1
330
D587D
100
AcDbEntity
  8
标注
 48
5.0
370
    -2
100
AcDbLine
 10
108289.5572910117
 20
-169020.9463070242
 30
0.0
 11
108289.5572910117
 21
-169072.2987255526
 31
0.0
  0
LINE
  5
D59A2
330
D587D
100
AcDbEntity
  8
标注
 48
5.0
370
    -2
100
AcDbLine
 10
107782.520487548
 20
-169065.2987255526
 30
0.0
 11
108018.7388892798
 21
-169065.2987255526
 31
0.0
  0
LINE
  5
D59A3
330
D587D
100
AcDbEntity
  8
标注
 48
5.0
370
    -2
100
AcDbLine
 10
108279.5572910117
 20
-169065.2987255526
 30
0.0
 11
108043.3388892798
 21
-169065.2987255526
 31
0.0
  0
SOLID
  5
D59A4
330
D587D
100
AcDbEntity
  8
标注
 48
5.0
100
AcDbTrace
 10
107782.520487548
 20
-169063.6320588859
 30
0.0
 11
107782.520487548
 21
-169066.9653922193
 31
0.0
 12
107772.520487548
 22
-169065.2987255526
 32
0.0
 13
107772.520487548
 23
-169065.2987255526
 33
0.0
  0
SOLID
  5
D59A5
330
D587D
100
AcDbEntity
  8
标注
 48
5.0
100
AcDbTrace
 10
108279.5572910117
 20
-169063.6320588859
 30
0.0
 11
108279.5572910117
 21
-169066.9653922193
 31
0.0
 12
108289.5572910117
 22
-169065.2987255526
 32
0.0
 13
108289.5572910117
 23
-169065.2987255526
 33
0.0
  0
MTEXT
  5
D59A6
330
D587D
100
AcDbEntity
  8
标注
 48
5.0
100
AcDbMText
 10
108031.0388892798
 20
-169065.2987255526
 30
0.0
 40
12.0
 41
0.0
 71
     5
 72
     1
  1
\A1;517
 73
     1
 44
1.0
1001
ACAD
1000
MTEXTBEGIN
1070
    73
1070
     1
1070
    44
1040
1.0
1070
    74
1070
     0
1000
MTEXTEND
  0
POINT
  5
D59A7
330
D587D
100
AcDbEntity
  8
Defpoints
 62
     0
 48
5.0
100
AcDbPoint
 10
107772.520487548
 20
-169013.9463070242
 30
0.0
  0
POINT
  5
D59A8
330
D587D
100
AcDbEntity
  8
Defpoints
 62
     0
 48
5.0
100
AcDbPoint
 10
108289.5572910117
 20
-169013.9463070242
 30
0.0
  0
POINT
  5
D59A9
330
D587D
100
AcDbEntity
  8
Defpoints
 62
     0
 48
5.0
100
AcDbPoint
 10
108289.5572910117
 20
-169065.2987255526
 30
0.0
  0
ENDBLK
  5
D587F
330
D587D
100
AcDbEntity
  8
0
 48
5.0
100
AcDbBlockEnd
  0
BLOCK
  5
D5898
330
D5897
100
AcDbEntity
  8
0
 48
5.0
100
AcDbBlockBegin
  2
*D28
 70
     1
 10
0.0
 20
0.0
 30
0.0
  3
*D28
  1

  0
LINE
  5
D59AA
330
D5897
100
AcDbEntity
  8
标注
 48
5.0
370
    -2
100
AcDbLine
 10
107754.520487548
 20
-169020.9463070242
 30
0.0
 11
107754.520487548
 21
-169072.2987255526
 31
0.0
  0
LINE
  5
D59AB
330
D5897
100
AcDbEntity
  8
标注
 48
5.0
370
    -2
100
AcDbLine
 10
107782.520487548
 20
-169065.2987255526
 30
0.0
 11
107792.520487548
 21
-169065.2987255526
 31
0.0
  0
LINE
  5
D59AC
330
D5897
100
AcDbEntity
  8
标注
 48
5.0
370
    -2
100
AcDbLine
 10
107744.520487548
 20
-169065.2987255526
 30
0.0
 11
107734.520487548
 21
-169065.2987255526
 31
0.0
  0
LINE
  5
D59AD
330
D5897
100
AcDbEntity
  8
标注
 48
5.0
370
    -2
100
AcDbLine
 10
107772.520487548
 20
-169065.2987255526
 30
0.0
 11
107754.520487548
 21
-169065.2987255526
 31
0.0
  0
SOLID
  5
D59AE
330
D5897
100
AcDbEntity
  8
标注
 48
5.0
100
AcDbTrace
 10
107782.520487548
 20
-169063.6320588859
 30
0.0
 11
107782.520487548
 21
-169066.9653922193
 31
0.0
 12
107772.520487548
 22
-169065.2987255526
 32
0.0
 13
107772.520487548
 23
-169065.2987255526
 33
0.0
  0
SOLID
  5
D59AF
330
D5897
100
AcDbEntity
  8
标注
 48
5.0
100
AcDbTrace
 10
107744.520487548
 20
-169063.6320588859
 30
0.0
 11
107744.520487548
 21
-169066.9653922193
 31
0.0
 12
107754.520487548
 22
-169065.2987255526
 32
0.0
 13
107754.520487548
 23
-169065.2987255526
 33
0.0
  0
MTEXT
  5
D59B0
330
D5897
100
AcDbEntity
  8
标注
 48
5.0
100
AcDbMText
 10
107726.9538208813
 20
-169065.2987255526
 30
0.0
 40
12.0
 41
0.0
 71
     5
 72
     1
  1
\A1;18
 73
     1
 44
1.0
1001
ACAD
1000
MTEXTBEGIN
1070
    73
1070
     1
1070
    44
1040
1.0
1070
    74
1070
     0
1000
MTEXTEND
  0
POINT
  5
D59B1
330
D5897
100
AcDbEntity
  8
Defpoints
 62
     0
 48
5.0
100
AcDbPoint
 10
107772.520487548
 20
-169065.2987255526
 30
0.0
  0
POINT
  5
D59B2
330
D5897
100
AcDbEntity
  8
Defpoints
 62
     0
 48
5.0
100
AcDbPoint
 10
107754.520487548
 20
-169013.9463070242
 30
0.0
  0
POINT
  5
D59B3
330
D5897
100
AcDbEntity
  8
Defpoints
 62
     0
 48
5.0
100
AcDbPoint
 10
107754.520487548
 20
-169065.2987255526
 30
0.0
  0
ENDBLK
  5
D5899
330
D5897
100
AcDbEntity
  8
0
 48
5.0
100
AcDbBlockEnd
  0
BLOCK
  5
D58A7
330
D58A6
100
AcDbEntity
  8
0
 48
5.0
100
AcDbBlockBegin
  2
*D29
 70
     1
 10
0.0
 20
0.0
 30
0.0
  3
*D29
  1

  0
LINE
  5
D59B4
330
D58A6
100
AcDbEntity
  8
标注
 48
5.0
370
    -2
100
AcDbLine
 10
107772.520487548
 20
-169020.9463070242
 30
0.0
 11
107772.520487548
 21
-169045.354642536
 31
0.0
  0
LINE
  5
D59B5
330
D58A6
100
AcDbEntity
  8
标注
 48
5.0
370
    -2
100
AcDbLine
 10
108031.0388892798
 20
-169020.9463070242
 30
0.0
 11
108031.0388892798
 21
-169045.354642536
 31
0.0
  0
LINE
  5
D59B6
330
D58A6
100
AcDbEntity
  8
标注
 48
5.0
370
    -2
100
AcDbLine
 10
107782.520487548
 20
-169038.354642536
 30
0.0
 11
107880.9130217472
 21
-169038.354642536
 31
0.0
  0
LINE
  5
D59B7
330
D58A6
100
AcDbEntity
  8
标注
 48
5.0
370
    -2
100
AcDbLine
 10
108021.0388892798
 20
-169038.354642536
 30
0.0
 11
107922.6463550805
 21
-169038.354642536
 31
0.0
  0
SOLID
  5
D59B8
330
D58A6
100
AcDbEntity
  8
标注
 48
5.0
100
AcDbTrace
 10
107782.520487548
 20
-169036.6879758694
 30
0.0
 11
107782.520487548
 21
-169040.0213092027
 31
0.0
 12
107772.520487548
 22
-169038.354642536
 32
0.0
 13
107772.520487548
 23
-169038.354642536
 33
0.0
  0
SOLID
  5
D59B9
330
D58A6
100
AcDbEntity
  8
标注
 48
5.0
100
AcDbTrace
 10
108021.0388892798
 20
-169036.6879758694
 30
0.0
 11
108021.0388892798
 21
-169040.0213092027
 31
0.0
 12
108031.0388892798
 22
-169038.354642536
 32
0.0
 13
108031.0388892798
 23
-169038.354642536
 33
0.0
  0
MTEXT
  5
D59BA
330
D58A6
100
AcDbEntity
  8
标注
 48
5.0
100
AcDbMText
 10
107901.7796884139
 20
-169038.354642536
 30
0.0
 40
12.0
 41
0.0
 71
     5
 72
     1
  1
\A1;258,5
 73
     1
 44
1.0
1001
ACAD
1000
MTEXTBEGIN
1070
    73
1070
     1
1070
    44
1040
1.0
1070
    74
1070
     0
1000
MTEXTEND
  0
POINT
  5
D59BB
330
D58A6
100
AcDbEntity
  8
Defpoints
 62
     0
 48
5.0
100
AcDbPoint
 10
107772.520487548
 20
-169013.9463070242
 30
0.0
  0
POINT
  5
D59BC
330
D58A6
100
AcDbEntity
  8
Defpoints
 62
     0
 48
5.0
100
AcDbPoint
 10
108031.0388892798
 20
-169013.9463070241
 30
0.0
  0
POINT
  5
D59BD
330
D58A6
100
AcDbEntity
  8
Defpoints
 62
     0
 48
5.0
100
AcDbPoint
 10
108031.0388892798
 20
-169038.354642536
 30
0.0
  0
ENDBLK
  5
D58A8
330
D58A6
100
AcDbEntity
  8
0
 48
5.0
100
AcDbBlockEnd
  0
BLOCK
  5
D58B5
330
D58B4
100
AcDbEntity
  8
0
 48
5.0
100
AcDbBlockBegin
  2
*D30
 70
     1
 10
0.0
 20
0.0
 30
0.0
  3
*D30
  1

  0
LINE
  5
D59BE
330
D58B4
100
AcDbEntity
  8
标注
 48
5.0
370
    -2
100
AcDbLine
 10
108038.0388892798
 20
-169220.4446452578
 30
0.0
 11
108062.2031119712
 21
-169220.4446452578
 31
0.0
  0
LINE
  5
D59BF
330
D58B4
100
AcDbEntity
  8
标注
 48
5.0
370
    -2
100
AcDbLine
 10
108038.0388892798
 20
-169202.4446452578
 30
0.0
 11
108062.2031119712
 21
-169202.4446452578
 31
0.0
  0
LINE
  5
D59C0
330
D58B4
100
AcDbEntity
  8
标注
 48
5.0
370
    -2
100
AcDbLine
 10
108055.2031119712
 20
-169230.4446452578
 30
0.0
 11
108055.2031119712
 21
-169240.4446452577
 31
0.0
  0
LINE
  5
D59C1
330
D58B4
100
AcDbEntity
  8
标注
 48
5.0
370
    -2
100
AcDbLine
 10
108055.2031119712
 20
-169192.4446452578
 30
0.0
 11
108055.2031119712
 21
-169182.4446452578
 31
0.0
  0
LINE
  5
D59C2
330
D58B4
100
AcDbEntity
  8
标注
 48
5.0
370
    -2
100
AcDbLine
 10
108055.2031119712
 20
-169220.4446452578
 30
0.0
 11
108055.2031119712
 21
-169202.4446452578
 31
0.0
  0
SOLID
  5
D59C3
330
D58B4
100
AcDbEntity
  8
标注
 48
5.0
100
AcDbTrace
 10
108053.5364453045
 20
-169230.4446452578
 30
0.0
 11
108056.8697786379
 21
-169230.4446452578
 31
0.0
 12
108055.2031119712
 22
-169220.4446452578
 32
0.0
 13
108055.2031119712
 23
-169220.4446452578
 33
0.0
  0
SOLID
  5
D59C4
330
D58B4
100
AcDbEntity
  8
标注
 48
5.0
100
AcDbTrace
 10
108053.5364453045
 20
-169192.4446452578
 30
0.0
 11
108056.8697786379
 21
-169192.4446452578
 31
0.0
 12
108055.2031119712
 22
-169202.4446452578
 32
0.0
 13
108055.2031119712
 23
-169202.4446452578
 33
0.0
  0
MTEXT
  5
D59C5
330
D58B4
100
AcDbEntity
  8
标注
 48
5.0
100
AcDbMText
 10
108055.2031119712
 20
-169174.8779785911
 30
0.0
 40
12.0
 41
0.0
 71
     5
 72
     1
  1
\A1;18
 11
0.0000000000000001
 21
1.0
 31
0.0
 73
     1
 44
1.0
1001
ACAD
1000
MTEXTBEGIN
1070
    73
1070
     1
1070
    44
1040
1.0
1070
    74
1070
     0
1000
MTEXTEND
  0
POINT
  5
D59C6
330
D58B4
100
AcDbEntity
  8
Defpoints
 62
     0
 48
5.0
100
AcDbPoint
 10
108031.0388892798
 20
-169220.4446452578
 30
0.0
  0
POINT
  5
D59C7
330
D58B4
100
AcDbEntity
  8
Defpoints
 62
     0
 48
5.0
100
AcDbPoint
 10
108031.0388892798
 20
-169202.4446452578
 30
0.0
  0
POINT
  5
D59C8
330
D58B4
100
AcDbEntity
  8
Defpoints
 62
     0
 48
5.0
100
AcDbPoint
 10
108055.2031119712
 20
-169202.4446452578
 30
0.0
  0
ENDBLK
  5
D58B6
330
D58B4
100
AcDbEntity
  8
0
 48
5.0
100
AcDbBlockEnd
  0
BLOCK
  5
D58D3
330
D58D2
100
AcDbEntity
  8
0
 48
5.0
100
AcDbBlockBegin
  2
*D31
 70
     1
 10
0.0
 20
0.0
 30
0.0
  3
*D31
  1

  0
LINE
  5
D5A4C
330
D58D2
100
AcDbEntity
  8
标注
 48
5.0
370
    -2
100
AcDbLine
 10
108038.0388892798
 20
-169202.4446452578
 30
0.0
 11
108124.4627107488
 21
-169202.4446452578
 31
0.0
  0
LINE
  5
D5A4D
330
D58D2
100
AcDbEntity
  8
标注
 48
5.0
370
    -2
100
AcDbLine
 10
108038.0388892798
 20
-168825.4479687906
 30
0.0
 11
108124.4627107488
 21
-168825.4479687906
 31
0.0
  0
LINE
  5
D5A4E
330
D58D2
100
AcDbEntity
  8
标注
 48
5.0
370
    -2
100
AcDbLine
 10
108117.4627107488
 20
-169192.4446452578
 30
0.0
 11
108117.4627107488
 21
-169050.3951928084
 31
0.0
  0
LINE
  5
D5A4F
330
D58D2
100
AcDbEntity
  8
标注
 48
5.0
370
    -2
100
AcDbLine
 10
108117.4627107488
 20
-168835.4479687906
 30
0.0
 11
108117.4627107488
 21
-169025.7951928084
 31
0.0
  0
SOLID
  5
D5A50
330
D58D2
100
AcDbEntity
  8
标注
 48
5.0
100
AcDbTrace
 10
108115.7960440822
 20
-169192.4446452578
 30
0.0
 11
108119.1293774155
 21
-169192.4446452578
 31
0.0
 12
108117.4627107488
 22
-169202.4446452578
 32
0.0
 13
108117.4627107488
 23
-169202.4446452578
 33
0.0
  0
SOLID
  5
D5A51
330
D58D2
100
AcDbEntity
  8
标注
 48
5.0
100
AcDbTrace
 10
108115.7960440822
 20
-168835.4479687906
 30
0.0
 11
108119.1293774155
 21
-168835.4479687906
 31
0.0
 12
108117.4627107488
 22
-168825.4479687906
 32
0.0
 13
108117.4627107488
 23
-168825.4479687906
 33
0.0
  0
MTEXT
  5
D5A52
330
D58D2
100
AcDbEntity
  8
标注
 48
5.0
100
AcDbMText
 10
108117.4627107489
 20
-169038.0951928084
 30
0.0
 40
12.0
 41
0.0
 71
     5
 72
     1
  1
\A1;377
 11
0.0000000000000001
 21
1.0
 31
0.0
 73
     1
 44
1.0
1001
ACAD
1000
MTEXTBEGIN
1070
    73
1070
     1
1070
    44
1040
1.0
1070
    74
1070
     0
1000
MTEXTEND
  0
POINT
  5
D5A53
330
D58D2
100
AcDbEntity
  8
Defpoints
 62
     0
 48
5.0
100
AcDbPoint
 10
108031.0388892798
 20
-169202.4446452578
 30
0.0
  0
POINT
  5
D5A54
330
D58D2
100
AcDbEntity
  8
Defpoints
 62
     0
 48
5.0
100
AcDbPoint
 10
108031.0388892798
 20
-168825.4479687906
 30
0.0
  0
POINT
  5
D5A55
330
D58D2
100
AcDbEntity
  8
Defpoints
 62
     0
 48
5.0
100
AcDbPoint
 10
108117.4627107488
 20
-168825.4479687906
 30
0.0
  0
ENDBLK
  5
D58D4
330
D58D2
100
AcDbEntity
  8
0
 48
5.0
100
AcDbBlockEnd
  0
BLOCK
  5
D5901
330
D5900
100
AcDbEntity
  8
0
 48
5.0
100
AcDbBlockBegin
  2
*D32
 70
     1
 10
0.0
 20
0.0
 30
0.0
  3
*D32
  1

  0
LINE
  5
D59D3
330
D5900
100
AcDbEntity
  8
标注
 48
5.0
370
    -2
100
AcDbLine
 10
108038.0388892798
 20
-169202.4446452578
 30
0.0
 11
108092.7614642483
 21
-169202.4446452578
 31
0.0
  0
LINE
  5
D59D4
330
D5900
100
AcDbEntity
  8
标注
 48
5.0
370
    -2
100
AcDbLine
 10
108038.0388892798
 20
-169013.9463070242
 30
0.0
 11
108092.7614642483
 21
-169013.9463070242
 31
0.0
  0
LINE
  5
D59D5
330
D5900
100
AcDbEntity
  8
标注
 48
5.0
370
    -2
100
AcDbLine
 10
108085.7614642483
 20
-169192.4446452578
 30
0.0
 11
108085.7614642483
 21
-169128.5288094744
 31
0.0
  0
LINE
  5
D59D6
330
D5900
100
AcDbEntity
  8
标注
 48
5.0
370
    -2
100
AcDbLine
 10
108085.7614642483
 20
-169023.9463070242
 30
0.0
 11
108085.7614642483
 21
-169087.8621428077
 31
0.0
  0
SOLID
  5
D59D7
330
D5900
100
AcDbEntity
  8
标注
 48
5.0
100
AcDbTrace
 10
108084.0947975816
 20
-169192.4446452578
 30
0.0
 11
108087.4281309149
 21
-169192.4446452578
 31
0.0
 12
108085.7614642483
 22
-169202.4446452578
 32
0.0
 13
108085.7614642483
 23
-169202.4446452578
 33
0.0
  0
SOLID
  5
D59D8
330
D5900
100
AcDbEntity
  8
标注
 48
5.0
100
AcDbTrace
 10
108084.0947975816
 20
-169023.9463070242
 30
0.0
 11
108087.4281309149
 21
-169023.9463070242
 31
0.0
 12
108085.7614642483
 22
-169013.9463070242
 32
0.0
 13
108085.7614642483
 23
-169013.9463070242
 33
0.0
  0
MTEXT
  5
D59D9
330
D5900
100
AcDbEntity
  8
标注
 48
5.0
100
AcDbMText
 10
108085.7614642483
 20
-169108.195476141
 30
0.0
 40
12.0
 41
0.0
 71
     5
 72
     1
  1
\A1;188,5
 11
0.0000000000000001
 21
1.0
 31
0.0
 73
     1
 44
1.0
1001
ACAD
1000
MTEXTBEGIN
1070
    73
1070
     1
1070
    44
1040
1.0
1070
    74
1070
     0
1000
MTEXTEND
  0
POINT
  5
D59DA
330
D5900
100
AcDbEntity
  8
Defpoints
 62
     0
 48
5.0
100
AcDbPoint
 10
108031.0388892798
 20
-169202.4446452578
 30
0.0
  0
POINT
  5
D59DB
330
D5900
100
AcDbEntity
  8
Defpoints
 62
     0
 48
5.0
100
AcDbPoint
 10
108031.0388892798
 20
-169013.9463070242
 30
0.0
  0
POINT
  5
D59DC
330
D5900
100
AcDbEntity
  8
Defpoints
 62
     0
 48
5.0
100
AcDbPoint
 10
108085.7614642483
 20
-169013.9463070242
 30
0.0
  0
ENDBLK
  5
D5902
330
D5900
100
AcDbEntity
  8
0
 48
5.0
100
AcDbBlockEnd
  0
ENDSEC
  0
SECTION
  2
ENTITIES
  0
ARC
  5
D570D
102
{ACAD_REACTORS
330
D5720
330
D580D
102
}
330
1F
100
AcDbEntity
  8
虚线
 48
5.0
100
AcDbCircle
 10
107861.3388892798
 20
-168916.0963070242
 30
0.0
 40
100.0
100
AcDbArc
 50
93.13805048696
 51
176.7002986297088
  0
ARC
  5
D570E
102
{ACAD_REACTORS
330
D5720
102
}
330
1F
100
AcDbEntity
  8
细实线
 48
5.0
100
AcDbCircle
 10
107861.3388892798
 20
-168916.0963070242
 30
0.0
 40
104.0
100
AcDbArc
 50
93.13805048696
 51
176.7002986297088
  0
ARC
  5
D570F
102
{ACAD_REACTORS
330
D581D
102
}
330
1F
100
AcDbEntity
  8
虚线
 48
5.0
100
AcDbCircle
 10
107861.3388892798
 20
-169111.7963070242
 30
0.0
 40
100.0
100
AcDbArc
 50
183.2997013702912
 51
266.86194951304
  0
ARC
  5
D5710
330
1F
100
AcDbEntity
  8
细实线
 48
5.0
100
AcDbCircle
 10
107861.3388892798
 20
-169111.7963070242
 30
0.0
 40
104.0
100
AcDbArc
 50
183.2997013702912
 51
266.86194951304
  0
ARC
  5
D5711
102
{ACAD_REACTORS
330
D583D
102
}
330
1F
100
AcDbEntity
  8
虚线
 48
5.0
100
AcDbCircle
 10
108200.7388892798
 20
-169111.7963070242
 30
0.0
 40
100.0
100
AcDbArc
 50
273.13805048696
 51
356.7002986297088
  0
ARC
  5
D5712
330
1F
100
AcDbEntity
  8
细实线
 48
5.0
100
AcDbCircle
 10
108200.7388892798
 20
-169111.7963070242
 30
0.0
 40
104.0
100
AcDbArc
 50
273.13805048696
 51
356.7002986297088
  0
ARC
  5
D5713
102
{ACAD_REACTORS
330
D585D
102
}
330
1F
100
AcDbEntity
  8
虚线
 48
5.0
100
AcDbCircle
 10
108200.7388892798
 20
-168916.0963070242
 30
0.0
 40
100.0
100
AcDbArc
 50
3.299701370291182
 51
86.86194951304001
  0
ARC
  5
D5714
330
1F
100
AcDbEntity
  8
细实线
 48
5.0
100
AcDbCircle
 10
108200.7388892798
 20
-168916.0963070242
 30
0.0
 40
104.0
100
AcDbArc
 50
3.299701370291182
 51
86.86194951304001
  0
ARC
  5
D5715
102
{ACAD_REACTORS
330
D5729
330
D5730
102
}
330
1F
100
AcDbEntity
  8
虚线
 48
5.0
100
AcDbCircle
 10
108031.0388892798
 20
-172011.4479687906
 30
0.0
 40
3200.0
100
AcDbArc
 50
86.86194951302695
 51
93.13805048697302
  0
ARC
  5
D5716
102
{ACAD_REACTORS
330
D572C
102
}
330
1F
100
AcDbEntity
  8
细实线
 48
5.0
100
AcDbCircle
 10
108031.0388892798
 20
-172011.4479687906
 30
0.0
 40
3204.0
100
AcDbArc
 50
86.86194951302695
 51
93.13805048697302
  0
ARC
  5
D5717
102
{ACAD_REACTORS
330
D5720
330
D5723
330
D5733
102
}
330
1F
100
AcDbEntity
  8
虚线
 48
5.0
100
AcDbCircle
 10
109558.520487548
 20
-169013.9463070242
 30
0.0
 40
1800.0
100
AcDbArc
 50
176.700298629725
 51
183.2997013702749
  0
ARC
  5
D5718
102
{ACAD_REACTORS
330
D5720
330
D5726
102
}
330
1F
100
AcDbEntity
  8
细实线
 48
5.0
100
AcDbCircle
 10
109558.520487548
 20
-169013.9463070242
 30
0.0
 40
1804.0
100
AcDbArc
 50
176.700298629725
 51
183.2997013702749
  0
ARC
  5
D5719
102
{ACAD_REACTORS
330
D5723
330
D5736
102
}
330
1F
100
AcDbEntity
  8
虚线
 48
5.0
100
AcDbCircle
 10
106503.5572910117
 20
-169013.9463070242
 30
0.0
 40
1800.0
100
AcDbArc
 50
356.700298629712
 51
3.299701370284674
  0
ARC
  5
D571A
102
{ACAD_REACTORS
330
D5726
330
D5736
102
}
330
1F
100
AcDbEntity
  8
细实线
 48
5.0
100
AcDbCircle
 10
106503.5572910117
 20
-169013.9463070242
 30
0.0
 40
1804.0
100
AcDbArc
 50
356.700298629712
 51
3.299701370284674
  0
ARC
  5
D571B
102
{ACAD_REACTORS
330
D5729
330
D582D
102
}
330
1F
100
AcDbEntity
  8
虚线
 48
5.0
100
AcDbCircle
 10
108031.0388892798
 20
-166016.4446452578
 30
0.0
 40
3200.0
100
AcDbArc
 50
266.8619495131052
 51
273.1380504868948
  0
ARC
  5
D571C
102
{ACAD_REACTORS
330
D572C
102
}
330
1F
100
AcDbEntity
  8
细实线
 48
5.0
100
AcDbCircle
 10
108031.0388892798
 20
-166016.4446452578
 30
0.0
 40
3204.0
100
AcDbArc
 50
266.8619495131052
 51
273.1380504868948
  0
DIMENSION
  5
D571D
330
1F
100
AcDbEntity
  8
标注
 48
5.0
100
AcDbDimension
  2
*D12
 10
107870.9888970899
 20
-169212.4396389961
 30
0.0
 11
107870.9888970899
 21
-169188.2729723294
 31
0.0
 70
    32
 71
     5
 42
4.005006261751987
  3
副本Standard
100
AcDbAlignedDimension
 13
107870.9888970899
 23
-169216.4446452578
 33
0.0
 14
107870.9888970899
 24
-169212.4396389961
 34
0.0
 50
90.0
100
AcDbRotatedDimension
1001
ACAD
1000
DSTYLE
1002
{
1070
    41
1040
10.0
1070
    49
1040
8.0
1070
   140
1040
12.0
1070
   147
1040
0.5
1070
   179
1070
     0
1070
   345
1005
15
1002
}
  0
DIMENSION
  5
D571E
102
{ACAD_XDICTIONARY
360
D571F
102
}
102
{ACAD_REACTORS
330
D5720
102
}
330
1F
100
AcDbEntity
  8
标注
 48
5.0
100
AcDbDimension
  2
*D13
 10
107757.5113091505
 20
-168909.879954083
 30
0.0
 11
107733.3446424838
 21
-168909.879954083
 31
0.0
 70
    32
 71
     5
 42
3.993368466515676
  3
副本Standard
100
AcDbAlignedDimension
 13
107761.504677617
 23
-168910.3404246713
 33
0.0
 14
107757.5113091505
 24
-168910.1101893772
 34
0.0
100
AcDbRotatedDimension
1001
ACAD
1000
DSTYLE
1002
{
1070
    41
1040
10.0
1070
    49
1040
8.0
1070
   140
1040
12.0
1070
   147
1040
0.5
1070
   179
1070
     0
1070
   345
1005
15
1002
}
  0
DIMENSION
  5
D5721
102
{ACAD_XDICTIONARY
360
D5722
102
}
102
{ACAD_REACTORS
330
D5723
102
}
330
1F
100
AcDbEntity
  8
标注
 48
5.0
100
AcDbDimension
  2
*D14
 10
107758.520487548
 20
-169248.843717636
 30
0.0
 11
108031.0388892798
 21
-169248.843717636
 31
0.0
 70
   160
 71
     5
 42
545.0368034637066
  3
副本Standard
100
AcDbAlignedDimension
 13
108303.5572910117
 23
-169013.9463070243
 33
0.0
 14
107758.520487548
 24
-169013.9463070243
 34
0.0
100
AcDbRotatedDimension
1001
ACAD
1000
DSTYLE
1002
{
1070
    41
1040
10.0
1070
    49
1040
8.0
1070
   140
1040
12.0
1070
   147
1040
0.5
1070
   179
1070
     0
1070
   345
1005
15
1002
}
  0
DIMENSION
  5
D5724
102
{ACAD_XDICTIONARY
360
D5725
102
}
102
{ACAD_REACTORS
330
D5726
102
}
330
1F
100
AcDbEntity
  8
标注
 48
5.0
100
AcDbDimension
  2
*D15
 10
107754.520487548
 20
-169274.6263682391
 30
0.0
 11
108031.0388892798
 21
-169274.6263682391
 31
0.0
 70
   160
 71
     5
 42
553.0368034637066
  3
副本Standard
100
AcDbAlignedDimension
 13
108307.5572910117
 23
-169013.9463070243
 33
0.0
 14
107754.520487548
 24
-169013.9463070243
 34
0.0
100
AcDbRotatedDimension
1001
ACAD
1000
DSTYLE
1002
{
1070
    41
1040
10.0
1070
    49
1040
8.0
1070
   140
1040
12.0
1070
   147
1040
0.5
1070
   179
1070
     0
1070
   345
1005
15
1002
}
  0
DIMENSION
  5
D5727
102
{ACAD_XDICTIONARY
360
D5728
102
}
102
{ACAD_REACTORS
330
D5729
102
}
330
1F
100
AcDbEntity
  8
标注
 48
5.0
100
AcDbDimension
  2
*D16
 10
108339.6287078504
 20
-168811.4479687906
 30
0.0
 11
108339.6287078504
 21
-169013.9463070242
 31
0.0
 70
   160
 71
     5
 42
404.9966764672426
  3
副本Standard
100
AcDbAlignedDimension
 13
108031.0388892798
 23
-169216.4446452578
 33
0.0
 14
108031.0388892798
 24
-168811.4479687906
 34
0.0
 50
90.0
100
AcDbRotatedDimension
1001
ACAD
1000
DSTYLE
1002
{
1070
    41
1040
10.0
1070
    49
1040
8.0
1070
   140
1040
12.0
1070
   147
1040
0.5
1070
   179
1070
     0
1070
   345
1005
15
1002
}
  0
DIMENSION
  5
D572A
102
{ACAD_XDICTIONARY
360
D572B
102
}
102
{ACAD_REACTORS
330
D572C
102
}
330
1F
100
AcDbEntity
  8
标注
 48
5.0
100
AcDbDimension
  2
*D17
 10
108362.6741091877
 20
-169220.4446452578
 30
0.0
 11
108362.6741091878
 21
-169013.9463070242
 31
0.0
 70
   160
 71
     5
 42
412.9966764672426
  3
副本Standard
100
AcDbAlignedDimension
 13
108031.0388892798
 23
-168807.4479687906
 33
0.0
 14
108031.0388892798
 24
-169220.4446452578
 34
0.0
 50
90.0
100
AcDbRotatedDimension
1001
ACAD
1000
DSTYLE
1002
{
1070
    41
1040
10.0
1070
    49
1040
8.0
1070
   140
1040
12.0
1070
   147
1040
0.5
1070
   179
1070
     0
1070
   345
1005
15
1002
}
  0
DIMENSION
  5
D572E
102
{ACAD_XDICTIONARY
360
D572F
102
}
102
{ACAD_REACTORS
330
D5730
102
}
330
1F
100
AcDbEntity
  8
标注
 48
5.0
100
AcDbDimension
  2
*D18
 10
108031.0388892798
 20
-172011.4479687906
 30
0.0
 11
107963.1655012211
 21
-168853.3105713726
 31
0.0
 70
   164
 71
     5
 42
3199.999999999942
  3
副本Standard
100
AcDbRadialDimension
 15
107962.2816846533
 25
-168812.1867342535
 35
0.0
 40
0.0
1001
ACAD
1000
DSTYLE
1002
{
1070
    41
1040
10.0
1070
    49
1040
8.0
1070
   140
1040
12.0
1070
   147
1040
0.5
1070
   179
1070
     0
1070
   288
1070
     1
1070
   345
1005
15
1002
}
1001
ACAD_DSTYLE_DIMRADIAL_EXTENSION
1070
   387
1070
     1
1070
   388
1040
1.516027013703404
1070
   390
1040
1.625565639886386
  0
DIMENSION
  5
D5731
102
{ACAD_XDICTIONARY
360
D5732
102
}
102
{ACAD_REACTORS
330
D5733
102
}
330
1F
100
AcDbEntity
  8
标注
 48
5.0
100
AcDbDimension
  2
*D19
 10
109558.520487548
 20
-169013.9463070242
 30
0.0
 11
107800.1929880001
 21
-168970.3991435736
 31
0.0
 70
   164
 71
     5
 42
1799.999999999942
  3
副本Standard
100
AcDbRadialDimension
 15
107759.0722637754
 25
-168969.3807377877
 35
0.0
 40
0.0
1001
ACAD
1000
DSTYLE
1002
{
1070
    41
1040
10.0
1070
    49
1040
8.0
1070
   140
1040
12.0
1070
   147
1040
0.5
1070
   179
1070
     0
1070
   288
1070
     1
1070
   345
1005
15
1002
}
1001
ACAD_DSTYLE_DIMRADIAL_EXTENSION
1070
   387
1070
     1
1070
   388
1040
3.084002000345926
1070
   390
1040
3.199183306833659
  0
DIMENSION
  5
D5734
102
{ACAD_XDICTIONARY
360
D5735
102
}
102
{ACAD_REACTORS
330
D5736
102
}
330
1F
100
AcDbEntity
  8
标注
 48
5.0
100
AcDbDimension
  2
*D20
 10
108300.5731009426
 20
-168910.1086422494
 30
0.0
 11
108276.406434276
 21
-168910.1086422494
 31
0.0
 70
    32
 71
     5
 42
3.993368466515676
  3
副本Standard
100
AcDbAlignedDimension
 13
108304.5664694092
 23
-168910.1101893768
 33
0.0
 14
108300.5731009426
 24
-168910.340424671
 34
0.0
100
AcDbRotatedDimension
1001
ACAD
1000
DSTYLE
1002
{
1070
    41
1040
10.0
1070
    49
1040
8.0
1070
   140
1040
12.0
1070
   147
1040
0.5
1070
   179
1070
     0
1070
   345
1005
15
1002
}
  0
LINE
  5
D57E3
330
1F
100
AcDbEntity
  8
虚线
 48
5.0
100
AcDbLine
 10
108031.0388892798
 20
-169199.4446452578
 30
0.0
 11
108031.0388892798
 21
-169016.9463070242
 31
0.0
  0
LINE
  5
D57E6
330
1F
100
AcDbEntity
  8
虚线
 48
5.0
100
AcDbLine
 10
107775.520487548
 20
-169013.9463070242
 30
0.0
 11
108028.0388892798
 21
-169013.9463070242
 31
0.0
  0
LINE
  5
D57EB
330
1F
100
AcDbEntity
  8
虚线
 48
5.0
100
AcDbLine
 10
108031.0388892798
 20
-169199.4446452578
 30
0.0
 11
108031.0388892798
 21
-169016.9463070242
 31
0.0
  0
CIRCLE
  5
D57F5
102
{ACAD_REACTORS
330
D58EA
102
}
330
1F
100
AcDbEntity
  8
细实线
 48
5.0
100
AcDbCircle
 10
108031.0388892798
 20
-168825.4479687906
 30
0.0
 40
3.0
  0
CIRCLE
  5
D57F6
102
{ACAD_REACTORS
330
D5873
330
D5918
102
}
330
1F
100
AcDbEntity
  8
细实线
 48
5.0
100
AcDbCircle
 10
108031.0388892798
 20
-169013.9463070242
 30
0.0
 40
3.0
  0
CIRCLE
  5
D57F7
102
{ACAD_REACTORS
330
D5895
102
}
330
1F
100
AcDbEntity
  8
细实线
 48
5.0
100
AcDbCircle
 10
107772.520487548
 20
-169013.9463070242
 30
0.0
 40
3.0
  0
CIRCLE
  5
D57F8
102
{ACAD_REACTORS
330
D58D0
102
}
330
1F
100
AcDbEntity
  8
细实线
 48
5.0
100
AcDbCircle
 10
108031.0388892798
 20
-169202.4446452578
 30
0.0
 40
3.0
  0
CIRCLE
  5
D57F9
102
{ACAD_REACTORS
330
D5895
102
}
330
1F
100
AcDbEntity
  8
细实线
 48
5.0
100
AcDbCircle
 10
108289.5572910117
 20
-169013.9463070242
 30
0.0
 40
3.0
  0
LINE
  5
D57FA
330
1F
100
AcDbEntity
  8
虚线
 48
5.0
100
AcDbLine
 10
108031.0388892798
 20
-169010.9463070242
 30
0.0
 11
108031.0388892798
 21
-168828.4479687906
 31
0.0
  0
LINE
  5
D57FB
330
1F
100
AcDbEntity
  8
虚线
 48
5.0
100
AcDbLine
 10
108034.0388892798
 20
-169013.9463070242
 30
0.0
 11
108286.5572910117
 21
-169013.9463070242
 31
0.0
  0
LINE
  5
D57FC
330
1F
100
AcDbEntity
  8
虚线
 48
5.0
100
AcDbLine
 10
108031.0388892798
 20
-169010.9463070242
 30
0.0
 11
108031.0388892798
 21
-168828.4479687906
 31
0.0
  0
LINE
  5
D57FD
330
1F
100
AcDbEntity
  8
虚线
 48
5.0
100
AcDbLine
 10
108034.0388892798
 20
-169013.9463070242
 30
0.0
 11
108286.5572910117
 21
-169013.9463070241
 31
0.0
  0
DIMENSION
  5
D57FE
102
{ACAD_XDICTIONARY
360
D5807
102
}
102
{ACAD_REACTORS
330
D580D
102
}
330
1F
100
AcDbEntity
  8
标注
 48
5.0
100
AcDbDimension
  2
*D21
 10
107861.3388892798
 20
-168916.0963070242
 30
0.0
 11
107812.3527282661
 21
-168876.2695094264
 31
0.0
 70
   164
 71
     5
 42
99.9999999999418
  3
副本Standard
100
AcDbRadialDimension
 15
107783.747293165
 25
-168853.0126783053
 35
0.0
 40
0.0
1001
ACAD
1000
DSTYLE
1002
{
1070
    41
1040
10.0
1070
    49
1040
8.0
1070
   140
1040
12.0
1070
   147
1040
0.5
1070
   179
1070
     0
1070
   288
1070
     1
1070
   345
1005
15
1002
}
1001
ACAD_DSTYLE_DIMRADIAL_EXTENSION
1070
   387
1070
     1
1070
   388
1040
1.625565639886159
1070
   390
1040
3.084002000345642
  0
DIMENSION
  5
D580E
102
{ACAD_XDICTIONARY
360
D5817
102
}
102
{ACAD_REACTORS
330
D581D
102
}
330
1F
100
AcDbEntity
  8
标注
 48
5.0
100
AcDbDimension
  2
*D22
 10
107861.3388892798
 20
-169111.7963070242
 30
0.0
 11
107814.6142009799
 21
-169154.2535947501
 31
0.0
 70
   164
 71
     5
 42
99.99999999991269
  3
副本Standard
100
AcDbRadialDimension
 15
107787.3293513179
 25
-169179.0464987759
 35
0.0
 40
0.0
1001
ACAD
1000
DSTYLE
1002
{
1070
    41
1040
10.0
1070
    49
1040
8.0
1070
   140
1040
12.0
1070
   147
1040
0.5
1070
   179
1070
     0
1070
   288
1070
     1
1070
   345
1005
15
1002
}
1001
ACAD_DSTYLE_DIMRADIAL_EXTENSION
1070
   387
1070
     1
1070
   388
1040
3.199183306833941
1070
   390
1040
4.657619667293425
  0
DIMENSION
  5
D581E
102
{ACAD_XDICTIONARY
360
D5827
102
}
102
{ACAD_REACTORS
330
D582D
102
}
330
1F
100
AcDbEntity
  8
标注
 48
5.0
100
AcDbDimension
  2
*D23
 10
108031.0388892798
 20
-166016.4446452578
 30
0.0
 11
108000.5994084047
 21
-169175.1646480087
 31
0.0
 70
   164
 71
     5
 42
3199.999999999418
  3
副本Standard
100
AcDbRadialDimension
 15
108000.2030392491
 25
-169216.2960715508
 35
0.0
 40
0.0
1001
ACAD
1000
DSTYLE
1002
{
1070
    41
1040
10.0
1070
    49
1040
8.0
1070
   140
1040
12.0
1070
   147
1040
0.5
1070
   179
1070
     0
1070
   288
1070
     1
1070
   345
1005
15
1002
}
1001
ACAD_DSTYLE_DIMRADIAL_EXTENSION
1070
   387
1070
     1
1070
   388
1040
4.657619667294564
1070
   390
1040
4.767158293474813
  0
DIMENSION
  5
D582E
102
{ACAD_XDICTIONARY
360
D5837
102
}
102
{ACAD_REACTORS
330
D583D
102
}
330
1F
100
AcDbEntity
  8
标注
 48
5.0
100
AcDbDimension
  2
*D24
 10
108200.7388892798
 20
-169111.7963070242
 30
0.0
 11
108233.2195557616
 21
-169165.9333930439
 31
0.0
 70
   164
 71
     5
 42
100.0000000002037
  3
副本Standard
100
AcDbRadialDimension
 15
108252.1866186596
 25
-169197.5467072665
 35
0.0
 40
0.0
1001
ACAD
1000
DSTYLE
1002
{
1070
    41
1040
10.0
1070
    49
1040
8.0
1070
   140
1040
12.0
1070
   147
1040
0.5
1070
   179
1070
     0
1070
   288
1070
     1
1070
   345
1005
15
1002
}
1001
ACAD_DSTYLE_DIMRADIAL_EXTENSION
1070
   387
1070
     1
1070
   388
1040
4.767158293475953
1070
   390
1040
6.225594653935435
  0
DIMENSION
  5
D584E
102
{ACAD_XDICTIONARY
360
D5857
102
}
102
{ACAD_REACTORS
330
D585D
102
}
330
1F
100
AcDbEntity
  8
标注
 48
5.0
100
AcDbDimension
  2
*D25
 10
108200.7388892798
 20
-168916.0963070242
 30
0.0
 11
108239.9223736369
 21
-168866.5940613034
 31
0.0
 70
   164
 71
     5
 42
99.9999999999418
  3
副本Standard
100
AcDbRadialDimension
 15
108262.8035424325
 25
-168837.6872588918
 35
0.0
 40
0.0
1001
ACAD
1000
DSTYLE
1002
{
1070
    41
1040
10.0
1070
    49
1040
8.0
1070
   140
1040
12.0
1070
   147
1040
0.5
1070
   179
1070
     0
1070
   288
1070
     1
1070
   345
1005
15
1002
}
1001
ACAD_DSTYLE_DIMRADIAL_EXTENSION
1070
   387
1070
     1
1070
   388
1040
0.0575906532441498
1070
   390
1040
1.516027013703632
  0
DIMENSION
  5
D585E
102
{ACAD_XDICTIONARY
360
D586A
102
}
102
{ACAD_REACTORS
330
D5873
102
}
330
1F
100
AcDbEntity
  8
标注
 48
5.0
100
AcDbDimension
  2
*D26
 10
108028.5386324778
 20
-169015.6042322108
 30
0.0
 11
108067.330344258
 21
-168989.8813720867
 31
0.0
 70
    35
  1
{\fGulim|b0|i0|c129|p34;5-<>}
 71
     5
 42
6.000000000043655
  3
副本Standard
100
AcDbDiametricDimension
 15
108033.5391460818
 25
-169012.2883818376
 35
0.0
 40
0.0
1001
ACAD
1000
DSTYLE
1002
{
1070
    41
1040
10.0
1070
    49
1040
8.0
1070
   140
1040
12.0
1070
   147
1040
0.5
1070
   179
1070
     0
1070
   288
1070
     1
1070
   345
1005
15
1002
}
1001
ACAD_DSTYLE_DIMRADIAL_EXTENSION
1070
   387
1070
     1
1070
   388
1040
0.0
1070
   390
1040
0.0
  0
DIMENSION
  5
D587C
102
{ACAD_XDICTIONARY
360
D588A
102
}
102
{ACAD_REACTORS
330
D5895
102
}
330
1F
100
AcDbEntity
  8
标注
 48
5.0
100
AcDbDimension
  2
*D27
 10
108289.5572910117
 20
-169065.2987255526
 30
0.0
 11
108031.0388892798
 21
-169065.2987255526
 31
0.0
 70
    32
 71
     5
 42
517.0368034637066
  3
副本Standard
100
AcDbAlignedDimension
 13
107772.520487548
 23
-169013.9463070242
 33
0.0
 14
108289.5572910117
 24
-169013.9463070242
 34
0.0
100
AcDbRotatedDimension
1001
ACAD
1000
DSTYLE
1002
{
1070
    41
1040
10.0
1070
    49
1040
8.0
1070
   140
1040
12.0
1070
   147
1040
0.5
1070
   179
1070
     0
1070
   345
1005
15
1002
}
  0
DIMENSION
  5
D5896
330
1F
100
AcDbEntity
  8
标注
 48
5.0
100
AcDbDimension
  2
*D28
 10
107754.520487548
 20
-169065.2987255526
 30
0.0
 11
107726.9538208813
 21
-169065.2987255526
 31
0.0
 70
   160
 71
     5
 42
18.0
  3
副本Standard
100
AcDbAlignedDimension
 13
107772.520487548
 23
-169065.2987255526
 33
0.0
 14
107754.520487548
 24
-169013.9463070242
 34
0.0
100
AcDbRotatedDimension
1001
ACAD
1000
DSTYLE
1002
{
1070
    41
1040
10.0
1070
    49
1040
8.0
1070
   140
1040
12.0
1070
   147
1040
0.5
1070
   179
1070
     0
1070
   345
1005
15
1002
}
  0
DIMENSION
  5
D58A5
330
1F
100
AcDbEntity
  8
标注
 48
5.0
100
AcDbDimension
  2
*D29
 10
108031.0388892798
 20
-169038.354642536
 30
0.0
 11
107901.7796884139
 21
-169038.354642536
 31
0.0
 70
    32
 71
     5
 42
258.5184017317952
  3
副本Standard
100
AcDbAlignedDimension
 13
107772.520487548
 23
-169013.9463070242
 33
0.0
 14
108031.0388892798
 24
-169013.9463070241
 34
0.0
100
AcDbRotatedDimension
1001
ACAD
1000
DSTYLE
1002
{
1070
    41
1040
10.0
1070
    49
1040
8.0
1070
   140
1040
12.0
1070
   147
1040
0.5
1070
   179
1070
     0
1070
   345
1005
15
1002
}
  0
DIMENSION
  5
D58B3
102
{ACAD_XDICTIONARY
360
D58C3
102
}
102
{ACAD_REACTORS
330
D58D0
102
}
330
1F
100
AcDbEntity
  8
标注
 48
5.0
100
AcDbDimension
  2
*D30
 10
108055.2031119712
 20
-169202.4446452578
 30
0.0
 11
108055.2031119712
 21
-169174.8779785911
 31
0.0
 70
   160
 71
     5
 42
18.0
  3
副本Standard
100
AcDbAlignedDimension
 13
108031.0388892798
 23
-169220.4446452578
 33
0.0
 14
108031.0388892798
 24
-169202.4446452578
 34
0.0
 50
90.0
100
AcDbRotatedDimension
1001
ACAD
1000
DSTYLE
1002
{
1070
    41
1040
10.0
1070
    49
1040
8.0
1070
   140
1040
12.0
1070
   147
1040
0.5
1070
   179
1070
     0
1070
   345
1005
15
1002
}
  0
DIMENSION
  5
D58D1
102
{ACAD_XDICTIONARY
360
D58DF
102
}
102
{ACAD_REACTORS
330
D58EA
102
}
330
1F
100
AcDbEntity
  8
标注
 48
5.0
100
AcDbDimension
  2
*D31
 10
108117.4627107488
 20
-168825.4479687906
 30
0.0
 11
108117.4627107489
 21
-169038.0951928084
 31
0.0
 70
   160
 71
     5
 42
376.9966764672426
  3
副本Standard
100
AcDbAlignedDimension
 13
108031.0388892798
 23
-169202.4446452578
 33
0.0
 14
108031.0388892798
 24
-168825.4479687906
 34
0.0
 50
90.0
100
AcDbRotatedDimension
1001
ACAD
1000
DSTYLE
1002
{
1070
    41
1040
10.0
1070
    49
1040
8.0
1070
   140
1040
12.0
1070
   147
1040
0.5
1070
   179
1070
     0
1070
   345
1005
15
1002
}
  0
DIMENSION
  5
D58FF
102
{ACAD_XDICTIONARY
360
D590D
102
}
102
{ACAD_REACTORS
330
D5918
102
}
330
1F
100
AcDbEntity
  8
标注
 48
5.0
100
AcDbDimension
  2
*D32
 10
108085.7614642483
 20
-169013.9463070242
 30
0.0
 11
108085.7614642483
 21
-169108.195476141
 31
0.0
 70
    32
 71
     5
 42
188.4983382336213
  3
副本Standard
100
AcDbAlignedDimension
 13
108031.0388892798
 23
-169202.4446452578
 33
0.0
 14
108031.0388892798
 24
-169013.9463070242
 34
0.0
 50
90.0
100
AcDbRotatedDimension
1001
ACAD
1000
DSTYLE
1002
{
1070
    41
1040
10.0
1070
    49
1040
8.0
1070
   140
1040
12.0
1070
   147
1040
0.5
1070
   179
1070
     0
1070
   345
1005
15
1002
}
  0
ENDSEC
  0
SECTION
  2
OBJECTS
  0
DICTIONARY
  5
C
330
0
100
AcDbDictionary
281
     1
  3
ACAD_2007HEADERVARS_RT
350
D5ACA
  3
ACAD_COLOR
350
6C
  3
ACAD_GROUP
350
D
  3
ACAD_LAYOUT
350
1A
  3
ACAD_MATERIAL
350
6B
  3
ACAD_MLEADERSTYLE
350
CEDBA
  3
ACAD_MLINESTYLE
350
17
  3
ACAD_PLOTSETTINGS
350
19
  3
ACAD_PLOTSTYLENAME
350
E
  3
ACAD_SCALELIST
350
CED98
  3
ACAD_TABLESTYLE
350
FAF
  3
ACAD_VISUALSTYLE
350
CED87
  3
AcadDim
350
100FD
  3
ACDB_RECOMPOSE_DATA
350
D0C4C
  3
AcDbVariableDictionary
350
59
  3
ASE_INDEX_DICTIONARY
350
C2668
  3
DWGPROPS
350
D5AC9
  3
lxx_dict
350
A9D16
  0
DICTIONARY
  5
AB
330
2
100
AcDbDictionary
280
     1
281
     1
  3
ACAD_LAYERFILTERS
360
176
  3
ACAD_LAYERSTATES
360
AC
  0
DICTIONARY
  5
CF251
330
10
100
AcDbDictionary
280
     1
281
     1
  3
ADSK_XREC_LAYER_RECONCILED
360
CF252
  0
DICTIONARY
  5
CF259
330
9D
100
AcDbDictionary
280
     1
281
     1
  3
ADSK_XREC_LAYER_RECONCILED
360
CF25A
  0
DICTIONARY
  5
CF25B
330
9E
100
AcDbDictionary
280
     1
281
     1
  3
ADSK_XREC_LAYER_RECONCILED
360
CF25C
  0
DICTIONARY
  5
CF25D
330
16DF9
100
AcDbDictionary
280
     1
281
     1
  3
ADSK_XREC_LAYER_RECONCILED
360
CF25E
  0
DICTIONARY
  5
118B
330
1F
100
AcDbDictionary
280
     1
281
     1
  3
ACAD_SORTENTS
360
118C
  0
DICTIONARY
  5
D5709
330
D56DE
100
AcDbDictionary
280
     1
281
     1
  3
ACAD_SORTENTS
360
D570A
  0
DICTIONARY
  5
D56F1
330
D56F0
100
AcDbDictionary
280
     1
281
     1
  3
ACAD_DIMASSOC
360
D56F2
  0
DICTIONARY
  5
D56F4
330
D56F3
100
AcDbDictionary
280
     1
281
     1
  3
ACAD_DIMASSOC
360
D56F5
  0
DICTIONARY
  5
D56F7
330
D56F6
100
AcDbDictionary
280
     1
281
     1
  3
ACAD_DIMASSOC
360
D56F8
  0
DICTIONARY
  5
D56FA
330
D56F9
100
AcDbDictionary
280
     1
281
     1
  3
ACAD_DIMASSOC
360
D56FB
  0
DICTIONARY
  5
D56FD
330
D56FC
100
AcDbDictionary
280
     1
281
     1
  3
ACAD_DIMASSOC
360
D56FE
  0
DICTIONARY
  5
D5701
330
D5700
100
AcDbDictionary
280
     1
281
     1
  3
ACAD_DIMASSOC
360
D5702
  0
DICTIONARY
  5
D5704
330
D5703
100
AcDbDictionary
280
     1
281
     1
  3
ACAD_DIMASSOC
360
D5705
  0
DICTIONARY
  5
D5707
330
D5706
100
AcDbDictionary
280
     1
281
     1
  3
ACAD_DIMASSOC
360
D5708
  0
DICTIONARY
  5
D5AD5
330
D5A3B
100
AcDbDictionary
280
     1
281
     1
  3
ACAD_MTEXT_RT
360
D5AD6
  0
DICTIONARY
  5
D571F
330
D571E
100
AcDbDictionary
280
     1
281
     1
  3
ACAD_DIMASSOC
360
D5720
  0
DICTIONARY
  5
D5722
330
D5721
100
AcDbDictionary
280
     1
281
     1
  3
ACAD_DIMASSOC
360
D5723
  0
DICTIONARY
  5
D5725
330
D5724
100
AcDbDictionary
280
     1
281
     1
  3
ACAD_DIMASSOC
360
D5726
  0
DICTIONARY
  5
D5728
330
D5727
100
AcDbDictionary
280
     1
281
     1
  3
ACAD_DIMASSOC
360
D5729
  0
DICTIONARY
  5
D572B
330
D572A
100
AcDbDictionary
280
     1
281
     1
  3
ACAD_DIMASSOC
360
D572C
  0
DICTIONARY
  5
D572F
330
D572E
100
AcDbDictionary
280
     1
281
     1
  3
ACAD_DIMASSOC
360
D5730
  0
DICTIONARY
  5
D5732
330
D5731
100
AcDbDictionary
280
     1
281
     1
  3
ACAD_DIMASSOC
360
D5733
  0
DICTIONARY
  5
D5735
330
D5734
100
AcDbDictionary
280
     1
281
     1
  3
ACAD_DIMASSOC
360
D5736
  0
DICTIONARY
  5
D5807
330
D57FE
100
AcDbDictionary
280
     1
281
     1
  3
ACAD_DIMASSOC
360
D580D
  0
DICTIONARY
  5
D5817
330
D580E
100
AcDbDictionary
280
     1
281
     1
  3
ACAD_DIMASSOC
360
D581D
  0
DICTIONARY
  5
D5827
330
D581E
100
AcDbDictionary
280
     1
281
     1
  3
ACAD_DIMASSOC
360
D582D
  0
DICTIONARY
  5
D5837
330
D582E
100
AcDbDictionary
280
     1
281
     1
  3
ACAD_DIMASSOC
360
D583D
  0
DICTIONARY
  5
D5857
330
D584E
100
AcDbDictionary
280
     1
281
     1
  3
ACAD_DIMASSOC
360
D585D
  0
DICTIONARY
  5
D586A
330
D585E
100
AcDbDictionary
280
     1
281
     1
  3
ACAD_DIMASSOC
360
D5873
  0
DICTIONARY
  5
D588A
330
D587C
100
AcDbDictionary
280
     1
281
     1
  3
ACAD_DIMASSOC
360
D5895
  0
DICTIONARY
  5
D58C3
330
D58B3
100
AcDbDictionary
280
     1
281
     1
  3
ACAD_DIMASSOC
360
D58D0
  0
DICTIONARY
  5
D58DF
330
D58D1
100
AcDbDictionary
280
     1
281
     1
  3
ACAD_DIMASSOC
360
D58EA
  0
DICTIONARY
  5
D590D
330
D58FF
100
AcDbDictionary
280
     1
281
     1
  3
ACAD_DIMASSOC
360
D5918
  0
DICTIONARY
  5
D5ACA
102
{ACAD_REACTORS
330
C
102
}
330
C
100
AcDbDictionary
281
     1
  3
DIMFXL
350
D5ACB
  3
DIMJOGANG
350
D5ACC
  3
DIMLTYPE
350
D5ACD
  0
DICTIONARY
  5
6C
102
{ACAD_REACTORS
330
C
102
}
330
C
100
AcDbDictionary
281
     1
  0
DICTIONARY
  5
D
102
{ACAD_REACTORS
330
C
102
}
330
C
100
AcDbDictionary
281
     1
  0
DICTIONARY
  5
1A
102
{ACAD_REACTORS
330
C
102
}
330
C
100
AcDbDictionary
281
     1
  3
Model
350
22
  3
布局1
350
74
  3
布局2
350
79
  0
DICTIONARY
  5
6B
102
{ACAD_REACTORS
330
C
102
}
330
C
100
AcDbDictionary
281
     1
  3
ByBlock
350
CED77
  3
ByLayer
350
CED6F
  3
Global
350
CED7F
  0
DICTIONARY
  5
CEDBA
102
{ACAD_REACTORS
330
C
102
}
330
C
100
AcDbDictionary
281
     1
  3
Standard
350
CEDBB
  0
DICTIONARY
  5
17
102
{ACAD_REACTORS
330
C
102
}
330
C
100
AcDbDictionary
281
     1
  3
Standard
350
18
  0
DICTIONARY
  5
19
102
{ACAD_REACTORS
330
C
102
}
330
C
100
AcDbDictionary
281
     1
  0
ACDBDICTIONARYWDFLT
  5
E
102
{ACAD_REACTORS
330
C
102
}
330
C
100
AcDbDictionary
281
     1
  3
Normal
350
F
100
AcDbDictionaryWithDefault
340
F
  0
DICTIONARY
  5
CED98
102
{ACAD_REACTORS
330
C
102
}
330
C
100
AcDbDictionary
281
     1
  3
A0
350
CED99
  3
A1
350
CED9A
  3
A2
350
CED9B
  3
A3
350
CED9C
  3
A4
350
CED9D
  3
A5
350
CED9E
  3
A6
350
CED9F
  3
A7
350
CEDA0
  3
A8
350
CEDA1
  3
A9
350
CEDA2
  3
B0
350
CEDA3
  3
B1
350
CEDA4
  3
B2
350
CEDA5
  3
B3
350
CEDA6
  3
B4
350
CEDA7
  3
B5
350
CEDA8
  3
B6
350
CEDA9
  3
B7
350
CEDAA
  3
B8
350
CEDAB
  3
B9
350
CEDAC
  3
C0
350
CEDAD
  3
C1
350
CEDAE
  3
C2
350
CEDAF
  3
C3
350
CEDB0
  3
C4
350
CEDB1
  3
C5
350
CEDB2
  3
C6
350
CEDB3
  3
C7
350
CEDB4
  3
C8
350
CEDB5
  3
C9
350
CEDB6
  3
D0
350
CEDB7
  3
D1
350
CEDB8
  3
D2
350
CEDB9
  0
DICTIONARY
  5
FAF
102
{ACAD_REACTORS
330
C
102
}
330
C
100
AcDbDictionary
281
     1
  3
Standard
350
FB0
  0
DICTIONARY
  5
CED87
102
{ACAD_REACTORS
330
C
102
}
330
C
100
AcDbDictionary
281
     1
  3
2dWireframe
350
CED8D
  3
3D Hidden
350
CED8F
  3
3dWireframe
350
CED8E
  3
Basic
350
CED8C
  3
Brighten
350
CED93
  3
ColorChange
350
CED97
  3
Conceptual
350
CED90
  3
Dim
350
CED92
  3
Facepattern
350
CED96
  3
Flat
350
CED88
  3
FlatWithEdges
350
CED89
  3
Gouraud
350
CED8A
  3
GouraudWithEdges
350
CED8B
  3
Linepattern
350
CED95
  3
Realistic
350
CED91
  3
Thicken
350
CED94
  0
XRECORD
  5
100FD
102
{ACAD_REACTORS
330
C
102
}
330
C
100
AcDbXrecord
280
     1
 90
   990106
  3

 60
     0
 61
     0
 62
     1
 63
     3
 64
     0
 65
     0
 66
     0
 67
     3
 68
     1
 69
     0
 70
     0
 71
     0
 72
     0
 40
0.0
170
     0
  0
XRECORD
  5
D0C4C
102
{ACAD_REACTORS
330
C
102
}
330
C
100
AcDbXrecord
280
     1
 90
        1
330
FB0
  0
DICTIONARY
  5
59
102
{ACAD_REACTORS
330
C
102
}
330
C
100
AcDbDictionary
281
     1
  3
CANNOSCALE
350
D0C4F
  3
CMLEADERSTYLE
350
D0C4D
  3
CTABLESTYLE
350
100D
  3
DIMASSOC
350
5A
  3
HIDETEXT
350
5E
  3
INDEXCTL
350
D5A99
  3
LIGHTINGUNITS
350
D0C50
  3
MSLTSCALE
350
D0C4E
  3
SORTENTS
350
D5A98
  0
DICTIONARY
  5
C2668
102
{ACAD_REACTORS
330
C
102
}
330
C
100
AcDbDictionary
281
     1
  3
ASEBlockHierarchyIndexRecord
350
C2669
1001
DCO15
1040
1779131318.625
  0
XRECORD
  5
D5AC9
102
{ACAD_REACTORS
330
C
102
}
330
C
100
AcDbXrecord
280
     1
  1
DWGPROPS COOKIE
  2

  3

  4

  6

  7

  8
Administrator
  9

300
=
301
=
302
=
303
=
304
=
305
=
306
=
307
=
308
=
309
=
 40
8.806697118055556
 41
2454355.343801713
 42
2457938.597765787
  1

 90
        0
  0
DICTIONARY
  5
A9D16
102
{ACAD_REACTORS
330
C
102
}
330
C
100
AcDbDictionary
281
     1
  3
lxx_dimth
350
A9D17
  0
DICTIONARY
  5
176
102
{ACAD_REACTORS
330
AB
102
}
330
AB
100
AcDbDictionary
281
     1
  0
DICTIONARY
  5
AC
102
{ACAD_REACTORS
330
AB
102
}
330
AB
100
AcDbDictionary
281
     1
  0
XRECORD
  5
CF252
102
{ACAD_REACTORS
330
CF251
102
}
330
CF251
100
AcDbXrecord
280
     1
290
     1
  0
XRECORD
  5
CF25A
102
{ACAD_REACTORS
330
CF259
102
}
330
CF259
100
AcDbXrecord
280
     1
290
     1
  0
XRECORD
  5
CF25C
102
{ACAD_REACTORS
330
CF25B
102
}
330
CF25B
100
AcDbXrecord
280
     1
290
     1
  0
XRECORD
  5
CF25E
102
{ACAD_REACTORS
330
CF25D
102
}
330
CF25D
100
AcDbXrecord
280
     1
290
     1
  0
SORTENTSTABLE
  5
118C
102
{ACAD_REACTORS
330
118B
102
}
330
118B
100
AcDbSortentsTable
330
1F
331
D57F6
  5
D57FA
331
D5727
  5
D5727
331
D5717
  5
D5717
331
D5718
  5
D5718
331
D57F7
  5
D57FB
331
D57F8
  5
D57FC
331
D5710
  5
D5710
331
D5719
  5
D5719
331
D570D
  5
D570D
331
D5721
  5
D5721
331
D5731
  5
D5731
331
D57F9
  5
D57FD
331
D5711
  5
D5711
331
D571A
  5
D571A
331
D570E
  5
D570E
331
D572A
  5
D572A
331
D57FA
  5
D57EF
331
D5712
  5
D5712
331
D571B
  5
D571B
331
D570F
  5
D570F
331
D57FB
  5
D57EB
331
D5713
  5
D5713
331
D57E3
  5
D57E6
331
D571C
  5
D571C
331
D57EB
  5
D57EE
331
D5724
  5
D5724
331
D5734
  5
D5734
331
D57FC
  5
D57E7
331
D5714
  5
D5714
331
D571D
  5
D571D
331
D57FD
  5
D57DF
331
D5715
  5
D5715
331
D571E
  5
D571E
331
D57F5
  5
D57F9
331
D572E
  5
D572E
331
D5716
  5
D5716
331
D57E6
  5
D57EA
  0
SORTENTSTABLE
  5
D570A
102
{ACAD_REACTORS
330
D5709
102
}
330
D5709
100
AcDbSortentsTable
330
D56DE
  0
DIMASSOC
  5
D56F2
102
{ACAD_REACTORS
330
D56F1
102
}
330
D56F1
100
AcDbDimAssoc
330
D56F0
 90
        3
 70
     0
 71
     0
  1
AcDbOsnapPointRef
 72
     6
331
D56E9
 73
     2
 91
        0
 40
3.084002000345922
 10
0.0
 20
0.0
 30
0.0
332
D56DF
 74
     2
 92
        0
 75
     0
  1
AcDbOsnapPointRef
 72
     6
331
D56EA
 73
     2
 91
        0
 40
3.084129837169629
 10
0.0
 20
0.0
 30
0.0
332
D56E0
 74
     2
 92
        0
 75
     0
  0
DIMASSOC
  5
D56F5
102
{ACAD_REACTORS
330
D56F4
102
}
330
D56F4
100
AcDbDimAssoc
330
D56F3
 90
        3
 70
     0
 71
     0
  1
AcDbOsnapPointRef
 72
     2
331
D56EB
 73
     2
 91
        0
 40
6.283185307179585
 10
0.0
 20
0.0
 30
0.0
 75
     0
  1
AcDbOsnapPointRef
 72
     2
331
D56E9
 73
     2
 91
        0
 40
3.141592653589792
 10
0.0
 20
0.0
 30
0.0
 75
     0
  0
DIMASSOC
  5
D56F8
102
{ACAD_REACTORS
330
D56F7
102
}
330
D56F7
100
AcDbDimAssoc
330
D56F6
 90
        3
 70
     0
 71
     0
  1
AcDbOsnapPointRef
 72
     2
331
D56EC
 73
     2
 91
        0
 40
6.283185307179585
 10
0.0
 20
0.0
 30
0.0
 75
     0
  1
AcDbOsnapPointRef
 72
     2
331
D56EA
 73
     2
 91
        0
 40
3.141592653589792
 10
0.0
 20
0.0
 30
0.0
 75
     0
  0
DIMASSOC
  5
D56FB
102
{ACAD_REACTORS
330
D56FA
102
}
330
D56FA
100
AcDbDimAssoc
330
D56F9
 90
        3
 70
     0
 71
     0
  1
AcDbOsnapPointRef
 72
     2
331
D56ED
 73
     2
 91
        0
 40
4.712388980384688
 10
0.0
 20
0.0
 30
0.0
 75
     0
  1
AcDbOsnapPointRef
 72
     2
331
D56E7
 73
     2
 91
        0
 40
1.570796326794896
 10
0.0
 20
0.0
 30
0.0
 75
     0
  0
DIMASSOC
  5
D56FE
102
{ACAD_REACTORS
330
D56FD
102
}
330
D56FD
100
AcDbDimAssoc
330
D56FC
 90
        3
 70
     0
 71
     0
  1
AcDbOsnapPointRef
 72
     2
331
D56E8
 73
     2
 91
        0
 40
1.570796326794896
 10
0.0
 20
0.0
 30
0.0
 75
     0
  1
AcDbOsnapPointRef
 72
     2
331
D56EE
 73
     2
 91
        0
 40
4.712388980384688
 10
0.0
 20
0.0
 30
0.0
 75
     0
  0
DIMASSOC
  5
D5702
102
{ACAD_REACTORS
330
D5701
102
}
330
D5701
100
AcDbDimAssoc
330
D5700
 90
        2
 70
     0
 71
     0
  1
AcDbOsnapPointRef
 72
     3
331
D56E7
 73
     2
 91
        0
 40
0.0
 10
0.0
 20
0.0
 30
0.0
 75
     0
  0
DIMASSOC
  5
D5705
102
{ACAD_REACTORS
330
D5704
102
}
330
D5704
100
AcDbDimAssoc
330
D5703
 90
        2
 70
     0
 71
     0
  1
AcDbOsnapPointRef
 72
     3
331
D56E9
 73
     2
 91
        0
 40
0.0
 10
0.0
 20
0.0
 30
0.0
 75
     0
  0
DIMASSOC
  5
D5708
102
{ACAD_REACTORS
330
D5707
102
}
330
D5707
100
AcDbDimAssoc
330
D5706
 90
        3
 70
     0
 71
     0
  1
AcDbOsnapPointRef
 72
     1
331
D56EC
 73
     2
 91
        0
 40
6.340775960423651
 10
0.0
 20
0.0
 30
2.000000000000000E+50
 75
     0
  1
AcDbOsnapPointRef
 72
     1
331
D56EB
 73
     2
 91
        0
 40
6.340775960423651
 10
0.0
 20
0.0
 30
2.000000000000000E+50
 75
     0
  0
XRECORD
  5
D5AD6
102
{ACAD_REACTORS
330
D5AD5
102
}
330
D5AD5
100
AcDbXrecord
280
     1
 40
57865.0
  1
\A1;{\fGulim|b0|i0|c129|p34;5-\U+22056}
  0
DIMASSOC
  5
D5720
102
{ACAD_REACTORS
330
D571F
102
}
330
D571F
100
AcDbDimAssoc
330
D571E
 90
        3
 70
     0
 71
     0
  1
AcDbOsnapPointRef
 72
     6
331
D5717
 73
     2
 91
        0
 40
3.084002000345922
 10
0.0
 20
0.0
 30
0.0
332
D570D
 74
     2
 92
        0
 75
     0
  1
AcDbOsnapPointRef
 72
     6
331
D5718
 73
     2
 91
        0
 40
3.084129837169629
 10
0.0
 20
0.0
 30
0.0
332
D570E
 74
     2
 92
        0
 75
     0
  0
DIMASSOC
  5
D5723
102
{ACAD_REACTORS
330
D5722
102
}
330
D5722
100
AcDbDimAssoc
330
D5721
 90
        3
 70
     0
 71
     0
  1
AcDbOsnapPointRef
 72
     2
331
D5719
 73
     2
 91
        0
 40
6.283185307179585
 10
0.0
 20
0.0
 30
0.0
 75
     0
  1
AcDbOsnapPointRef
 72
     2
331
D5717
 73
     2
 91
        0
 40
3.141592653589792
 10
0.0
 20
0.0
 30
0.0
 75
     0
  0
DIMASSOC
  5
D5726
102
{ACAD_REACTORS
330
D5725
102
}
330
D5725
100
AcDbDimAssoc
330
D5724
 90
        3
 70
     0
 71
     0
  1
AcDbOsnapPointRef
 72
     2
331
D571A
 73
     2
 91
        0
 40
6.283185307179585
 10
0.0
 20
0.0
 30
0.0
 75
     0
  1
AcDbOsnapPointRef
 72
     2
331
D5718
 73
     2
 91
        0
 40
3.141592653589792
 10
0.0
 20
0.0
 30
0.0
 75
     0
  0
DIMASSOC
  5
D5729
102
{ACAD_REACTORS
330
D5728
102
}
330
D5728
100
AcDbDimAssoc
330
D5727
 90
        3
 70
     0
 71
     0
  1
AcDbOsnapPointRef
 72
     2
331
D571B
 73
     2
 91
        0
 40
4.712388980384688
 10
0.0
 20
0.0
 30
0.0
 75
     0
  1
AcDbOsnapPointRef
 72
     2
331
D5715
 73
     2
 91
        0
 40
1.570796326794896
 10
0.0
 20
0.0
 30
0.0
 75
     0
  0
DIMASSOC
  5
D572C
102
{ACAD_REACTORS
330
D572B
102
}
330
D572B
100
AcDbDimAssoc
330
D572A
 90
        3
 70
     0
 71
     0
  1
AcDbOsnapPointRef
 72
     2
331
D5716
 73
     2
 91
        0
 40
1.570796326794896
 10
0.0
 20
0.0
 30
0.0
 75
     0
  1
AcDbOsnapPointRef
 72
     2
331
D571C
 73
     2
 91
        0
 40
4.712388980384688
 10
0.0
 20
0.0
 30
0.0
 75
     0
  0
DIMASSOC
  5
D5730
102
{ACAD_REACTORS
330
D572F
102
}
330
D572F
100
AcDbDimAssoc
330
D572E
 90
        2
 70
     0
 71
     0
  1
AcDbOsnapPointRef
 72
     3
331
D5715
 73
     2
 91
        0
 40
0.0
 10
0.0
 20
0.0
 30
0.0
 75
     0
  0
DIMASSOC
  5
D5733
102
{ACAD_REACTORS
330
D5732
102
}
330
D5732
100
AcDbDimAssoc
330
D5731
 90
        2
 70
     0
 71
     0
  1
AcDbOsnapPointRef
 72
     3
331
D5717
 73
     2
 91
        0
 40
0.0
 10
0.0
 20
0.0
 30
0.0
 75
     0
  0
DIMASSOC
  5
D5736
102
{ACAD_REACTORS
330
D5735
102
}
330
D5735
100
AcDbDimAssoc
330
D5734
 90
        3
 70
     0
 71
     0
  1
AcDbOsnapPointRef
 72
     1
331
D571A
 73
     2
 91
        0
 40
6.340775960423651
 10
0.0
 20
0.0
 30
2.000000000000000E+50
 75
     0
  1
AcDbOsnapPointRef
 72
     1
331
D5719
 73
     2
 91
        0
 40
6.340775960423651
 10
0.0
 20
0.0
 30
2.000000000000000E+50
 75
     0
  0
DIMASSOC
  5
D580D
102
{ACAD_REACTORS
330
D5807
102
}
330
D5807
100
AcDbDimAssoc
330
D57FE
 90
        2
 70
     0
 71
     0
  1
AcDbOsnapPointRef
 72
     3
331
D570D
 73
     2
 91
        0
 40
0.0
 10
0.0
 20
0.0
 30
0.0
 75
     0
  0
DIMASSOC
  5
D581D
102
{ACAD_REACTORS
330
D5817
102
}
330
D5817
100
AcDbDimAssoc
330
D580E
 90
        2
 70
     0
 71
     0
  1
AcDbOsnapPointRef
 72
     3
331
D570F
 73
     2
 91
        0
 40
0.0
 10
0.0
 20
0.0
 30
0.0
 75
     0
  0
DIMASSOC
  5
D582D
102
{ACAD_REACTORS
330
D5827
102
}
330
D5827
100
AcDbDimAssoc
330
D581E
 90
        2
 70
     0
 71
     0
  1
AcDbOsnapPointRef
 72
     3
331
D571B
 73
     2
 91
        0
 40
0.0
 10
0.0
 20
0.0
 30
0.0
 75
     0
  0
DIMASSOC
  5
D583D
102
{ACAD_REACTORS
330
D5837
102
}
330
D5837
100
AcDbDimAssoc
330
D582E
 90
        2
 70
     0
 71
     0
  1
AcDbOsnapPointRef
 72
     3
331
D5711
 73
     2
 91
        0
 40
0.0
 10
0.0
 20
0.0
 30
0.0
 75
     0
  0
DIMASSOC
  5
D585D
102
{ACAD_REACTORS
330
D5857
102
}
330
D5857
100
AcDbDimAssoc
330
D584E
 90
        2
 70
     0
 71
     0
  1
AcDbOsnapPointRef
 72
     3
331
D5713
 73
     2
 91
        0
 40
0.0
 10
0.0
 20
0.0
 30
0.0
 75
     0
  0
DIMASSOC
  5
D5873
102
{ACAD_REACTORS
330
D586A
102
}
330
D586A
100
AcDbDimAssoc
330
D585E
 90
        2
 70
     0
 71
     0
  1
AcDbOsnapPointRef
 72
     3
331
D57F6
 73
     2
 91
        0
 40
0.0
 10
0.0
 20
0.0
 30
0.0
 75
     0
  0
DIMASSOC
  5
D5895
102
{ACAD_REACTORS
330
D588A
102
}
330
D588A
100
AcDbDimAssoc
330
D587C
 90
        3
 70
     0
 71
     0
  1
AcDbOsnapPointRef
 72
     3
331
D57F7
 73
     2
 91
        0
 40
0.0
 10
0.0
 20
0.0
 30
0.0
 75
     0
  1
AcDbOsnapPointRef
 72
     3
331
D57F9
 73
     2
 91
        0
 40
0.0
 10
0.0
 20
0.0
 30
0.0
 75
     0
  0
DIMASSOC
  5
D58D0
102
{ACAD_REACTORS
330
D58C3
102
}
330
D58C3
100
AcDbDimAssoc
330
D58B3
 90
        2
 70
     0
 71
     0
  1
AcDbOsnapPointRef
 72
     3
331
D57F8
 73
     2
 91
        0
 40
0.0
 10
0.0
 20
0.0
 30
0.0
 75
     0
  0
DIMASSOC
  5
D58EA
102
{ACAD_REACTORS
330
D58DF
102
}
330
D58DF
100
AcDbDimAssoc
330
D58D1
 90
        2
 70
     0
 71
     0
  1
AcDbOsnapPointRef
 72
     3
331
D57F5
 73
     2
 91
        0
 40
0.0
 10
0.0
 20
0.0
 30
0.0
 75
     0
  0
DIMASSOC
  5
D5918
102
{ACAD_REACTORS
330
D590D
102
}
330
D590D
100
AcDbDimAssoc
330
D58FF
 90
        2
 70
     0
 71
     0
  1
AcDbOsnapPointRef
 72
     3
331
D57F6
 73
     2
 91
        0
 40
0.0
 10
0.0
 20
0.0
 30
0.0
 75
     0
  0
XRECORD
  5
D5ACB
102
{ACAD_REACTORS
330
D5ACA
102
}
330
D5ACA
100
AcDbXrecord
280
     1
 40
1.25
  0
XRECORD
  5
D5ACC
102
{ACAD_REACTORS
330
D5ACA
102
}
330
D5ACA
100
AcDbXrecord
280
     1
 40
1.570796326794896
  0
XRECORD
  5
D5ACD
102
{ACAD_REACTORS
330
D5ACA
102
}
330
D5ACA
100
AcDbXrecord
280
     1
340
15
  0
LAYOUT
  5
22
102
{ACAD_XDICTIONARY
360
D5ACE
102
}
102
{ACAD_REACTORS
330
1A
102
}
330
1A
100
AcDbPlotSettings
  1

  2
\\PC-201204061032\Canon LBP2900
  4
A4
  6

 40
5.873749732971191
 41
6.805091857910156
 42
5.873748779296875
 43
4.857757568359375
 44
209.9733276367186
 45
296.9259948730469
 46
-5.889999999999998
 47
-5.87
 48
85766.02374884076
 49
-163980.7810393121
140
88736.02374884079
141
-161880.7810393122
142
1.0
143
10.0
 70
 11940
 72
     1
 73
     1
 74
     4
  7
monochrome.ctb
 75
     0
147
0.1
148
-85766.02374884076
149
163980.7810393121
100
AcDbLayout
  1
Model
 70
     1
 71
     0
 10
0.0
 20
0.0
 11
12.0
 21
9.0
 12
0.0
 22
0.0
 32
0.0
 14
0.0
 24
0.0
 34
0.0
 15
0.0
 25
0.0
 35
0.0
146
0.0
 13
0.0
 23
0.0
 33
0.0
 16
1.0
 26
0.0
 36
0.0
 17
0.0
 27
1.0
 37
0.0
 76
     0
330
1F
331
CED6D
  0
LAYOUT
  5
74
102
{ACAD_XDICTIONARY
360
D5AD0
102
}
102
{ACAD_REACTORS
330
1A
102
}
330
1A
100
AcDbPlotSettings
  1

  2
\\ADSCCNDC1\hq601xrx1
  4

  6

 40
0.0
 41
0.0
 42
0.0
 43
0.0
 44
0.0
 45
0.0
 46
0.0
 47
0.0
 48
0.0
 49
0.0
140
0.0
141
0.0
142
1.0
143
1.0
 70
   688
 72
     0
 73
     0
 74
     5
  7
monochrome.ctb
 75
    16
147
1.0
148
0.0
149
0.0
100
AcDbLayout
  1
布局1
 70
     1
 71
     1
 10
0.0
 20
0.0
 11
12.0
 21
9.0
 12
0.0
 22
0.0
 32
0.0
 14
0.0
 24
0.0
 34
0.0
 15
0.0
 25
0.0
 35
0.0
146
0.0
 13
0.0
 23
0.0
 33
0.0
 16
1.0
 26
0.0
 36
0.0
 17
0.0
 27
1.0
 37
0.0
 76
     0
330
73
  0
LAYOUT
  5
79
102
{ACAD_XDICTIONARY
360
D5AD2
102
}
102
{ACAD_REACTORS
330
1A
102
}
330
1A
100
AcDbPlotSettings
  1

  2
\\ADSCCNDC1\hq601xrx1
  4

  6

 40
0.0
 41
0.0
 42
0.0
 43
0.0
 44
0.0
 45
0.0
 46
0.0
 47
0.0
 48
0.0
 49
0.0
140
0.0
141
0.0
142
1.0
143
1.0
 70
   688
 72
     0
 73
     0
 74
     5
  7
monochrome.ctb
 75
    16
147
1.0
148
0.0
149
0.0
100
AcDbLayout
  1
布局2
 70
     1
 71
     2
 10
0.0
 20
0.0
 11
12.0
 21
9.0
 12
0.0
 22
0.0
 32
0.0
 14
0.0
 24
0.0
 34
0.0
 15
0.0
 25
0.0
 35
0.0
146
0.0
 13
0.0
 23
0.0
 33
0.0
 16
1.0
 26
0.0
 36
0.0
 17
0.0
 27
1.0
 37
0.0
 76
     0
330
78
  0
MATERIAL
  5
CED77
102
{ACAD_XDICTIONARY
360
CED78
102
}
102
{ACAD_REACTORS
330
6B
102
}
330
6B
100
AcDbMaterial
  1
ByBlock
 72
     0
 43
0.0208333333333333
 43
0.0
 43
0.0
 43
0.0
 43
0.0
 43
0.0208333333333333
 43
0.0
 43
0.0
 43
0.0
 43
0.0
 43
1.0
 43
0.0
 43
0.0
 43
0.0
 43
0.0
 43
1.0
 77
     0
 47
0.0208333333333333
 47
0.0
 47
0.0
 47
0.0
 47
0.0
 47
0.0208333333333333
 47
0.0
 47
0.0
 47
0.0
 47
0.0
 47
1.0
 47
0.0
 47
0.0
 47
0.0
 47
0.0
 47
1.0
171
     0
 49
0.0208333333333333
 49
0.0
 49
0.0
 49
0.0
 49
0.0
 49
0.0208333333333333
 49
0.0
 49
0.0
 49
0.0
 49
0.0
 49
1.0
 49
0.0
 49
0.0
 49
0.0
 49
0.0
 49
1.0
175
     0
142
0.0208333333333333
142
0.0
142
0.0
142
0.0
142
0.0
142
0.0208333333333333
142
0.0
142
0.0
142
0.0
142
0.0
142
1.0
142
0.0
142
0.0
142
0.0
142
0.0
142
1.0
179
     0
144
0.0208333333333333
144
0.0
144
0.0
144
0.0
144
0.0
144
0.0208333333333333
144
0.0
144
0.0
144
0.0
144
0.0
144
1.0
144
0.0
144
0.0
144
0.0
144
0.0
144
1.0
147
0.0208333333333333
147
0.0
147
0.0
147
0.0
147
0.0
147
0.0208333333333333
147
0.0
147
0.0
147
0.0
147
0.0
147
1.0
147
0.0
147
0.0
147
0.0
147
0.0
147
1.0
  0
MATERIAL
  5
CED6F
102
{ACAD_XDICTIONARY
360
CED70
102
}
102
{ACAD_REACTORS
330
6B
102
}
330
6B
100
AcDbMaterial
  1
ByLayer
 72
     0
 43
0.0208333333333333
 43
0.0
 43
0.0
 43
0.0
 43
0.0
 43
0.0208333333333333
 43
0.0
 43
0.0
 43
0.0
 43
0.0
 43
1.0
 43
0.0
 43
0.0
 43
0.0
 43
0.0
 43
1.0
 77
     0
 47
0.0208333333333333
 47
0.0
 47
0.0
 47
0.0
 47
0.0
 47
0.0208333333333333
 47
0.0
 47
0.0
 47
0.0
 47
0.0
 47
1.0
 47
0.0
 47
0.0
 47
0.0
 47
0.0
 47
1.0
171
     0
 49
0.0208333333333333
 49
0.0
 49
0.0
 49
0.0
 49
0.0
 49
0.0208333333333333
 49
0.0
 49
0.0
 49
0.0
 49
0.0
 49
1.0
 49
0.0
 49
0.0
 49
0.0
 49
0.0
 49
1.0
175
     0
142
0.0208333333333333
142
0.0
142
0.0
142
0.0
142
0.0
142
0.0208333333333333
142
0.0
142
0.0
142
0.0
142
0.0
142
1.0
142
0.0
142
0.0
142
0.0
142
0.0
142
1.0
179
     0
144
0.0208333333333333
144
0.0
144
0.0
144
0.0
144
0.0
144
0.0208333333333333
144
0.0
144
0.0
144
0.0
144
0.0
144
1.0
144
0.0
144
0.0
144
0.0
144
0.0
144
1.0
147
0.0208333333333333
147
0.0
147
0.0
147
0.0
147
0.0
147
0.0208333333333333
147
0.0
147
0.0
147
0.0
147
0.0
147
1.0
147
0.0
147
0.0
147
0.0
147
0.0
147
1.0
  0
MATERIAL
  5
CED7F
102
{ACAD_XDICTIONARY
360
CED80
102
}
102
{ACAD_REACTORS
330
6B
102
}
330
6B
100
AcDbMaterial
  1
Global
 72
     0
 43
0.0208333333333333
 43
0.0
 43
0.0
 43
0.0
 43
0.0
 43
0.0208333333333333
 43
0.0
 43
0.0
 43
0.0
 43
0.0
 43
1.0
 43
0.0
 43
0.0
 43
0.0
 43
0.0
 43
1.0
 77
     0
 47
0.0208333333333333
 47
0.0
 47
0.0
 47
0.0
 47
0.0
 47
0.0208333333333333
 47
0.0
 47
0.0
 47
0.0
 47
0.0
 47
1.0
 47
0.0
 47
0.0
 47
0.0
 47
0.0
 47
1.0
171
     0
 49
0.0208333333333333
 49
0.0
 49
0.0
 49
0.0
 49
0.0
 49
0.0208333333333333
 49
0.0
 49
0.0
 49
0.0
 49
0.0
 49
1.0
 49
0.0
 49
0.0
 49
0.0
 49
0.0
 49
1.0
175
     0
142
0.0208333333333333
142
0.0
142
0.0
142
0.0
142
0.0
142
0.0208333333333333
142
0.0
142
0.0
142
0.0
142
0.0
142
1.0
142
0.0
142
0.0
142
0.0
142
0.0
142
1.0
179
     0
144
0.0208333333333333
144
0.0
144
0.0
144
0.0
144
0.0
144
0.0208333333333333
144
0.0
144
0.0
144
0.0
144
0.0
144
1.0
144
0.0
144
0.0
144
0.0
144
0.0
144
1.0
147
0.0208333333333333
147
0.0
147
0.0
147
0.0
147
0.0
147
0.0208333333333333
147
0.0
147
0.0
147
0.0
147
0.0
147
1.0
147
0.0
147
0.0
147
0.0
147
0.0
147
1.0
  0
MLEADERSTYLE
  5
CEDBB
102
{ACAD_REACTORS
330
CEDBA
102
}
330
CEDBA
100
AcDbMLeaderStyle
170
     2
171
     1
172
     0
 90
        2
 40
0.0
 41
0.0
173
     1
 91
-1056964608
340
14
 92
       -2
290
     1
 42
0.09
291
     1
 43
0.36
  3
Standard
 44
0.18
300

342
11
174
     1
178
     6
175
     1
176
     0
 93
-1056964608
 45
0.18
292
     0
297
     0
 46
0.18
 94
-1056964608
 47
1.0
 49
1.0
140
1.0
293
     1
141
0.0
294
     1
177
     0
142
1.0
295
     0
296
     0
143
0.125
1001
ACAD_MLEADERVER
1070
     2
  0
MLINESTYLE
  5
18
102
{ACAD_REACTORS
330
17
102
}
330
17
100
AcDbMlineStyle
  2
STANDARD
 70
     0
  3

 62
   256
 51
90.0
 52
90.0
 71
     2
 49
0.5
 62
   256
  6
BYLAYER
 49
-0.5
 62
   256
  6
BYLAYER
  0
ACDBPLACEHOLDER
  5
F
102
{ACAD_REACTORS
330
E
102
}
330
E
  0
SCALE
  5
CED99
102
{ACAD_REACTORS
330
CED98
102
}
330
CED98
100
AcDbScale
 70
     0
300
1:1
140
1.0
141
1.0
290
     1
  0
SCALE
  5
CED9A
102
{ACAD_REACTORS
330
CED98
102
}
330
CED98
100
AcDbScale
 70
     0
300
1:2
140
1.0
141
2.0
290
     0
  0
SCALE
  5
CED9B
102
{ACAD_REACTORS
330
CED98
102
}
330
CED98
100
AcDbScale
 70
     0
300
1:4
140
1.0
141
4.0
290
     0
  0
SCALE
  5
CED9C
102
{ACAD_REACTORS
330
CED98
102
}
330
CED98
100
AcDbScale
 70
     0
300
1:5
140
1.0
141
5.0
290
     0
  0
SCALE
  5
CED9D
102
{ACAD_REACTORS
330
CED98
102
}
330
CED98
100
AcDbScale
 70
     0
300
1:8
140
1.0
141
8.0
290
     0
  0
SCALE
  5
CED9E
102
{ACAD_REACTORS
330
CED98
102
}
330
CED98
100
AcDbScale
 70
     0
300
1:10
140
1.0
141
10.0
290
     0
  0
SCALE
  5
CED9F
102
{ACAD_REACTORS
330
CED98
102
}
330
CED98
100
AcDbScale
 70
     0
300
1:16
140
1.0
141
16.0
290
     0
  0
SCALE
  5
CEDA0
102
{ACAD_REACTORS
330
CED98
102
}
330
CED98
100
AcDbScale
 70
     0
300
1:20
140
1.0
141
20.0
290
     0
  0
SCALE
  5
CEDA1
102
{ACAD_REACTORS
330
CED98
102
}
330
CED98
100
AcDbScale
 70
     0
300
1:30
140
1.0
141
30.0
290
     0
  0
SCALE
  5
CEDA2
102
{ACAD_REACTORS
330
CED98
102
}
330
CED98
100
AcDbScale
 70
     0
300
1:40
140
1.0
141
40.0
290
     0
  0
SCALE
  5
CEDA3
102
{ACAD_REACTORS
330
CED98
102
}
330
CED98
100
AcDbScale
 70
     0
300
1:50
140
1.0
141
50.0
290
     0
  0
SCALE
  5
CEDA4
102
{ACAD_REACTORS
330
CED98
102
}
330
CED98
100
AcDbScale
 70
     0
300
1:100
140
1.0
141
100.0
290
     0
  0
SCALE
  5
CEDA5
102
{ACAD_REACTORS
330
CED98
102
}
330
CED98
100
AcDbScale
 70
     0
300
2:1
140
2.0
141
1.0
290
     0
  0
SCALE
  5
CEDA6
102
{ACAD_REACTORS
330
CED98
102
}
330
CED98
100
AcDbScale
 70
     0
300
4:1
140
4.0
141
1.0
290
     0
  0
SCALE
  5
CEDA7
102
{ACAD_REACTORS
330
CED98
102
}
330
CED98
100
AcDbScale
 70
     0
300
8:1
140
8.0
141
1.0
290
     0
  0
SCALE
  5
CEDA8
102
{ACAD_REACTORS
330
CED98
102
}
330
CED98
100
AcDbScale
 70
     0
300
10:1
140
10.0
141
1.0
290
     0
  0
SCALE
  5
CEDA9
102
{ACAD_REACTORS
330
CED98
102
}
330
CED98
100
AcDbScale
 70
     0
300
100:1
140
100.0
141
1.0
290
     0
  0
SCALE
  5
CEDAA
102
{ACAD_REACTORS
330
CED98
102
}
330
CED98
100
AcDbScale
 70
     0
300
1/128" = 1'-0"
140
0.0078125
141
12.0
290
     0
  0
SCALE
  5
CEDAB
102
{ACAD_REACTORS
330
CED98
102
}
330
CED98
100
AcDbScale
 70
     0
300
1/64" = 1'-0"
140
0.015625
141
12.0
290
     0
  0
SCALE
  5
CEDAC
102
{ACAD_REACTORS
330
CED98
102
}
330
CED98
100
AcDbScale
 70
     0
300
1/32" = 1'-0"
140
0.03125
141
12.0
290
     0
  0
SCALE
  5
CEDAD
102
{ACAD_REACTORS
330
CED98
102
}
330
CED98
100
AcDbScale
 70
     0
300
1/16" = 1'-0"
140
0.0625
141
12.0
290
     0
  0
SCALE
  5
CEDAE
102
{ACAD_REACTORS
330
CED98
102
}
330
CED98
100
AcDbScale
 70
     0
300
3/32" = 1'-0"
140
0.09375
141
12.0
290
     0
  0
SCALE
  5
CEDAF
102
{ACAD_REACTORS
330
CED98
102
}
330
CED98
100
AcDbScale
 70
     0
300
1/8" = 1'-0"
140
0.125
141
12.0
290
     0
  0
SCALE
  5
CEDB0
102
{ACAD_REACTORS
330
CED98
102
}
330
CED98
100
AcDbScale
 70
     0
300
3/16" = 1'-0"
140
0.1875
141
12.0
290
     0
  0
SCALE
  5
CEDB1
102
{ACAD_REACTORS
330
CED98
102
}
330
CED98
100
AcDbScale
 70
     0
300
1/4" = 1'-0"
140
0.25
141
12.0
290
     0
  0
SCALE
  5
CEDB2
102
{ACAD_REACTORS
330
CED98
102
}
330
CED98
100
AcDbScale
 70
     0
300
3/8" = 1'-0"
140
0.375
141
12.0
290
     0
  0
SCALE
  5
CEDB3
102
{ACAD_REACTORS
330
CED98
102
}
330
CED98
100
AcDbScale
 70
     0
300
1/2" = 1'-0"
140
0.5
141
12.0
290
     0
  0
SCALE
  5
CEDB4
102
{ACAD_REACTORS
330
CED98
102
}
330
CED98
100
AcDbScale
 70
     0
300
3/4" = 1'-0"
140
0.75
141
12.0
290
     0
  0
SCALE
  5
CEDB5
102
{ACAD_REACTORS
330
CED98
102
}
330
CED98
100
AcDbScale
 70
     0
300
1" = 1'-0"
140
1.0
141
12.0
290
     0
  0
SCALE
  5
CEDB6
102
{ACAD_REACTORS
330
CED98
102
}
330
CED98
100
AcDbScale
 70
     0
300
1-1/2" = 1'-0"
140
1.5
141
12.0
290
     0
  0
SCALE
  5
CEDB7
102
{ACAD_REACTORS
330
CED98
102
}
330
CED98
100
AcDbScale
 70
     0
300
3" = 1'-0"
140
3.0
141
12.0
290
     0
  0
SCALE
  5
CEDB8
102
{ACAD_REACTORS
330
CED98
102
}
330
CED98
100
AcDbScale
 70
     0
300
6" = 1'-0"
140
6.0
141
12.0
290
     0
  0
SCALE
  5
CEDB9
102
{ACAD_REACTORS
330
CED98
102
}
330
CED98
100
AcDbScale
 70
     0
300
1'-0" = 1'-0"
140
12.0
141
12.0
290
     0
  0
TABLESTYLE
  5
FB0
102
{ACAD_XDICTIONARY
360
D0C45
102
}
102
{ACAD_REACTORS
330
FAF
102
}
330
FAF
100
AcDbTableStyle
  3
Standard
 70
     0
 71
     0
 40
0.06
 41
0.06
280
     0
281
     0
  7
Standard
140
0.18
170
     2
 62
     0
 63
     7
283
     0
274
    -2
284
     1
 64
     0
275
    -2
285
     1
 65
     0
276
    -2
286
     1
 66
     0
277
    -2
287
     1
 67
     0
278
    -2
288
     1
 68
     0
279
    -2
289
     1
 69
     0
  7
Standard
140
0.25
170
     5
 62
     0
 63
     7
283
     0
274
    -2
284
     1
 64
     0
275
    -2
285
     1
 65
     0
276
    -2
286
     1
 66
     0
277
    -2
287
     1
 67
     0
278
    -2
288
     1
 68
     0
279
    -2
289
     1
 69
     0
  7
Standard
140
0.18
170
     5
 62
     0
 63
     7
283
     0
274
    -2
284
     1
 64
     0
275
    -2
285
     1
 65
     0
276
    -2
286
     1
 66
     0
277
    -2
287
     1
 67
     0
278
    -2
288
     1
 68
     0
279
    -2
289
     1
 69
     0
  0
VISUALSTYLE
  5
CED8D
102
{ACAD_REACTORS
330
CED87
102
}
330
CED87
100
AcDbVisualStyle
  2
2dWireframe
 70
     4
 71
     0
 72
     2
 73
     0
 90
        0
 40
-0.6
 41
-30.0
 62
     5
 63
     7
 74
     1
 91
        4
 64
     7
 65
   257
 75
     1
175
     1
 42
1.0
 92
        0
 66
   257
 43
1.0
 76
     1
 77
     6
 78
     2
 67
     7
 79
     5
170
     0
171
     0
290
     0
174
     0
 93
        1
 44
0.0
173
     0
291
     0
 45
0.0
1001
ACAD
1000
AcDbSavedByObjectVersion
1070
     0
1000
AcDbSavedByObjectVersion
1070
     0
  0
VISUALSTYLE
  5
CED8F
102
{ACAD_REACTORS
330
CED87
102
}
330
CED87
100
AcDbVisualStyle
  2
3D Hidden
 70
     6
 71
     1
 72
     2
 73
     2
 90
        0
 40
-0.6
 41
-30.0
 62
     5
 63
     7
 74
     2
 91
        2
 64
     7
 65
   257
 75
     2
175
     1
 42
40.0
 92
        0
 66
   257
 43
1.0
 76
     1
 77
     6
 78
     2
 67
     7
 79
     3
170
     0
171
     0
290
     0
174
     0
 93
        1
 44
0.0
173
     0
291
     0
 45
0.0
1001
ACAD
1000
AcDbSavedByObjectVersion
1070
     0
1000
AcDbSavedByObjectVersion
1070
     0
  0
VISUALSTYLE
  5
CED8E
102
{ACAD_REACTORS
330
CED87
102
}
330
CED87
100
AcDbVisualStyle
  2
3dWireframe
 70
     5
 71
     0
 72
     2
 73
     0
 90
        0
 40
-0.6
 41
-30.0
 62
     5
 63
     7
 74
     1
 91
        4
 64
     7
 65
   257
 75
     1
175
     1
 42
1.0
 92
        0
 66
   257
 43
1.0
 76
     1
 77
     6
 78
     2
 67
     7
 79
     5
170
     0
171
     0
290
     0
174
     0
 93
        1
 44
0.0
173
     0
291
     0
 45
0.0
1001
ACAD
1000
AcDbSavedByObjectVersion
1070
     0
1000
AcDbSavedByObjectVersion
1070
     0
  0
VISUALSTYLE
  5
CED8C
102
{ACAD_REACTORS
330
CED87
102
}
330
CED87
100
AcDbVisualStyle
  2
Basic
 70
     7
 71
     1
 72
     0
 73
     1
 90
        0
 40
-0.6
 41
-30.0
 62
     5
 63
     7
 74
     0
 91
        4
 64
     7
 65
   257
 75
     1
175
     1
 42
1.0
 92
        8
 66
     7
 43
1.0
 76
     1
 77
     6
 78
     2
 67
     7
 79
     5
170
     0
171
     0
290
     0
174
     0
 93
        1
 44
0.0
173
     0
291
     1
 45
0.0
1001
ACAD
1000
AcDbSavedByObjectVersion
1070
     0
1000
AcDbSavedByObjectVersion
1070
     0
  0
VISUALSTYLE
  5
CED93
102
{ACAD_REACTORS
330
CED87
102
}
330
CED87
100
AcDbVisualStyle
  2
Brighten
 70
    12
 71
     2
 72
     2
 73
     0
 90
        0
 40
-0.6
 41
-30.0
 62
     5
 63
     7
 74
     1
 91
        4
 64
     7
 65
   257
 75
     1
175
     1
 42
1.0
 92
        8
 66
     7
 43
1.0
 76
     1
 77
     6
 78
     2
 67
     7
 79
     5
170
     0
171
     0
290
     0
174
     0
 93
        1
 44
50.0
173
     0
291
     1
 45
0.0
1001
ACAD
1000
AcDbSavedByObjectVersion
1070
     0
1000
AcDbSavedByObjectVersion
1070
     0
  0
VISUALSTYLE
  5
CED97
102
{ACAD_REACTORS
330
CED87
102
}
330
CED87
100
AcDbVisualStyle
  2
ColorChange
 70
    16
 71
     2
 72
     2
 73
     3
 90
        0
 40
-0.6
 41
-30.0
 62
     5
 63
     8
 74
     1
 91
        4
 64
     7
 65
   257
 75
     1
175
     1
 42
1.0
 92
        8
 66
     8
 43
1.0
 76
     1
 77
     6
 78
     2
 67
     7
 79
     5
170
     0
171
     0
290
     0
174
     0
 93
        1
 44
0.0
173
     0
291
     1
 45
0.0
1001
ACAD
1000
AcDbSavedByObjectVersion
1070
     0
1000
AcDbSavedByObjectVersion
1070
     0
  0
VISUALSTYLE
  5
CED90
102
{ACAD_REACTORS
330
CED87
102
}
330
CED87
100
AcDbVisualStyle
  2
Conceptual
 70
     9
 71
     3
 72
     2
 73
     0
 90
        0
 40
-0.6
 41
-30.0
 62
     5
 63
     7
 74
     2
 91
        2
 64
     7
 65
   257
 75
     1
175
     1
 42
40.0
 92
        8
 66
     7
 43
1.0
 76
     1
 77
     6
 78
     2
 67
     7
 79
     3
170
     0
171
     0
290
     0
174
     0
 93
        1
 44
0.0
173
     0
291
     0
 45
0.0
1001
ACAD
1000
AcDbSavedByObjectVersion
1070
     0
1000
AcDbSavedByObjectVersion
1070
     0
  0
VISUALSTYLE
  5
CED92
102
{ACAD_REACTORS
330
CED87
102
}
330
CED87
100
AcDbVisualStyle
  2
Dim
 70
    11
 71
     2
 72
     2
 73
     0
 90
        0
 40
-0.6
 41
-30.0
 62
     5
 63
     7
 74
     1
 91
        4
 64
     7
 65
   257
 75
     1
175
     1
 42
1.0
 92
        8
 66
     7
 43
1.0
 76
     1
 77
     6
 78
     2
 67
     7
 79
     5
170
     0
171
     0
290
     0
174
     0
 93
        1
 44
-50.0
173
     0
291
     1
 45
0.0
1001
ACAD
1000
AcDbSavedByObjectVersion
1070
     0
1000
AcDbSavedByObjectVersion
1070
     0
  0
VISUALSTYLE
  5
CED96
102
{ACAD_REACTORS
330
CED87
102
}
330
CED87
100
AcDbVisualStyle
  2
Facepattern
 70
    15
 71
     2
 72
     2
 73
     0
 90
        0
 40
-0.6
 41
-30.0
 62
     5
 63
     7
 74
     1
 91
        4
 64
     7
 65
   257
 75
     1
175
     1
 42
1.0
 92
        8
 66
     7
 43
1.0
 76
     1
 77
     6
 78
     2
 67
     7
 79
     5
170
     0
171
     0
290
     0
174
     0
 93
        1
 44
0.0
173
     0
291
     1
 45
0.0
1001
ACAD
1000
AcDbSavedByObjectVersion
1070
     0
1000
AcDbSavedByObjectVersion
1070
     0
  0
VISUALSTYLE
  5
CED88
102
{ACAD_REACTORS
330
CED87
102
}
330
CED87
100
AcDbVisualStyle
  2
Flat
 70
     0
 71
     2
 72
     1
 73
     1
 90
        2
 40
-0.6
 41
30.0
 62
     5
 63
     7
 74
     0
 91
        4
 64
     7
 65
   257
 75
     1
175
     1
 42
1.0
 92
        8
 66
     7
 43
1.0
 76
     1
 77
     6
 78
     2
 67
     7
 79
     5
170
     0
171
     0
290
     0
174
     0
 93
       13
 44
0.0
173
     0
291
     1
 45
0.0
1001
ACAD
1000
AcDbSavedByObjectVersion
1070
     0
1000
AcDbSavedByObjectVersion
1070
     0
  0
VISUALSTYLE
  5
CED89
102
{ACAD_REACTORS
330
CED87
102
}
330
CED87
100
AcDbVisualStyle
  2
FlatWithEdges
 70
     1
 71
     2
 72
     1
 73
     1
 90
        2
 40
-0.6
 41
30.0
 62
     5
 63
     7
 74
     1
 91
        4
 64
     7
 65
   257
 75
     1
175
     1
 42
1.0
 92
        0
 66
   257
 43
1.0
 76
     1
 77
     6
 78
     2
 67
     7
 79
     5
170
     0
171
     0
290
     0
174
     0
 93
       13
 44
0.0
173
     0
291
     1
 45
0.0
1001
ACAD
1000
AcDbSavedByObjectVersion
1070
     0
1000
AcDbSavedByObjectVersion
1070
     0
  0
VISUALSTYLE
  5
CED8A
102
{ACAD_REACTORS
330
CED87
102
}
330
CED87
100
AcDbVisualStyle
  2
Gouraud
 70
     2
 71
     2
 72
     2
 73
     1
 90
        2
 40
-0.6
 41
30.0
 62
     5
 63
     7
 74
     0
 91
        4
 64
     7
 65
   257
 75
     1
175
     1
 42
1.0
 92
        0
 66
     7
 43
1.0
 76
     1
 77
     6
 78
     2
 67
     7
 79
     5
170
     0
171
     0
290
     0
174
     0
 93
       13
 44
0.0
173
     0
291
     1
 45
0.0
1001
ACAD
1000
AcDbSavedByObjectVersion
1070
     0
1000
AcDbSavedByObjectVersion
1070
     0
  0
VISUALSTYLE
  5
CED8B
102
{ACAD_REACTORS
330
CED87
102
}
330
CED87
100
AcDbVisualStyle
  2
GouraudWithEdges
 70
     3
 71
     2
 72
     2
 73
     1
 90
        2
 40
-0.6
 41
30.0
 62
     5
 63
     7
 74
     1
 91
        4
 64
     7
 65
   257
 75
     1
175
     1
 42
1.0
 92
        0
 66
   257
 43
1.0
 76
     1
 77
     6
 78
     2
 67
     7
 79
     5
170
     0
171
     0
290
     0
174
     0
 93
       13
 44
0.0
173
     0
291
     1
 45
0.0
1001
ACAD
1000
AcDbSavedByObjectVersion
1070
     0
1000
AcDbSavedByObjectVersion
1070
     0
  0
VISUALSTYLE
  5
CED95
102
{ACAD_REACTORS
330
CED87
102
}
330
CED87
100
AcDbVisualStyle
  2
Linepattern
 70
    14
 71
     2
 72
     2
 73
     0
 90
        0
 40
-0.6
 41
-30.0
 62
     5
 63
     7
 74
     1
 91
        4
 64
     7
 65
   257
 75
     7
175
     7
 42
1.0
 92
        8
 66
     7
 43
1.0
 76
     1
 77
     6
 78
     2
 67
     7
 79
     5
170
     0
171
     0
290
     0
174
     0
 93
        1
 44
0.0
173
     0
291
     1
 45
0.0
1001
ACAD
1000
AcDbSavedByObjectVersion
1070
     0
1000
AcDbSavedByObjectVersion
1070
     0
  0
VISUALSTYLE
  5
CED91
102
{ACAD_REACTORS
330
CED87
102
}
330
CED87
100
AcDbVisualStyle
  2
Realistic
 70
     8
 71
     2
 72
     2
 73
     0
 90
        0
 40
-0.6
 41
-30.0
 62
     5
 63
     7
 74
     1
 91
        0
 64
     7
 65
   257
 75
     1
175
     1
 42
1.0
 92
        8
 66
     8
 43
1.0
 76
     1
 77
     6
 78
     2
 67
     7
 79
     5
170
     0
171
     0
290
     0
174
     0
 93
       13
 44
0.0
173
     0
291
     0
 45
0.0
1001
ACAD
1000
AcDbSavedByObjectVersion
1070
     0
1000
AcDbSavedByObjectVersion
1070
     0
  0
VISUALSTYLE
  5
CED94
102
{ACAD_REACTORS
330
CED87
102
}
330
CED87
100
AcDbVisualStyle
  2
Thicken
 70
    13
 71
     2
 72
     2
 73
     0
 90
        0
 40
-0.6
 41
-30.0
 62
     5
 63
     7
 74
     1
 91
        4
 64
     7
 65
   257
 75
     1
175
     1
 42
1.0
 92
       12
 66
     7
 43
1.0
 76
     1
 77
     6
 78
     2
 67
     7
 79
     5
170
     0
171
     0
290
     0
174
     0
 93
        1
 44
0.0
173
     0
291
     1
 45
0.0
1001
ACAD
1000
AcDbSavedByObjectVersion
1070
     0
1000
AcDbSavedByObjectVersion
1070
     0
  0
DICTIONARYVAR
  5
D0C4F
102
{ACAD_REACTORS
330
59
102
}
330
59
100
DictionaryVariables
280
     0
  1
1:1
  0
DICTIONARYVAR
  5
D0C4D
102
{ACAD_REACTORS
330
59
102
}
330
59
100
DictionaryVariables
280
     0
  1
STANDARD
  0
DICTIONARYVAR
  5
100D
102
{ACAD_REACTORS
330
59
102
}
330
59
100
DictionaryVariables
280
     0
  1
STANDARD
  0
DICTIONARYVAR
  5
5A
102
{ACAD_REACTORS
330
59
102
}
330
59
100
DictionaryVariables
280
     0
  1
2
  0
DICTIONARYVAR
  5
5E
102
{ACAD_REACTORS
330
59
102
}
330
59
100
DictionaryVariables
280
     0
  1
1
  0
DICTIONARYVAR
  5
D5A99
102
{ACAD_REACTORS
330
59
102
}
330
59
100
DictionaryVariables
280
     0
  1
0
  0
DICTIONARYVAR
  5
D0C50
102
{ACAD_REACTORS
330
59
102
}
330
59
100
DictionaryVariables
280
     0
  1
0
  0
DICTIONARYVAR
  5
D0C4E
102
{ACAD_REACTORS
330
59
102
}
330
59
100
DictionaryVariables
280
     0
  1
0
  0
DICTIONARYVAR
  5
D5A98
102
{ACAD_REACTORS
330
59
102
}
330
59
100
DictionaryVariables
280
     0
  1
127
  0
XRECORD
  5
C2669
102
{ACAD_REACTORS
330
C2668
102
}
330
C2668
100
AcDbXrecord
280
     1
330
0
330
0
330
0
330
0
330
0
330
0
330
0
330
0
330
0
330
0
330
0
330
0
330
0
330
0
330
0
330
0
330
0
330
0
330
0
330
0
330
0
330
0
330
0
330
0
330
0
330
0
330
0
330
0
330
0
330
0
330
0
330
0
330
0
  0
VLO-VL
  5
A9D17
102
{ACAD_REACTORS
330
A9D16
102
}
330
A9D16
100
vlo_VL
 90
   -64512
 91
       12
 92
        1
 40
2.5
300
(&VLO-R . 0)
  0
DICTIONARY
  5
D5ACE
330
22
100
AcDbDictionary
280
     1
281
     1
  3
ACAD_XREC_ROUNDTRIP
360
D5ACF
  0
DICTIONARY
  5
D5AD0
330
74
100
AcDbDictionary
280
     1
281
     1
  3
ACAD_XREC_ROUNDTRIP
360
D5AD1
  0
DICTIONARY
  5
D5AD2
330
79
100
AcDbDictionary
280
     1
281
     1
  3
ACAD_XREC_ROUNDTRIP
360
D5AD3
  0
DICTIONARY
  5
CED78
330
CED77
100
AcDbDictionary
280
     1
281
     1
  3
ACAD_XREC_ROUNDTRIP
360
D5AB8
  3
BUMPTILE
360
CED7A
  3
DIFFUSETILE
360
CED79
  3
OPACITYTILE
360
CED7D
  3
REFLECTIONTILE
360
CED7C
  3
REFRACTIONTILE
360
CED7E
  3
SPECULARTILE
360
CED7B
  0
DICTIONARY
  5
CED70
330
CED6F
100
AcDbDictionary
280
     1
281
     1
  3
ACAD_XREC_ROUNDTRIP
360
D5AB7
  3
BUMPTILE
360
CED72
  3
DIFFUSETILE
360
CED71
  3
OPACITYTILE
360
CED75
  3
REFLECTIONTILE
360
CED74
  3
REFRACTIONTILE
360
CED76
  3
SPECULARTILE
360
CED73
  0
DICTIONARY
  5
CED80
330
CED7F
100
AcDbDictionary
280
     1
281
     1
  3
ACAD_XREC_ROUNDTRIP
360
D5AB9
  3
BUMPTILE
360
CED82
  3
DIFFUSETILE
360
CED81
  3
OPACITYTILE
360
CED85
  3
REFLECTIONTILE
360
CED84
  3
REFRACTIONTILE
360
CED86
  3
SPECULARTILE
360
CED83
  0
DICTIONARY
  5
D0C45
330
FB0
100
AcDbDictionary
280
     1
281
     1
  3
ACAD_ROUNDTRIP_2008_TABLESTYLE_CELLSTYLEMAP
360
D5AC8
  3
ACAD_XREC_ROUNDTRIP
360
D5AD4
  0
XRECORD
  5
D5ACF
102
{ACAD_REACTORS
330
D5ACE
102
}
330
D5ACE
100
AcDbXrecord
280
     1
102
SHADEPLOT
 70
     0
102
SHADEPLOTRESLEVEL
 70
     2
102
SHADEPLOTCUSTOMDPI
 70
   300
  0
XRECORD
  5
D5AD1
102
{ACAD_REACTORS
330
D5AD0
102
}
330
D5AD0
100
AcDbXrecord
280
     1
102
SHADEPLOT
 70
     0
102
SHADEPLOTRESLEVEL
 70
     2
102
SHADEPLOTCUSTOMDPI
 70
   300
  0
XRECORD
  5
D5AD3
102
{ACAD_REACTORS
330
D5AD2
102
}
330
D5AD2
100
AcDbXrecord
280
     1
102
SHADEPLOT
 70
     0
102
SHADEPLOTRESLEVEL
 70
     2
102
SHADEPLOTCUSTOMDPI
 70
   300
  0
XRECORD
  5
D5AB8
102
{ACAD_REACTORS
330
CED78
102
}
330
CED78
100
AcDbXrecord
280
     1
102
MATERIAL
148
0.0
149
0.0
149
0.0
 93
        0
 94
      127
282
     0
 72
     0
 77
     0
171
     0
175
     0
179
     0
273
     0
  0
XRECORD
  5
CED7A
102
{ACAD_REACTORS
330
CED78
102
}
330
CED78
100
AcDbXrecord
280
     1
270
     1
271
     1
  0
XRECORD
  5
CED79
102
{ACAD_REACTORS
330
CED78
102
}
330
CED78
100
AcDbXrecord
280
     1
270
     1
271
     1
  0
XRECORD
  5
CED7D
102
{ACAD_REACTORS
330
CED78
102
}
330
CED78
100
AcDbXrecord
280
     1
270
     1
271
     1
  0
XRECORD
  5
CED7C
102
{ACAD_REACTORS
330
CED78
102
}
330
CED78
100
AcDbXrecord
280
     1
270
     1
271
     1
  0
XRECORD
  5
CED7E
102
{ACAD_REACTORS
330
CED78
102
}
330
CED78
100
AcDbXrecord
280
     1
270
     1
271
     1
  0
XRECORD
  5
CED7B
102
{ACAD_REACTORS
330
CED78
102
}
330
CED78
100
AcDbXrecord
280
     1
270
     1
271
     1
  0
XRECORD
  5
D5AB7
102
{ACAD_REACTORS
330
CED70
102
}
330
CED70
100
AcDbXrecord
280
     1
102
MATERIAL
148
0.0
149
0.0
149
0.0
 93
        0
 94
      127
282
     0
 72
     0
 77
     0
171
     0
175
     0
179
     0
273
     0
  0
XRECORD
  5
CED72
102
{ACAD_REACTORS
330
CED70
102
}
330
CED70
100
AcDbXrecord
280
     1
270
     1
271
     1
  0
XRECORD
  5
CED71
102
{ACAD_REACTORS
330
CED70
102
}
330
CED70
100
AcDbXrecord
280
     1
270
     1
271
     1
  0
XRECORD
  5
CED75
102
{ACAD_REACTORS
330
CED70
102
}
330
CED70
100
AcDbXrecord
280
     1
270
     1
271
     1
  0
XRECORD
  5
CED74
102
{ACAD_REACTORS
330
CED70
102
}
330
CED70
100
AcDbXrecord
280
     1
270
     1
271
     1
  0
XRECORD
  5
CED76
102
{ACAD_REACTORS
330
CED70
102
}
330
CED70
100
AcDbXrecord
280
     1
270
     1
271
     1
  0
XRECORD
  5
CED73
102
{ACAD_REACTORS
330
CED70
102
}
330
CED70
100
AcDbXrecord
280
     1
270
     1
271
     1
  0
XRECORD
  5
D5AB9
102
{ACAD_REACTORS
330
CED80
102
}
330
CED80
100
AcDbXrecord
280
     1
102
MATERIAL
148
0.0
149
0.0
149
0.0
 93
        0
 94
      127
282
     0
 72
     0
 77
     0
171
     0
175
     0
179
     0
273
     0
  0
XRECORD
  5
CED82
102
{ACAD_REACTORS
330
CED80
102
}
330
CED80
100
AcDbXrecord
280
     1
270
     1
271
     1
  0
XRECORD
  5
CED81
102
{ACAD_REACTORS
330
CED80
102
}
330
CED80
100
AcDbXrecord
280
     1
270
     1
271
     1
  0
XRECORD
  5
CED85
102
{ACAD_REACTORS
330
CED80
102
}
330
CED80
100
AcDbXrecord
280
     1
270
     1
271
     1
  0
XRECORD
  5
CED84
102
{ACAD_REACTORS
330
CED80
102
}
330
CED80
100
AcDbXrecord
280
     1
270
     1
271
     1
  0
XRECORD
  5
CED86
102
{ACAD_REACTORS
330
CED80
102
}
330
CED80
100
AcDbXrecord
280
     1
270
     1
271
     1
  0
XRECORD
  5
CED83
102
{ACAD_REACTORS
330
CED80
102
}
330
CED80
100
AcDbXrecord
280
     1
270
     1
271
     1
  0
CELLSTYLEMAP
  5
D5AC8
102
{ACAD_REACTORS
330
D0C45
102
}
330
D0C45
100
AcDbCellStyleMap
 90
        3
300
CELLSTYLE
  1
TABLEFORMAT_BEGIN
 90
        5
170
     1
 91
        0
 92
    32768
 62
   257
 93
        1
300
CONTENTFORMAT
  1
CONTENTFORMAT_BEGIN
 90
        0
 91
        0
 92
        4
 93
        0
300

 40
0.0
140
1.0
 94
        5
 62
     0
340
11
144
0.25
309
CONTENTFORMAT_END
171
     1
301
MARGIN
  1
CELLMARGIN_BEGIN
 40
0.06
 40
0.06
 40
0.06
 40
0.06
 40
0.18
 40
0.18
309
CELLMARGIN_END
 94
        6
 95
        1
302
GRIDFORMAT
  1
GRIDFORMAT_BEGIN
 90
        0
 91
        1
 62
     0
 92
       -2
340
0
 93
        0
 40
0.045
309
GRIDFORMAT_END
 95
        2
302
GRIDFORMAT
  1
GRIDFORMAT_BEGIN
 90
        0
 91
        1
 62
     0
 92
       -2
340
0
 93
        0
 40
0.045
309
GRIDFORMAT_END
 95
        4
302
GRIDFORMAT
  1
GRIDFORMAT_BEGIN
 90
        0
 91
        1
 62
     0
 92
       -2
340
0
 93
        0
 40
0.045
309
GRIDFORMAT_END
 95
        8
302
GRIDFORMAT
  1
GRIDFORMAT_BEGIN
 90
        0
 91
        1
 62
     0
 92
       -2
340
0
 93
        0
 40
0.045
309
GRIDFORMAT_END
 95
       16
302
GRIDFORMAT
  1
GRIDFORMAT_BEGIN
 90
        0
 91
        1
 62
     0
 92
       -2
340
0
 93
        0
 40
0.045
309
GRIDFORMAT_END
 95
       32
302
GRIDFORMAT
  1
GRIDFORMAT_BEGIN
 90
        0
 91
        1
 62
     0
 92
       -2
340
0
 93
        0
 40
0.045
309
GRIDFORMAT_END
309
TABLEFORMAT_END
  1
CELLSTYLE_BEGIN
 90
        1
 91
        1
300
_TITLE
309
CELLSTYLE_END
300
CELLSTYLE
  1
TABLEFORMAT_BEGIN
 90
        5
170
     1
 91
        0
 92
        0
 62
   257
 93
        1
300
CONTENTFORMAT
  1
CONTENTFORMAT_BEGIN
 90
        0
 91
        0
 92
        4
 93
        0
300

 40
0.0
140
1.0
 94
        5
 62
     0
340
11
144
0.18
309
CONTENTFORMAT_END
171
     1
301
MARGIN
  1
CELLMARGIN_BEGIN
 40
0.06
 40
0.06
 40
0.06
 40
0.06
 40
0.18
 40
0.18
309
CELLMARGIN_END
 94
        6
 95
        1
302
GRIDFORMAT
  1
GRIDFORMAT_BEGIN
 90
        0
 91
        1
 62
     0
 92
       -2
340
0
 93
        0
 40
0.045
309
GRIDFORMAT_END
 95
        2
302
GRIDFORMAT
  1
GRIDFORMAT_BEGIN
 90
        0
 91
        1
 62
     0
 92
       -2
340
0
 93
        0
 40
0.045
309
GRIDFORMAT_END
 95
        4
302
GRIDFORMAT
  1
GRIDFORMAT_BEGIN
 90
        0
 91
        1
 62
     0
 92
       -2
340
0
 93
        0
 40
0.045
309
GRIDFORMAT_END
 95
        8
302
GRIDFORMAT
  1
GRIDFORMAT_BEGIN
 90
        0
 91
        1
 62
     0
 92
       -2
340
0
 93
        0
 40
0.045
309
GRIDFORMAT_END
 95
       16
302
GRIDFORMAT
  1
GRIDFORMAT_BEGIN
 90
        0
 91
        1
 62
     0
 92
       -2
340
0
 93
        0
 40
0.045
309
GRIDFORMAT_END
 95
       32
302
GRIDFORMAT
  1
GRIDFORMAT_BEGIN
 90
        0
 91
        1
 62
     0
 92
       -2
340
0
 93
        0
 40
0.045
309
GRIDFORMAT_END
309
TABLEFORMAT_END
  1
CELLSTYLE_BEGIN
 90
        2
 91
        1
300
_HEADER
309
CELLSTYLE_END
300
CELLSTYLE
  1
TABLEFORMAT_BEGIN
 90
        5
170
     1
 91
        0
 92
        0
 62
   257
 93
        1
300
CONTENTFORMAT
  1
CONTENTFORMAT_BEGIN
 90
        0
 91
        0
 92
        4
 93
        0
300

 40
0.0
140
1.0
 94
        2
 62
     0
340
11
144
0.18
309
CONTENTFORMAT_END
171
     1
301
MARGIN
  1
CELLMARGIN_BEGIN
 40
0.06
 40
0.06
 40
0.06
 40
0.06
 40
0.18
 40
0.18
309
CELLMARGIN_END
 94
        6
 95
        1
302
GRIDFORMAT
  1
GRIDFORMAT_BEGIN
 90
        0
 91
        1
 62
     0
 92
       -2
340
0
 93
        0
 40
0.045
309
GRIDFORMAT_END
 95
        2
302
GRIDFORMAT
  1
GRIDFORMAT_BEGIN
 90
        0
 91
        1
 62
     0
 92
       -2
340
0
 93
        0
 40
0.045
309
GRIDFORMAT_END
 95
        4
302
GRIDFORMAT
  1
GRIDFORMAT_BEGIN
 90
        0
 91
        1
 62
     0
 92
       -2
340
0
 93
        0
 40
0.045
309
GRIDFORMAT_END
 95
        8
302
GRIDFORMAT
  1
GRIDFORMAT_BEGIN
 90
        0
 91
        1
 62
     0
 92
       -2
340
0
 93
        0
 40
0.045
309
GRIDFORMAT_END
 95
       16
302
GRIDFORMAT
  1
GRIDFORMAT_BEGIN
 90
        0
 91
        1
 62
     0
 92
       -2
340
0
 93
        0
 40
0.045
309
GRIDFORMAT_END
 95
       32
302
GRIDFORMAT
  1
GRIDFORMAT_BEGIN
 90
        0
 91
        1
 62
     0
 92
       -2
340
0
 93
        0
 40
0.045
309
GRIDFORMAT_END
309
TABLEFORMAT_END
  1
CELLSTYLE_BEGIN
 90
        3
 91
        2
300
_DATA
309
CELLSTYLE_END
  0
XRECORD
  5
D5AD4
102
{ACAD_REACTORS
330
D0C45
102
}
330
D0C45
100
AcDbXrecord
280
     1
102
ACAD_ROUNDTRIP_PRE2007_TABLESTYLE
 90
        4
 91
        0
  1

 92
        4
 93
        0
  2

 94
        4
 95
        0
  3

  0
ENDSEC
  0
EOF
