  0
SECTION
  2
HEADER
  9
$ACADVER
  1
AC1015
  9
$ACADMAINTVER
 70
    20
  9
$DWGCODEPAGE
  3
ANSI_936
  9
$INSBASE
 10
0.0
 20
0.0
 30
0.0
  9
$EXTMIN
 10
104472.2758021282
 20
-169534.8555229207
 30
0.0
  9
$EXTMAX
 10
105957.2758021282
 20
-168416.1437537559
 30
0.0
  9
$LIMMIN
 10
0.0
 20
0.0
  9
$LIMMAX
 10
12.0
 20
9.0
  9
$ORTHOMODE
 70
     0
  9
$REGENMODE
 70
     1
  9
$FILLMODE
 70
     1
  9
$QTEXTMODE
 70
     0
  9
$MIRRTEXT
 70
     0
  9
$LTSCALE
 40
1.0
  9
$ATTMODE
 70
     1
  9
$TEXTSIZE
 40
0.2
  9
$TRACEWID
 40
0.05
  9
$TEXTSTYLE
  7
Standard
  9
$CLAYER
  8
标注
  9
$CELTYPE
  6
ByLayer
  9
$CECOLOR
 62
   256
  9
$CELTSCALE
 40
5.0
  9
$DISPSILH
 70
     0
  9
$DIMSCALE
 40
1.0
  9
$DIMASZ
 40
10.0
  9
$DIMEXO
 40
7.0
  9
$DIMDLI
 40
0.38
  9
$DIMRND
 40
0.0
  9
$DIMDLE
 40
0.0
  9
$DIMEXE
 40
7.0
  9
$DIMTP
 40
0.0
  9
$DIMTM
 40
0.0
  9
$DIMTXT
 40
12.0
  9
$DIMCEN
 40
2.5
  9
$DIMTSZ
 40
0.0
  9
$DIMTOL
 70
     0
  9
$DIMLIM
 70
     0
  9
$DIMTIH
 70
     0
  9
$DIMTOH
 70
     0
  9
$DIMSE1
 70
     0
  9
$DIMSE2
 70
     0
  9
$DIMTAD
 70
     0
  9
$DIMZIN
 70
     8
  9
$DIMBLK
  1

  9
$DIMASO
 70
     1
  9
$DIMSHO
 70
     1
  9
$DIMPOST
  1

  9
$DIMAPOST
  1
"
  9
$DIMALT
 70
     0
  9
$DIMALTD
 70
     3
  9
$DIMALTF
 40
0.03937
  9
$DIMLFAC
 40
1.0
  9
$DIMTOFL
 70
     1
  9
$DIMTVP
 40
0.0
  9
$DIMTIX
 70
     0
  9
$DIMSOXD
 70
     0
  9
$DIMSAH
 70
     0
  9
$DIMBLK1
  1

  9
$DIMBLK2
  1

  9
$DIMSTYLE
  2
副本Standard
  9
$DIMCLRD
 70
   256
  9
$DIMCLRE
 70
   256
  9
$DIMCLRT
 70
   256
  9
$DIMTFAC
 40
1.0
  9
$DIMGAP
 40
0.5
  9
$DIMJUST
 70
     0
  9
$DIMSD1
 70
     0
  9
$DIMSD2
 70
     0
  9
$DIMTOLJ
 70
     1
  9
$DIMTZIN
 70
     0
  9
$DIMALTZ
 70
     0
  9
$DIMALTTZ
 70
     0
  9
$DIMUPT
 70
     0
  9
$DIMDEC
 70
     1
  9
$DIMTDEC
 70
     1
  9
$DIMALTU
 70
     7
  9
$DIMALTTD
 70
     3
  9
$DIMTXSTY
  7
Standard
  9
$DIMAUNIT
 70
     0
  9
$DIMADEC
 70
     0
  9
$DIMALTRND
 40
0.0
  9
$DIMAZIN
 70
     2
  9
$DIMDSEP
 70
    44
  9
$DIMATFIT
 70
     3
  9
$DIMFRAC
 70
     0
  9
$DIMLDRBLK
  1

  9
$DIMLUNIT
 70
     2
  9
$DIMLWD
 70
    -2
  9
$DIMLWE
 70
    -2
  9
$DIMTMOVE
 70
     0
  9
$LUNITS
 70
     2
  9
$LUPREC
 70
     4
  9
$SKETCHINC
 40
0.1
  9
$FILLETRAD
 40
30.0
  9
$AUNITS
 70
     0
  9
$AUPREC
 70
     0
  9
$MENU
  1
.
  9
$ELEVATION
 40
0.0
  9
$PELEVATION
 40
0.0
  9
$THICKNESS
 40
0.0
  9
$LIMCHECK
 70
     0
  9
$CHAMFERA
 40
26.6
  9
$CHAMFERB
 40
26.6
  9
$CHAMFERC
 40
0.0
  9
$CHAMFERD
 40
0.0
  9
$SKPOLY
 70
     0
  9
$TDCREATE
 40
2454355.343801713
  9
$TDUCREATE
 40
2454355.010468380
  9
$TDUPDATE
 40
2457938.594500451
  9
$TDUUPDATE
 40
2457938.261167118
  9
$TDINDWG
 40
8.9769209375
  9
$TDUSRTIMER
 40
8.9769208449
  9
$USRTIMER
 70
     1
  9
$ANGBASE
 50
0.0
  9
$ANGDIR
 70
     0
  9
$PDMODE
 70
     0
  9
$PDSIZE
 40
0.0
  9
$PLINEWID
 40
0.0
  9
$SPLFRAME
 70
     0
  9
$SPLINETYPE
 70
     6
  9
$SPLINESEGS
 70
     8
  9
$HANDSEED
  5
D6809
  9
$SURFTAB1
 70
     6
  9
$SURFTAB2
 70
     6
  9
$SURFTYPE
 70
     6
  9
$SURFU
 70
     6
  9
$SURFV
 70
     6
  9
$UCSBASE
  2

  9
$UCSNAME
  2

  9
$UCSORG
 10
0.0
 20
0.0
 30
0.0
  9
$UCSXDIR
 10
1.0
 20
0.0
 30
0.0
  9
$UCSYDIR
 10
0.0
 20
1.0
 30
0.0
  9
$UCSORTHOREF
  2

  9
$UCSORTHOVIEW
 70
     0
  9
$UCSORGTOP
 10
0.0
 20
0.0
 30
0.0
  9
$UCSORGBOTTOM
 10
0.0
 20
0.0
 30
0.0
  9
$UCSORGLEFT
 10
0.0
 20
0.0
 30
0.0
  9
$UCSORGRIGHT
 10
0.0
 20
0.0
 30
0.0
  9
$UCSORGFRONT
 10
0.0
 20
0.0
 30
0.0
  9
$UCSORGBACK
 10
0.0
 20
0.0
 30
0.0
  9
$PUCSBASE
  2

  9
$PUCSNAME
  2

  9
$PUCSORG
 10
0.0
 20
0.0
 30
0.0
  9
$PUCSXDIR
 10
1.0
 20
0.0
 30
0.0
  9
$PUCSYDIR
 10
0.0
 20
1.0
 30
0.0
  9
$PUCSORTHOREF
  2

  9
$PUCSORTHOVIEW
 70
     0
  9
$PUCSORGTOP
 10
0.0
 20
0.0
 30
0.0
  9
$PUCSORGBOTTOM
 10
0.0
 20
0.0
 30
0.0
  9
$PUCSORGLEFT
 10
0.0
 20
0.0
 30
0.0
  9
$PUCSORGRIGHT
 10
0.0
 20
0.0
 30
0.0
  9
$PUCSORGFRONT
 10
0.0
 20
0.0
 30
0.0
  9
$PUCSORGBACK
 10
0.0
 20
0.0
 30
0.0
  9
$USERI1
 70
     0
  9
$USERI2
 70
     0
  9
$USERI3
 70
     0
  9
$USERI4
 70
     0
  9
$USERI5
 70
     0
  9
$USERR1
 40
0.0
  9
$USERR2
 40
0.0
  9
$USERR3
 40
0.0
  9
$USERR4
 40
0.0
  9
$USERR5
 40
2.5
  9
$WORLDVIEW
 70
     1
  9
$SHADEDGE
 70
     3
  9
$SHADEDIF
 70
    70
  9
$TILEMODE
 70
     1
  9
$MAXACTVP
 70
    64
  9
$PINSBASE
 10
0.0
 20
0.0
 30
0.0
  9
$PLIMCHECK
 70
     0
  9
$PEXTMIN
 10
0.0
 20
0.0
 30
0.0
  9
$PEXTMAX
 10
0.0
 20
0.0
 30
0.0
  9
$PLIMMIN
 10
0.0
 20
0.0
  9
$PLIMMAX
 10
12.0
 20
9.0
  9
$UNITMODE
 70
     0
  9
$VISRETAIN
 70
     1
  9
$PLINEGEN
 70
     0
  9
$PSLTSCALE
 70
     1
  9
$TREEDEPTH
 70
  3020
  9
$CMLSTYLE
  2
Standard
  9
$CMLJUST
 70
     0
  9
$CMLSCALE
 40
1.0
  9
$PROXYGRAPHICS
 70
     1
  9
$MEASUREMENT
 70
     0
  9
$CELWEIGHT
370
    -1
  9
$ENDCAPS
280
     0
  9
$JOINSTYLE
280
     0
  9
$LWDISPLAY
290
     0
  9
$INSUNITS
 70
     4
  9
$HYPERLINKBASE
  1

  9
$STYLESHEET
  1
MONOCHROME.CTB
  9
$XEDIT
290
     1
  9
$CEPSNTYPE
380
     0
  9
$PSTYLEMODE
290
     1
  9
$FINGERPRINTGUID
  2
{35BD88C0-9548-11D2-9A29-0060089B3A3F}
  9
$VERSIONGUID
  2
{1B5D1574-E810-46FB-863B-66B1C48C1890}
  9
$EXTNAMES
290
     1
  9
$PSVPSCALE
 40
0.0
  9
$OLESTARTUP
290
     0
  0
ENDSEC
  0
SECTION
  2
CLASSES
  0
CLASS
  1
ACDBDICTIONARYWDFLT
  2
AcDbDictionaryWithDefault
  3
ObjectDBX Classes
 90
        0
280
     0
281
     0
  0
CLASS
  1
ACDBPLACEHOLDER
  2
AcDbPlaceHolder
  3
ObjectDBX Classes
 90
        0
280
     0
281
     0
  0
CLASS
  1
LAYOUT
  2
AcDbLayout
  3
ObjectDBX Classes
 90
        0
280
     0
281
     0
  0
CLASS
  1
DICTIONARYVAR
  2
AcDbDictionaryVar
  3
ObjectDBX Classes
 90
        0
280
     0
281
     0
  0
CLASS
  1
SORTENTSTABLE
  2
AcDbSortentsTable
  3
ObjectDBX Classes
 90
        0
280
     0
281
     0
  0
CLASS
  1
DIMASSOC
  2
AcDbDimAssoc
  3
"AcDbDimAssoc|Product Desc:     AcDim ARX App For Dimension|Company:          Autodesk, Inc.|WEB Address:      www.autodesk.com"
 90
        0
280
     0
281
     0
  0
CLASS
  1
TABLESTYLE
  2
AcDbTableStyle
  3
ObjectDBX Classes
 90
     4095
280
     0
281
     0
  0
CLASS
  1
VLO-VL
  2
vlo_VL
  3
VL|AutoLISP based application
 90
      129
280
     0
281
     0
  0
CLASS
  1
MATERIAL
  2
AcDbMaterial
  3
ObjectDBX Classes
 90
     1153
280
     0
281
     0
  0
CLASS
  1
VISUALSTYLE
  2
AcDbVisualStyle
  3
ObjectDBX Classes
 90
     4095
280
     0
281
     0
  0
CLASS
  1
SCALE
  2
AcDbScale
  3
ObjectDBX Classes
 90
     1153
280
     0
281
     0
  0
CLASS
  1
MLEADERSTYLE
  2
AcDbMLeaderStyle
  3
ACDB_MLEADERSTYLE_CLASS
 90
     4095
280
     0
281
     0
  0
CLASS
  1
CELLSTYLEMAP
  2
AcDbCellStyleMap
  3
ObjectDBX Classes
 90
     1152
280
     0
281
     0
  0
ENDSEC
  0
SECTION
  2
TABLES
  0
TABLE
  2
VPORT
  5
8
330
0
100
AcDbSymbolTable
 70
     1
  0
VPORT
  5
CED6D
330
8
100
AcDbSymbolTableRecord
100
AcDbViewportTableRecord
  2
*Active
 70
     0
 10
0.0
 20
0.0
 11
1.0
 21
1.0
 12
105215.9601313304
 22
-168967.2051684273
 13
0.0
 23
0.0
 14
0.5
 24
0.5
 15
0.5
 25
0.5
 16
0.0
 26
0.0
 36
1.0
 17
0.0
 27
0.0
 37
0.0
 40
1157.207341032737
 41
2.241676942046855
 42
50.0
 43
0.0
 44
0.0
 50
0.0
 51
0.0
 71
     0
 72
  1000
 73
     1
 74
     3
 75
     0
 76
     0
 77
     0
 78
     0
281
     0
 65
     1
110
0.0
120
0.0
130
0.0
111
1.0
121
0.0
131
0.0
112
0.0
122
1.0
132
0.0
 79
     0
146
0.0
  0
ENDTAB
  0
TABLE
  2
LTYPE
  5
5
330
0
100
AcDbSymbolTable
 70
     3
  0
LTYPE
  5
14
330
5
100
AcDbSymbolTableRecord
100
AcDbLinetypeTableRecord
  2
ByBlock
 70
     0
  3

 72
    65
 73
     0
 40
0.0
  0
LTYPE
  5
15
330
5
100
AcDbSymbolTableRecord
100
AcDbLinetypeTableRecord
  2
ByLayer
 70
     0
  3

 72
    65
 73
     0
 40
0.0
  0
LTYPE
  5
16
330
5
100
AcDbSymbolTableRecord
100
AcDbLinetypeTableRecord
  2
Continuous
 70
     0
  3
Solid line
 72
    65
 73
     0
 40
0.0
  0
LTYPE
  5
98
330
5
100
AcDbSymbolTableRecord
100
AcDbLinetypeTableRecord
  2
HIDDEN2
 70
     0
  3
Hidden (.5x) _ _ _ _ _ _ _ _ _ _ _ _ _ _ _ _ _
 72
    65
 73
     2
 40
4.762499999999998
 49
3.174999999999998
 74
     0
 49
-1.587499999999999
 74
     0
  0
LTYPE
  5
D5C97
330
5
100
AcDbSymbolTableRecord
100
AcDbLinetypeTableRecord
  2
CENTER
 70
     0
  3
Center ____ _ ____ _ ____ _ ____ _ ____ _ ____
 72
    65
 73
     4
 40
50.8
 49
31.75
 74
     0
 49
-6.349999999999998
 74
     0
 49
6.349999999999998
 74
     0
 49
-6.349999999999998
 74
     0
  0
ENDTAB
  0
TABLE
  2
LAYER
  5
2
102
{ACAD_XDICTIONARY
360
AB
102
}
330
0
100
AcDbSymbolTable
 70
     5
  0
LAYER
  5
10
102
{ACAD_XDICTIONARY
360
CF251
102
}
330
2
100
AcDbSymbolTableRecord
100
AcDbLayerTableRecord
  2
0
 70
     0
 62
     7
  6
Continuous
370
    18
390
F
  0
LAYER
  5
9D
102
{ACAD_XDICTIONARY
360
CF259
102
}
330
2
100
AcDbSymbolTableRecord
100
AcDbLayerTableRecord
  2
虚线
 70
     0
 62
     4
  6
HIDDEN2
370
     9
390
F
  0
LAYER
  5
9E
102
{ACAD_XDICTIONARY
360
CF25B
102
}
330
2
100
AcDbSymbolTableRecord
100
AcDbLayerTableRecord
  2
细实线
 70
     0
 62
     7
  6
Continuous
370
     9
390
F
  0
LAYER
  5
582
330
2
100
AcDbSymbolTableRecord
100
AcDbLayerTableRecord
  2
Defpoints
 70
     0
 62
     7
  6
Continuous
290
     0
370
     9
390
F
  0
LAYER
  5
16DF9
102
{ACAD_XDICTIONARY
360
CF25D
102
}
330
2
100
AcDbSymbolTableRecord
100
AcDbLayerTableRecord
  2
标注
 70
     0
 62
    80
  6
Continuous
370
     5
390
F
1001
AcAecLayerStandard
1000

1000

  0
ENDTAB
  0
TABLE
  2
STYLE
  5
3
330
0
100
AcDbSymbolTable
 70
     2
  0
STYLE
  5
11
330
3
100
AcDbSymbolTableRecord
100
AcDbTextStyleTableRecord
  2
Standard
 70
     0
 40
0.0
 41
1.0
 50
0.0
 71
     0
 42
0.2
  3
SimSun.ttf
  4

1001
ACAD
1000
SimSun
1071
    34306
  0
STYLE
  5
9D6ED
330
3
100
AcDbSymbolTableRecord
100
AcDbTextStyleTableRecord
  2
A301
 70
     0
 40
3.5
 41
0.75
 50
0.0
 71
     0
 42
0.0
  3
SimSun.ttf
  4

1001
ACAD
1000
SimSun
1071
    34306
  0
ENDTAB
  0
TABLE
  2
VIEW
  5
6
330
0
100
AcDbSymbolTable
 70
     0
  0
ENDTAB
  0
TABLE
  2
UCS
  5
7
330
0
100
AcDbSymbolTable
 70
     0
  0
ENDTAB
  0
TABLE
  2
APPID
  5
9
330
0
100
AcDbSymbolTable
 70
    18
  0
APPID
  5
12
330
9
100
AcDbSymbolTableRecord
100
AcDbRegAppTableRecord
  2
ACAD
 70
     0
  0
APPID
  5
A5
330
9
100
AcDbSymbolTableRecord
100
AcDbRegAppTableRecord
  2
AcAecLayerStandard
 70
     0
  0
APPID
  5
A6
330
9
100
AcDbSymbolTableRecord
100
AcDbRegAppTableRecord
  2
ACAD_DSTYLE_DIMEXT_LENGTH
 70
     0
  0
APPID
  5
A7
330
9
100
AcDbSymbolTableRecord
100
AcDbRegAppTableRecord
  2
ACAD_DSTYLE_DIMEXT_ENABLED
 70
     0
  0
APPID
  5
A8
330
9
100
AcDbSymbolTableRecord
100
AcDbRegAppTableRecord
  2
ACAD_DSTYLE_DIMJOGGED_JOGANGLE_SYMBOL
 70
     0
  0
APPID
  5
A9
330
9
100
AcDbSymbolTableRecord
100
AcDbRegAppTableRecord
  2
ACAD_DSTYLE_DIMARC_LENGTH_SYMBOL
 70
     0
  0
APPID
  5
AA
330
9
100
AcDbSymbolTableRecord
100
AcDbRegAppTableRecord
  2
ACAD_PSEXT
 70
     0
  0
APPID
  5
173
330
9
100
AcDbSymbolTableRecord
100
AcDbRegAppTableRecord
  2
DCO15
 70
     0
  0
APPID
  5
11D5
330
9
100
AcDbSymbolTableRecord
100
AcDbRegAppTableRecord
  2
ACAD_EXEMPT_FROM_CAD_STANDARDS
 70
     0
  0
APPID
  5
B456
330
9
100
AcDbSymbolTableRecord
100
AcDbRegAppTableRecord
  2
ACAD_DSTYLE_DIMTEXT_FILL
 70
     0
  0
APPID
  5
B459
330
9
100
AcDbSymbolTableRecord
100
AcDbRegAppTableRecord
  2
ACAD_DSTYLE_DIM_LINETYPE
 70
     0
  0
APPID
  5
B45A
330
9
100
AcDbSymbolTableRecord
100
AcDbRegAppTableRecord
  2
ACAD_DSTYLE_DIM_EXT1_LINETYPE
 70
     0
  0
APPID
  5
B45B
330
9
100
AcDbSymbolTableRecord
100
AcDbRegAppTableRecord
  2
ACAD_DSTYLE_DIM_EXT2_LINETYPE
 70
     0
  0
APPID
  5
CEDBC
330
9
100
AcDbSymbolTableRecord
100
AcDbRegAppTableRecord
  2
ACAD_MLEADERVER
 70
     0
  0
APPID
  5
CF35C
330
9
100
AcDbSymbolTableRecord
100
AcDbRegAppTableRecord
  2
ACAD_DSTYLE_DIMRADIAL_EXTENSION
 70
     0
  0
APPID
  5
CF43A
330
9
100
AcDbSymbolTableRecord
100
AcDbRegAppTableRecord
  2
ACAD_DSTYLE_DIMJAG
 70
     0
  0
APPID
  5
CF43B
330
9
100
AcDbSymbolTableRecord
100
AcDbRegAppTableRecord
  2
ACAD_DSTYLE_DIMTALN
 70
     0
  0
APPID
  5
D5B2B
330
9
100
AcDbSymbolTableRecord
100
AcDbRegAppTableRecord
  2
ACAD_DSTYLE_DIMBREAK
 70
     0
  0
ENDTAB
  0
TABLE
  2
DIMSTYLE
  5
A
330
0
100
AcDbSymbolTable
 70
     3
100
AcDbDimStyleTable
 71
     2
340
3BDB5
340
27
  0
DIMSTYLE
105
27
330
A
100
AcDbSymbolTableRecord
100
AcDbDimStyleTableRecord
  2
Standard
 70
     0
 41
20.0
 42
25.0
 44
8.0
 73
     0
 74
     0
 78
     8
 79
     2
140
20.0
147
5.0
172
     1
176
     3
177
     3
178
     3
179
     1
271
     1
272
     1
278
    44
340
11
1001
ACAD_DSTYLE_DIMJOGGED_JOGANGLE_SYMBOL
1070
   384
1040
0.7853981633974483
1001
ACAD_DSTYLE_DIMEXT_LENGTH
1070
   378
1040
8.0
  0
DIMSTYLE
105
3BDB5
102
{ACAD_REACTORS
330
D614D
330
D6154
330
D6157
330
D6158
330
D615B
330
D615E
330
D615F
330
D6162
330
D6165
330
D6168
330
D6169
330
D616C
330
D616F
330
D6170
330
D6173
330
D6176
330
D6177
330
D617A
330
D617D
330
D6180
330
D6183
330
D6186
330
D6189
102
}
330
A
100
AcDbSymbolTableRecord
100
AcDbDimStyleTableRecord
  2
副本Standard
 70
     0
  4
"
 41
16.0
 42
7.0
 44
7.0
 73
     0
 74
     0
 78
     8
 79
     2
140
20.0
141
2.5
143
0.03937
147
1.0
171
     3
172
     1
176
   256
177
   256
178
   256
179
     1
271
     1
272
     1
273
     7
274
     3
278
    44
340
11
1001
ACAD_DSTYLE_DIMJAG
1070
   388
1040
1.5
1001
ACAD_DSTYLE_DIMTALN
1070
   392
1070
     0
  0
DIMSTYLE
105
D5B2A
330
A
100
AcDbSymbolTableRecord
100
AcDbDimStyleTableRecord
  2
副本Standard(2)
 70
     0
  3
mm
  4
"
 41
16.0
 42
22.0
 44
8.0
 73
     0
 74
     0
 78
     8
 79
     2
140
16.0
143
0.03937
147
5.0
170
     1
171
     3
172
     1
176
   256
177
   256
178
   256
179
     1
271
     1
272
     1
273
     7
274
     3
278
    44
340
11
1001
ACAD_DSTYLE_DIMBREAK
1070
   391
1040
0.125
1001
ACAD_DSTYLE_DIMJAG
1070
   388
1040
1.5
1001
ACAD_DSTYLE_DIMTALN
1070
   392
1070
     0
  0
ENDTAB
  0
TABLE
  2
BLOCK_RECORD
  5
1
330
0
100
AcDbSymbolTable
 70
    49
  0
BLOCK_RECORD
  5
1F
102
{ACAD_XDICTIONARY
360
118B
102
}
330
1
100
AcDbSymbolTableRecord
100
AcDbBlockTableRecord
  2
*Model_Space
340
22
  0
BLOCK_RECORD
  5
73
330
1
100
AcDbSymbolTableRecord
100
AcDbBlockTableRecord
  2
*Paper_Space
340
74
  0
BLOCK_RECORD
  5
78
330
1
100
AcDbSymbolTableRecord
100
AcDbBlockTableRecord
  2
*Paper_Space0
340
79
  0
BLOCK_RECORD
  5
D5CA2
330
1
100
AcDbSymbolTableRecord
100
AcDbBlockTableRecord
  2
*D1
340
0
  0
BLOCK_RECORD
  5
D5CBA
330
1
100
AcDbSymbolTableRecord
100
AcDbBlockTableRecord
  2
*D2
340
0
  0
BLOCK_RECORD
  5
D5CEE
330
1
100
AcDbSymbolTableRecord
100
AcDbBlockTableRecord
  2
*D3
340
0
  0
BLOCK_RECORD
  5
D5CFC
330
1
100
AcDbSymbolTableRecord
100
AcDbBlockTableRecord
  2
*D4
340
0
  0
BLOCK_RECORD
  5
D5D20
330
1
100
AcDbSymbolTableRecord
100
AcDbBlockTableRecord
  2
*D5
340
0
  0
BLOCK_RECORD
  5
D5D51
330
1
100
AcDbSymbolTableRecord
100
AcDbBlockTableRecord
  2
*D6
340
0
  0
BLOCK_RECORD
  5
D5D5F
330
1
100
AcDbSymbolTableRecord
100
AcDbBlockTableRecord
  2
*D7
340
0
  0
BLOCK_RECORD
  5
D5DC5
330
1
100
AcDbSymbolTableRecord
100
AcDbBlockTableRecord
  2
*D8
340
0
  0
BLOCK_RECORD
  5
D5DDF
330
1
100
AcDbSymbolTableRecord
100
AcDbBlockTableRecord
  2
*D9
340
0
  0
BLOCK_RECORD
  5
D5DF9
330
1
100
AcDbSymbolTableRecord
100
AcDbBlockTableRecord
  2
*D10
340
0
  0
BLOCK_RECORD
  5
D5E06
330
1
100
AcDbSymbolTableRecord
100
AcDbBlockTableRecord
  2
*D11
340
0
  0
BLOCK_RECORD
  5
D5E20
330
1
100
AcDbSymbolTableRecord
100
AcDbBlockTableRecord
  2
*D12
340
0
  0
BLOCK_RECORD
  5
D5E3A
330
1
100
AcDbSymbolTableRecord
100
AcDbBlockTableRecord
  2
*D13
340
0
  0
BLOCK_RECORD
  5
D5E47
330
1
100
AcDbSymbolTableRecord
100
AcDbBlockTableRecord
  2
*D14
340
0
  0
BLOCK_RECORD
  5
D5E61
330
1
100
AcDbSymbolTableRecord
100
AcDbBlockTableRecord
  2
*D15
340
0
  0
BLOCK_RECORD
  5
D5E7B
330
1
100
AcDbSymbolTableRecord
100
AcDbBlockTableRecord
  2
*D16
340
0
  0
BLOCK_RECORD
  5
D5E88
330
1
100
AcDbSymbolTableRecord
100
AcDbBlockTableRecord
  2
*D17
340
0
  0
BLOCK_RECORD
  5
D5E98
330
1
100
AcDbSymbolTableRecord
100
AcDbBlockTableRecord
  2
*D18
340
0
  0
BLOCK_RECORD
  5
D5EA8
330
1
100
AcDbSymbolTableRecord
100
AcDbBlockTableRecord
  2
*D19
340
0
  0
BLOCK_RECORD
  5
D5EB8
330
1
100
AcDbSymbolTableRecord
100
AcDbBlockTableRecord
  2
*D20
340
0
  0
BLOCK_RECORD
  5
D5EC8
330
1
100
AcDbSymbolTableRecord
100
AcDbBlockTableRecord
  2
*D21
340
0
  0
BLOCK_RECORD
  5
D5EDB
330
1
100
AcDbSymbolTableRecord
100
AcDbBlockTableRecord
  2
*D22
340
0
  0
BLOCK_RECORD
  5
D5EEB
330
1
100
AcDbSymbolTableRecord
100
AcDbBlockTableRecord
  2
*D23
340
0
  0
BLOCK_RECORD
  5
D5EFB
330
1
100
AcDbSymbolTableRecord
100
AcDbBlockTableRecord
  2
*D24
340
0
  0
BLOCK_RECORD
  5
D5F1D
330
1
100
AcDbSymbolTableRecord
100
AcDbBlockTableRecord
  2
*D25
340
0
  0
BLOCK_RECORD
  5
D618E
330
1
100
AcDbSymbolTableRecord
100
AcDbBlockTableRecord
  2
*D26
340
0
  0
BLOCK_RECORD
  5
D619B
330
1
100
AcDbSymbolTableRecord
100
AcDbBlockTableRecord
  2
*D27
340
0
  0
BLOCK_RECORD
  5
D61A8
330
1
100
AcDbSymbolTableRecord
100
AcDbBlockTableRecord
  2
*D28
340
0
  0
BLOCK_RECORD
  5
D61B4
330
1
100
AcDbSymbolTableRecord
100
AcDbBlockTableRecord
  2
*D29
340
0
  0
BLOCK_RECORD
  5
D61C0
330
1
100
AcDbSymbolTableRecord
100
AcDbBlockTableRecord
  2
*D30
340
0
  0
BLOCK_RECORD
  5
D61CC
330
1
100
AcDbSymbolTableRecord
100
AcDbBlockTableRecord
  2
*D31
340
0
  0
BLOCK_RECORD
  5
D61D7
330
1
100
AcDbSymbolTableRecord
100
AcDbBlockTableRecord
  2
*D32
340
0
  0
BLOCK_RECORD
  5
D61EF
330
1
100
AcDbSymbolTableRecord
100
AcDbBlockTableRecord
  2
*D33
340
0
  0
BLOCK_RECORD
  5
D61FC
330
1
100
AcDbSymbolTableRecord
100
AcDbBlockTableRecord
  2
*D34
340
0
  0
BLOCK_RECORD
  5
D6214
330
1
100
AcDbSymbolTableRecord
100
AcDbBlockTableRecord
  2
*D35
340
0
  0
BLOCK_RECORD
  5
D6221
330
1
100
AcDbSymbolTableRecord
100
AcDbBlockTableRecord
  2
*D36
340
0
  0
BLOCK_RECORD
  5
D622E
330
1
100
AcDbSymbolTableRecord
100
AcDbBlockTableRecord
  2
*D37
340
0
  0
BLOCK_RECORD
  5
D6244
330
1
100
AcDbSymbolTableRecord
100
AcDbBlockTableRecord
  2
*D38
340
0
  0
BLOCK_RECORD
  5
D6251
330
1
100
AcDbSymbolTableRecord
100
AcDbBlockTableRecord
  2
*D39
340
0
  0
BLOCK_RECORD
  5
D6267
330
1
100
AcDbSymbolTableRecord
100
AcDbBlockTableRecord
  2
*D40
340
0
  0
BLOCK_RECORD
  5
D6274
330
1
100
AcDbSymbolTableRecord
100
AcDbBlockTableRecord
  2
*D41
340
0
  0
BLOCK_RECORD
  5
D628A
330
1
100
AcDbSymbolTableRecord
100
AcDbBlockTableRecord
  2
*D42
340
0
  0
BLOCK_RECORD
  5
D6293
330
1
100
AcDbSymbolTableRecord
100
AcDbBlockTableRecord
  2
*D43
340
0
  0
BLOCK_RECORD
  5
D629C
330
1
100
AcDbSymbolTableRecord
100
AcDbBlockTableRecord
  2
*D44
340
0
  0
BLOCK_RECORD
  5
D62A5
330
1
100
AcDbSymbolTableRecord
100
AcDbBlockTableRecord
  2
*D45
340
0
  0
BLOCK_RECORD
  5
D62AE
330
1
100
AcDbSymbolTableRecord
100
AcDbBlockTableRecord
  2
*D46
340
0
  0
BLOCK_RECORD
  5
D62B7
330
1
100
AcDbSymbolTableRecord
100
AcDbBlockTableRecord
  2
*D47
340
0
  0
BLOCK_RECORD
  5
D62BF
330
1
100
AcDbSymbolTableRecord
100
AcDbBlockTableRecord
  2
*D48
340
0
  0
ENDTAB
  0
ENDSEC
  0
SECTION
  2
BLOCKS
  0
BLOCK
  5
20
330
1F
100
AcDbEntity
  8
0
100
AcDbBlockBegin
  2
*Model_Space
 70
     0
 10
0.0
 20
0.0
 30
0.0
  3
*Model_Space
  1

  0
ENDBLK
  5
21
330
1F
100
AcDbEntity
  8
0
100
AcDbBlockEnd
  0
BLOCK
  5
75
330
73
100
AcDbEntity
 67
     1
  8
0
100
AcDbBlockBegin
  2
*Paper_Space
 70
     0
 10
0.0
 20
0.0
 30
0.0
  3
*Paper_Space
  1

  0
ENDBLK
  5
76
330
73
100
AcDbEntity
 67
     1
  8
0
100
AcDbBlockEnd
  0
BLOCK
  5
7A
330
78
100
AcDbEntity
 67
     1
  8
0
100
AcDbBlockBegin
  2
*Paper_Space0
 70
     0
 10
0.0
 20
0.0
 30
0.0
  3
*Paper_Space0
  1

  0
ENDBLK
  5
7B
330
78
100
AcDbEntity
 67
     1
  8
0
100
AcDbBlockEnd
  0
BLOCK
  5
D5CA3
330
D5CA2
100
AcDbEntity
  8
0
 48
5.0
100
AcDbBlockBegin
  2
*D1
 70
     1
 10
0.0
 20
0.0
 30
0.0
  3
*D1
  1

  0
LINE
  5
D5DBA
330
D5CA2
100
AcDbEntity
  8
标注
 48
5.0
370
    -2
100
AcDbLine
 10
102915.082522136
 20
-168821.1817985333
 30
0.0
 11
102923.3458897444
 21
-168826.813561647
 31
0.0
  0
LINE
  5
D5DBB
330
D5CA2
100
AcDbEntity
  8
标注
 48
5.0
370
    -2
100
AcDbLine
 10
102944.830645526
 20
-168841.4561457428
 30
0.0
 11
102953.0940131343
 21
-168847.0879088566
 31
0.0
  0
MTEXT
  5
D5DBC
102
{ACAD_XDICTIONARY
360
D6805
102
}
330
D5CA2
100
AcDbEntity
  8
标注
 48
5.0
100
AcDbMText
 10
102898.1052078201
 20
-168809.6111874861
 30
0.0
 40
12.0
 41
0.0
 71
     5
 72
     1
  1
\A1;{\fGulim|b0|i0|c129|p34;5-\U+22056}
 11
0.8263367608332837
 21
-0.5631763113764256
 31
0.0
 73
     1
 44
1.0
1001
ACAD
1000
MTEXTBEGIN
1070
    73
1070
     1
1070
    44
1040
1.0
1070
    74
1070
     0
1000
MTEXTEND
  0
LINE
  5
D5DBD
330
D5CA2
100
AcDbEntity
  8
标注
 48
5.0
370
    -2
100
AcDbLine
 10
102936.5672779177
 20
-168835.8243826291
 30
0.0
 11
102931.6092573527
 21
-168832.4453247608
 31
0.0
  0
SOLID
  5
D5DBE
330
D5CA2
100
AcDbEntity
  8
标注
 48
5.0
100
AcDbTrace
 10
102945.7692727117
 20
-168840.078917808
 30
0.0
 11
102943.8920183404
 21
-168842.8333736775
 31
0.0
 12
102936.5672779177
 22
-168835.8243826291
 32
0.0
 13
102936.5672779177
 23
-168835.8243826291
 33
0.0
  0
SOLID
  5
D5DBF
330
D5CA2
100
AcDbEntity
  8
标注
 48
5.0
100
AcDbTrace
 10
102924.28451693
 20
-168825.4363337123
 30
0.0
 11
102922.4072625587
 21
-168828.1907895817
 31
0.0
 12
102931.6092573527
 22
-168832.4453247608
 32
0.0
 13
102931.6092573527
 23
-168832.4453247608
 33
0.0
  0
POINT
  5
D5DC0
330
D5CA2
100
AcDbEntity
  8
Defpoints
 62
     0
 48
5.0
100
AcDbPoint
 10
102931.6092573527
 20
-168832.4453247608
 30
0.0
  0
POINT
  5
D5DC1
330
D5CA2
100
AcDbEntity
  8
Defpoints
 62
     0
 48
5.0
100
AcDbPoint
 10
102936.5672779177
 20
-168835.8243826291
 30
0.0
  0
ENDBLK
  5
D5CA4
330
D5CA2
100
AcDbEntity
  8
0
 48
5.0
100
AcDbBlockEnd
  0
BLOCK
  5
D5CBB
330
D5CBA
100
AcDbEntity
  8
0
 48
5.0
100
AcDbBlockBegin
  2
*D2
 70
     1
 10
0.0
 20
0.0
 30
0.0
  3
*D2
  1

  0
LINE
  5
D5CE2
330
D5CBA
100
AcDbEntity
  8
标注
 48
5.0
370
    -2
100
AcDbLine
 10
102573.0882676252
 20
-168841.1348536949
 30
0.0
 11
102573.0882676252
 21
-168868.7760619445
 31
0.0
  0
LINE
  5
D5CE3
330
D5CBA
100
AcDbEntity
  8
标注
 48
5.0
370
    -2
100
AcDbLine
 10
102555.0882676352
 20
-168841.1348536949
 30
0.0
 11
102555.0882676352
 21
-168868.7760619445
 31
0.0
  0
LINE
  5
D5CE4
330
D5CBA
100
AcDbEntity
  8
标注
 48
5.0
370
    -2
100
AcDbLine
 10
102583.0882676252
 20
-168861.7760619445
 30
0.0
 11
102593.0882676252
 21
-168861.7760619445
 31
0.0
  0
LINE
  5
D5CE5
330
D5CBA
100
AcDbEntity
  8
标注
 48
5.0
370
    -2
100
AcDbLine
 10
102545.0882676352
 20
-168861.7760619445
 30
0.0
 11
102535.0882676352
 21
-168861.7760619445
 31
0.0
  0
LINE
  5
D5CE6
330
D5CBA
100
AcDbEntity
  8
标注
 48
5.0
370
    -2
100
AcDbLine
 10
102573.0882676252
 20
-168861.7760619445
 30
0.0
 11
102555.0882676352
 21
-168861.7760619445
 31
0.0
  0
SOLID
  5
D5CE7
330
D5CBA
100
AcDbEntity
  8
标注
 48
5.0
100
AcDbTrace
 10
102583.0882676252
 20
-168860.1093952778
 30
0.0
 11
102583.0882676252
 21
-168863.4427286112
 31
0.0
 12
102573.0882676252
 22
-168861.7760619445
 32
0.0
 13
102573.0882676252
 23
-168861.7760619445
 33
0.0
  0
SOLID
  5
D5CE8
330
D5CBA
100
AcDbEntity
  8
标注
 48
5.0
100
AcDbTrace
 10
102545.0882676352
 20
-168860.1093952778
 30
0.0
 11
102545.0882676352
 21
-168863.4427286112
 31
0.0
 12
102555.0882676352
 22
-168861.7760619445
 32
0.0
 13
102555.0882676352
 23
-168861.7760619445
 33
0.0
  0
MTEXT
  5
D5CE9
330
D5CBA
100
AcDbEntity
  8
标注
 48
5.0
100
AcDbMText
 10
102527.5216009685
 20
-168861.7760619445
 30
0.0
 40
12.0
 41
0.0
 71
     5
 72
     1
  1
\A1;18
 73
     1
 44
1.0
1001
ACAD
1000
MTEXTBEGIN
1070
    73
1070
     1
1070
    44
1040
1.0
1070
    74
1070
     0
1000
MTEXTEND
  0
POINT
  5
D5CEA
330
D5CBA
100
AcDbEntity
  8
Defpoints
 62
     0
 48
5.0
100
AcDbPoint
 10
102573.0882676252
 20
-168834.1348536949
 30
0.0
  0
POINT
  5
D5CEB
330
D5CBA
100
AcDbEntity
  8
Defpoints
 62
     0
 48
5.0
100
AcDbPoint
 10
102555.0882676352
 20
-168834.1348536949
 30
0.0
  0
POINT
  5
D5CEC
330
D5CBA
100
AcDbEntity
  8
Defpoints
 62
     0
 48
5.0
100
AcDbPoint
 10
102555.0882676352
 20
-168861.7760619445
 30
0.0
  0
ENDBLK
  5
D5CBC
330
D5CBA
100
AcDbEntity
  8
0
 48
5.0
100
AcDbBlockEnd
  0
BLOCK
  5
D5CEF
330
D5CEE
100
AcDbEntity
  8
0
 48
5.0
100
AcDbBlockBegin
  2
*D3
 70
     1
 10
0.0
 20
0.0
 30
0.0
  3
*D3
  1

  0
LINE
  5
D5CF1
330
D5CEE
100
AcDbEntity
  8
标注
 48
5.0
370
    -2
100
AcDbLine
 10
102573.0882676252
 20
-168841.1348536949
 30
0.0
 11
102573.0882676252
 21
-168868.7760619445
 31
0.0
  0
LINE
  5
D5CF2
330
D5CEE
100
AcDbEntity
  8
标注
 48
5.0
370
    -2
100
AcDbLine
 10
102934.0882676352
 20
-168841.134853695
 30
0.0
 11
102934.0882676352
 21
-168868.7760619445
 31
0.0
  0
LINE
  5
D5CF3
330
D5CEE
100
AcDbEntity
  8
标注
 48
5.0
370
    -2
100
AcDbLine
 10
102583.0882676252
 20
-168861.7760619445
 30
0.0
 11
102741.6549342969
 21
-168861.7760619445
 31
0.0
  0
LINE
  5
D5CF4
330
D5CEE
100
AcDbEntity
  8
标注
 48
5.0
370
    -2
100
AcDbLine
 10
102924.0882676352
 20
-168861.7760619445
 30
0.0
 11
102765.5216009635
 21
-168861.7760619445
 31
0.0
  0
SOLID
  5
D5CF5
330
D5CEE
100
AcDbEntity
  8
标注
 48
5.0
100
AcDbTrace
 10
102583.0882676252
 20
-168860.1093952778
 30
0.0
 11
102583.0882676252
 21
-168863.4427286112
 31
0.0
 12
102573.0882676252
 22
-168861.7760619445
 32
0.0
 13
102573.0882676252
 23
-168861.7760619445
 33
0.0
  0
SOLID
  5
D5CF6
330
D5CEE
100
AcDbEntity
  8
标注
 48
5.0
100
AcDbTrace
 10
102924.0882676352
 20
-168860.1093952778
 30
0.0
 11
102924.0882676352
 21
-168863.4427286112
 31
0.0
 12
102934.0882676352
 22
-168861.7760619445
 32
0.0
 13
102934.0882676352
 23
-168861.7760619445
 33
0.0
  0
MTEXT
  5
D5CF7
330
D5CEE
100
AcDbEntity
  8
标注
 48
5.0
100
AcDbMText
 10
102753.5882676302
 20
-168861.7760619445
 30
0.0
 40
12.0
 41
0.0
 71
     5
 72
     1
  1
\A1;361
 73
     1
 44
1.0
1001
ACAD
1000
MTEXTBEGIN
1070
    73
1070
     1
1070
    44
1040
1.0
1070
    74
1070
     0
1000
MTEXTEND
  0
POINT
  5
D5CF8
330
D5CEE
100
AcDbEntity
  8
Defpoints
 62
     0
 48
5.0
100
AcDbPoint
 10
102573.0882676252
 20
-168834.1348536949
 30
0.0
  0
POINT
  5
D5CF9
330
D5CEE
100
AcDbEntity
  8
Defpoints
 62
     0
 48
5.0
100
AcDbPoint
 10
102934.0882676352
 20
-168834.134853695
 30
0.0
  0
POINT
  5
D5CFA
330
D5CEE
100
AcDbEntity
  8
Defpoints
 62
     0
 48
5.0
100
AcDbPoint
 10
102934.0882676352
 20
-168861.7760619445
 30
0.0
  0
ENDBLK
  5
D5CF0
330
D5CEE
100
AcDbEntity
  8
0
 48
5.0
100
AcDbBlockEnd
  0
BLOCK
  5
D5CFD
330
D5CFC
100
AcDbEntity
  8
0
 48
5.0
100
AcDbBlockBegin
  2
*D4
 70
     1
 10
0.0
 20
0.0
 30
0.0
  3
*D4
  1

  0
LINE
  5
D5D15
330
D5CFC
100
AcDbEntity
  8
标注
 48
5.0
370
    -2
100
AcDbLine
 10
102573.0882676252
 20
-168841.1348536949
 30
0.0
 11
102573.0882676252
 21
-168902.7568043149
 31
0.0
  0
LINE
  5
D5D16
330
D5CFC
100
AcDbEntity
  8
标注
 48
5.0
370
    -2
100
AcDbLine
 10
103295.0882676453
 20
-168841.1348536949
 30
0.0
 11
103295.0882676453
 21
-168902.7568043149
 31
0.0
  0
LINE
  5
D5D17
330
D5CFC
100
AcDbEntity
  8
标注
 48
5.0
370
    -2
100
AcDbLine
 10
102583.0882676252
 20
-168895.7568043149
 30
0.0
 11
102740.2382676302
 21
-168895.7568043149
 31
0.0
  0
LINE
  5
D5D18
330
D5CFC
100
AcDbEntity
  8
标注
 48
5.0
370
    -2
100
AcDbLine
 10
103285.0882676453
 20
-168895.7568043149
 30
0.0
 11
102764.7049342969
 21
-168895.7568043149
 31
0.0
  0
SOLID
  5
D5D19
330
D5CFC
100
AcDbEntity
  8
标注
 48
5.0
100
AcDbTrace
 10
102583.0882676252
 20
-168894.0901376483
 30
0.0
 11
102583.0882676252
 21
-168897.4234709816
 31
0.0
 12
102573.0882676252
 22
-168895.7568043149
 32
0.0
 13
102573.0882676252
 23
-168895.7568043149
 33
0.0
  0
SOLID
  5
D5D1A
330
D5CFC
100
AcDbEntity
  8
标注
 48
5.0
100
AcDbTrace
 10
103285.0882676453
 20
-168894.0901376483
 30
0.0
 11
103285.0882676453
 21
-168897.4234709816
 31
0.0
 12
103295.0882676453
 22
-168895.7568043149
 32
0.0
 13
103295.0882676453
 23
-168895.7568043149
 33
0.0
  0
MTEXT
  5
D5D1B
330
D5CFC
100
AcDbEntity
  8
标注
 48
5.0
100
AcDbMText
 10
102752.4716009636
 20
-168895.7568043149
 30
0.0
 40
12.0
 41
0.0
 71
     5
 72
     1
  1
\A1;722
 73
     1
 44
1.0
1001
ACAD
1000
MTEXTBEGIN
1070
    73
1070
     1
1070
    44
1040
1.0
1070
    74
1070
     0
1000
MTEXTEND
  0
POINT
  5
D5D1C
330
D5CFC
100
AcDbEntity
  8
Defpoints
 62
     0
 48
5.0
100
AcDbPoint
 10
102573.0882676252
 20
-168834.1348536949
 30
0.0
  0
POINT
  5
D5D1D
330
D5CFC
100
AcDbEntity
  8
Defpoints
 62
     0
 48
5.0
100
AcDbPoint
 10
103295.0882676453
 20
-168834.1348536949
 30
0.0
  0
POINT
  5
D5D1E
330
D5CFC
100
AcDbEntity
  8
Defpoints
 62
     0
 48
5.0
100
AcDbPoint
 10
103295.0882676453
 20
-168895.7568043149
 30
0.0
  0
ENDBLK
  5
D5CFE
330
D5CFC
100
AcDbEntity
  8
0
 48
5.0
100
AcDbBlockEnd
  0
BLOCK
  5
D5D21
330
D5D20
100
AcDbEntity
  8
0
 48
5.0
100
AcDbBlockBegin
  2
*D5
 70
     1
 10
0.0
 20
0.0
 30
0.0
  3
*D5
  1

  0
LINE
  5
D5D45
330
D5D20
100
AcDbEntity
  8
标注
 48
5.0
370
    -2
100
AcDbLine
 10
102941.0882676352
 20
-169055.1347207265
 30
0.0
 11
102965.8907578534
 21
-169055.1347207265
 31
0.0
  0
LINE
  5
D5D46
330
D5D20
100
AcDbEntity
  8
标注
 48
5.0
370
    -2
100
AcDbLine
 10
102941.0882676352
 20
-169073.1347207165
 30
0.0
 11
102965.8907578534
 21
-169073.1347207165
 31
0.0
  0
LINE
  5
D5D47
330
D5D20
100
AcDbEntity
  8
标注
 48
5.0
370
    -2
100
AcDbLine
 10
102958.8907578534
 20
-169045.1347207265
 30
0.0
 11
102958.8907578534
 21
-169035.1347207264
 31
0.0
  0
LINE
  5
D5D48
330
D5D20
100
AcDbEntity
  8
标注
 48
5.0
370
    -2
100
AcDbLine
 10
102958.8907578534
 20
-169083.1347207165
 30
0.0
 11
102958.8907578534
 21
-169093.1347207165
 31
0.0
  0
LINE
  5
D5D49
330
D5D20
100
AcDbEntity
  8
标注
 48
5.0
370
    -2
100
AcDbLine
 10
102958.8907578534
 20
-169055.1347207265
 30
0.0
 11
102958.8907578534
 21
-169073.1347207165
 31
0.0
  0
SOLID
  5
D5D4A
330
D5D20
100
AcDbEntity
  8
标注
 48
5.0
100
AcDbTrace
 10
102957.2240911867
 20
-169045.1347207265
 30
0.0
 11
102960.5574245201
 21
-169045.1347207265
 31
0.0
 12
102958.8907578534
 22
-169055.1347207265
 32
0.0
 13
102958.8907578534
 23
-169055.1347207265
 33
0.0
  0
SOLID
  5
D5D4B
330
D5D20
100
AcDbEntity
  8
标注
 48
5.0
100
AcDbTrace
 10
102957.2240911867
 20
-169083.1347207165
 30
0.0
 11
102960.5574245201
 21
-169083.1347207165
 31
0.0
 12
102958.8907578534
 22
-169073.1347207165
 32
0.0
 13
102958.8907578534
 23
-169073.1347207165
 33
0.0
  0
MTEXT
  5
D5D4C
330
D5D20
100
AcDbEntity
  8
标注
 48
5.0
100
AcDbMText
 10
102958.8907578534
 20
-169100.7013873831
 30
0.0
 40
12.0
 41
0.0
 71
     5
 72
     1
  1
\A1;18
 11
0.0000000000000001
 21
1.0
 31
0.0
 73
     1
 44
1.0
1001
ACAD
1000
MTEXTBEGIN
1070
    73
1070
     1
1070
    44
1040
1.0
1070
    74
1070
     0
1000
MTEXTEND
  0
POINT
  5
D5D4D
330
D5D20
100
AcDbEntity
  8
Defpoints
 62
     0
 48
5.0
100
AcDbPoint
 10
102934.0882676352
 20
-169055.1347207265
 30
0.0
  0
POINT
  5
D5D4E
330
D5D20
100
AcDbEntity
  8
Defpoints
 62
     0
 48
5.0
100
AcDbPoint
 10
102934.0882676352
 20
-169073.1347207165
 30
0.0
  0
POINT
  5
D5D4F
330
D5D20
100
AcDbEntity
  8
Defpoints
 62
     0
 48
5.0
100
AcDbPoint
 10
102958.8907578534
 20
-169073.1347207165
 30
0.0
  0
ENDBLK
  5
D5D22
330
D5D20
100
AcDbEntity
  8
0
 48
5.0
100
AcDbBlockEnd
  0
BLOCK
  5
D5D52
330
D5D51
100
AcDbEntity
  8
0
 48
5.0
100
AcDbBlockBegin
  2
*D6
 70
     1
 10
0.0
 20
0.0
 30
0.0
  3
*D6
  1

  0
LINE
  5
D5D54
330
D5D51
100
AcDbEntity
  8
标注
 48
5.0
370
    -2
100
AcDbLine
 10
102941.0882676352
 20
-169055.1347207265
 30
0.0
 11
102965.8907578534
 21
-169055.1347207265
 31
0.0
  0
LINE
  5
D5D55
330
D5D51
100
AcDbEntity
  8
标注
 48
5.0
370
    -2
100
AcDbLine
 10
102941.0882676353
 20
-168834.1348536949
 30
0.0
 11
102965.8907578534
 21
-168834.1348536949
 31
0.0
  0
LINE
  5
D5D56
330
D5D51
100
AcDbEntity
  8
标注
 48
5.0
370
    -2
100
AcDbLine
 10
102958.8907578534
 20
-169045.1347207265
 30
0.0
 11
102958.8907578534
 21
-168956.6347872107
 31
0.0
  0
LINE
  5
D5D57
330
D5D51
100
AcDbEntity
  8
标注
 48
5.0
370
    -2
100
AcDbLine
 10
102958.8907578534
 20
-168844.1348536949
 30
0.0
 11
102958.8907578534
 21
-168932.6347872107
 31
0.0
  0
SOLID
  5
D5D58
330
D5D51
100
AcDbEntity
  8
标注
 48
5.0
100
AcDbTrace
 10
102957.2240911867
 20
-169045.1347207265
 30
0.0
 11
102960.5574245201
 21
-169045.1347207265
 31
0.0
 12
102958.8907578534
 22
-169055.1347207265
 32
0.0
 13
102958.8907578534
 23
-169055.1347207265
 33
0.0
  0
SOLID
  5
D5D59
330
D5D51
100
AcDbEntity
  8
标注
 48
5.0
100
AcDbTrace
 10
102957.2240911867
 20
-168844.1348536949
 30
0.0
 11
102960.5574245201
 21
-168844.1348536949
 31
0.0
 12
102958.8907578534
 22
-168834.1348536949
 32
0.0
 13
102958.8907578534
 23
-168834.1348536949
 33
0.0
  0
MTEXT
  5
D5D5A
330
D5D51
100
AcDbEntity
  8
标注
 48
5.0
100
AcDbMText
 10
102958.8907578534
 20
-168944.6347872107
 30
0.0
 40
12.0
 41
0.0
 71
     5
 72
     1
  1
\A1;221
 11
0.0000000000000001
 21
1.0
 31
0.0
 73
     1
 44
1.0
1001
ACAD
1000
MTEXTBEGIN
1070
    73
1070
     1
1070
    44
1040
1.0
1070
    74
1070
     0
1000
MTEXTEND
  0
POINT
  5
D5D5B
330
D5D51
100
AcDbEntity
  8
Defpoints
 62
     0
 48
5.0
100
AcDbPoint
 10
102934.0882676352
 20
-169055.1347207265
 30
0.0
  0
POINT
  5
D5D5C
330
D5D51
100
AcDbEntity
  8
Defpoints
 62
     0
 48
5.0
100
AcDbPoint
 10
102934.0882676353
 20
-168834.1348536949
 30
0.0
  0
POINT
  5
D5D5D
330
D5D51
100
AcDbEntity
  8
Defpoints
 62
     0
 48
5.0
100
AcDbPoint
 10
102958.8907578534
 20
-168834.1348536949
 30
0.0
  0
ENDBLK
  5
D5D53
330
D5D51
100
AcDbEntity
  8
0
 48
5.0
100
AcDbBlockEnd
  0
BLOCK
  5
D5D60
330
D5D5F
100
AcDbEntity
  8
0
 48
5.0
100
AcDbBlockBegin
  2
*D7
 70
     1
 10
0.0
 20
0.0
 30
0.0
  3
*D7
  1

  0
LINE
  5
D5DA0
330
D5D5F
100
AcDbEntity
  8
标注
 48
5.0
370
    -2
100
AcDbLine
 10
102941.0882676352
 20
-169055.1347207265
 30
0.0
 11
102988.8024193639
 21
-169055.1347207265
 31
0.0
  0
LINE
  5
D5DA1
330
D5D5F
100
AcDbEntity
  8
标注
 48
5.0
370
    -2
100
AcDbLine
 10
102941.0882676352
 20
-168643.2792141585
 30
0.0
 11
102988.8024193639
 21
-168643.2792141585
 31
0.0
  0
LINE
  5
D5DA2
330
D5D5F
100
AcDbEntity
  8
标注
 48
5.0
370
    -2
100
AcDbLine
 10
102981.8024193639
 20
-169045.1347207265
 30
0.0
 11
102981.8024193639
 21
-168958.5740540459
 31
0.0
  0
LINE
  5
D5DA3
330
D5D5F
100
AcDbEntity
  8
标注
 48
5.0
370
    -2
100
AcDbLine
 10
102981.8024193639
 20
-168653.2792141585
 30
0.0
 11
102981.8024193639
 21
-168916.4407207126
 31
0.0
  0
SOLID
  5
D5DA4
330
D5D5F
100
AcDbEntity
  8
标注
 48
5.0
100
AcDbTrace
 10
102980.1357526973
 20
-169045.1347207265
 30
0.0
 11
102983.4690860306
 21
-169045.1347207265
 31
0.0
 12
102981.8024193639
 22
-169055.1347207265
 32
0.0
 13
102981.8024193639
 23
-169055.1347207265
 33
0.0
  0
SOLID
  5
D5DA5
330
D5D5F
100
AcDbEntity
  8
标注
 48
5.0
100
AcDbTrace
 10
102980.1357526973
 20
-168653.2792141585
 30
0.0
 11
102983.4690860306
 21
-168653.2792141585
 31
0.0
 12
102981.8024193639
 22
-168643.2792141585
 32
0.0
 13
102981.8024193639
 23
-168643.2792141585
 33
0.0
  0
MTEXT
  5
D5DA6
330
D5D5F
100
AcDbEntity
  8
标注
 48
5.0
100
AcDbMText
 10
102981.802419364
 20
-168937.5073873792
 30
0.0
 40
12.0
 41
0.0
 71
     5
 72
     1
  1
\A1;411,9
 11
0.0000000000000001
 21
1.0
 31
0.0
 73
     1
 44
1.0
1001
ACAD
1000
MTEXTBEGIN
1070
    73
1070
     1
1070
    44
1040
1.0
1070
    74
1070
     0
1000
MTEXTEND
  0
POINT
  5
D5DA7
330
D5D5F
100
AcDbEntity
  8
Defpoints
 62
     0
 48
5.0
100
AcDbPoint
 10
102934.0882676352
 20
-169055.1347207265
 30
0.0
  0
POINT
  5
D5DA8
330
D5D5F
100
AcDbEntity
  8
Defpoints
 62
     0
 48
5.0
100
AcDbPoint
 10
102934.0882676352
 20
-168643.2792141585
 30
0.0
  0
POINT
  5
D5DA9
330
D5D5F
100
AcDbEntity
  8
Defpoints
 62
     0
 48
5.0
100
AcDbPoint
 10
102981.8024193639
 20
-168643.2792141585
 30
0.0
  0
ENDBLK
  5
D5D61
330
D5D5F
100
AcDbEntity
  8
0
 48
5.0
100
AcDbBlockEnd
  0
BLOCK
  5
D5DC6
330
D5DC5
100
AcDbEntity
  8
0
 48
5.0
100
AcDbBlockBegin
  2
*D8
 70
     1
 10
0.0
 20
0.0
 30
0.0
  3
*D8
  1

  0
LINE
  5
D5DD3
330
D5DC5
100
AcDbEntity
  8
标注
 48
5.0
370
    -2
100
AcDbLine
 10
102559.0882676352
 20
-168976.1347207165
 30
0.0
 11
102559.0882676352
 21
-169129.9579506566
 31
0.0
  0
LINE
  5
D5DD4
330
D5DC5
100
AcDbEntity
  8
标注
 48
5.0
370
    -2
100
AcDbLine
 10
103309.0882676352
 20
-168870.1347207165
 30
0.0
 11
103309.0882676352
 21
-169129.9579506566
 31
0.0
  0
LINE
  5
D5DD5
330
D5DC5
100
AcDbEntity
  8
标注
 48
5.0
370
    -2
100
AcDbLine
 10
102569.0882676352
 20
-169122.9579506566
 30
0.0
 11
102921.7549343019
 21
-169122.9579506566
 31
0.0
  0
LINE
  5
D5DD6
330
D5DC5
100
AcDbEntity
  8
标注
 48
5.0
370
    -2
100
AcDbLine
 10
103299.0882676352
 20
-169122.9579506566
 30
0.0
 11
102946.4216009685
 21
-169122.9579506566
 31
0.0
  0
SOLID
  5
D5DD7
330
D5DC5
100
AcDbEntity
  8
标注
 48
5.0
100
AcDbTrace
 10
102569.0882676352
 20
-169121.29128399
 30
0.0
 11
102569.0882676352
 21
-169124.6246173233
 31
0.0
 12
102559.0882676352
 22
-169122.9579506566
 32
0.0
 13
102559.0882676352
 23
-169122.9579506566
 33
0.0
  0
SOLID
  5
D5DD8
330
D5DC5
100
AcDbEntity
  8
标注
 48
5.0
100
AcDbTrace
 10
103299.0882676352
 20
-169121.29128399
 30
0.0
 11
103299.0882676352
 21
-169124.6246173233
 31
0.0
 12
103309.0882676352
 22
-169122.9579506566
 32
0.0
 13
103309.0882676352
 23
-169122.9579506566
 33
0.0
  0
MTEXT
  5
D5DD9
330
D5DC5
100
AcDbEntity
  8
标注
 48
5.0
100
AcDbMText
 10
102934.0882676352
 20
-169122.9579506566
 30
0.0
 40
12.0
 41
0.0
 71
     5
 72
     1
  1
\A1;750
 73
     1
 44
1.0
1001
ACAD
1000
MTEXTBEGIN
1070
    73
1070
     1
1070
    44
1040
1.0
1070
    74
1070
     0
1000
MTEXTEND
  0
POINT
  5
D5DDA
330
D5DC5
100
AcDbEntity
  8
Defpoints
 62
     0
 48
5.0
100
AcDbPoint
 10
102559.0882676352
 20
-168969.1347207165
 30
0.0
  0
POINT
  5
D5DDB
330
D5DC5
100
AcDbEntity
  8
Defpoints
 62
     0
 48
5.0
100
AcDbPoint
 10
103309.0882676352
 20
-168863.1347207165
 30
0.0
  0
POINT
  5
D5DDC
330
D5DC5
100
AcDbEntity
  8
Defpoints
 62
     0
 48
5.0
100
AcDbPoint
 10
103309.0882676352
 20
-169122.9579506566
 30
0.0
  0
ENDBLK
  5
D5DC7
330
D5DC5
100
AcDbEntity
  8
0
 48
5.0
100
AcDbBlockEnd
  0
BLOCK
  5
D5DE0
330
D5DDF
100
AcDbEntity
  8
0
 48
5.0
100
AcDbBlockBegin
  2
*D9
 70
     1
 10
0.0
 20
0.0
 30
0.0
  3
*D9
  1

  0
LINE
  5
D5DED
330
D5DDF
100
AcDbEntity
  8
标注
 48
5.0
370
    -2
100
AcDbLine
 10
102555.0882676352
 20
-168976.1347207165
 30
0.0
 11
102555.0882676352
 21
-169153.975612169
 31
0.0
  0
LINE
  5
D5DEE
330
D5DDF
100
AcDbEntity
  8
标注
 48
5.0
370
    -2
100
AcDbLine
 10
103313.0882676352
 20
-168870.1347207152
 30
0.0
 11
103313.0882676352
 21
-169153.975612169
 31
0.0
  0
LINE
  5
D5DEF
330
D5DDF
100
AcDbEntity
  8
标注
 48
5.0
370
    -2
100
AcDbLine
 10
102565.0882676352
 20
-169146.975612169
 30
0.0
 11
102921.8216009685
 21
-169146.975612169
 31
0.0
  0
LINE
  5
D5DF0
330
D5DDF
100
AcDbEntity
  8
标注
 48
5.0
370
    -2
100
AcDbLine
 10
103303.0882676352
 20
-169146.975612169
 30
0.0
 11
102946.3549343019
 21
-169146.975612169
 31
0.0
  0
SOLID
  5
D5DF1
330
D5DDF
100
AcDbEntity
  8
标注
 48
5.0
100
AcDbTrace
 10
102565.0882676352
 20
-169145.3089455024
 30
0.0
 11
102565.0882676352
 21
-169148.6422788357
 31
0.0
 12
102555.0882676352
 22
-169146.975612169
 32
0.0
 13
102555.0882676352
 23
-169146.975612169
 33
0.0
  0
SOLID
  5
D5DF2
330
D5DDF
100
AcDbEntity
  8
标注
 48
5.0
100
AcDbTrace
 10
103303.0882676352
 20
-169145.3089455024
 30
0.0
 11
103303.0882676352
 21
-169148.6422788357
 31
0.0
 12
103313.0882676352
 22
-169146.975612169
 32
0.0
 13
103313.0882676352
 23
-169146.975612169
 33
0.0
  0
MTEXT
  5
D5DF3
330
D5DDF
100
AcDbEntity
  8
标注
 48
5.0
100
AcDbMText
 10
102934.0882676352
 20
-169146.975612169
 30
0.0
 40
12.0
 41
0.0
 71
     5
 72
     1
  1
\A1;758
 73
     1
 44
1.0
1001
ACAD
1000
MTEXTBEGIN
1070
    73
1070
     1
1070
    44
1040
1.0
1070
    74
1070
     0
1000
MTEXTEND
  0
POINT
  5
D5DF4
330
D5DDF
100
AcDbEntity
  8
Defpoints
 62
     0
 48
5.0
100
AcDbPoint
 10
102555.0882676352
 20
-168969.1347207165
 30
0.0
  0
POINT
  5
D5DF5
330
D5DDF
100
AcDbEntity
  8
Defpoints
 62
     0
 48
5.0
100
AcDbPoint
 10
103313.0882676352
 20
-168863.1347207152
 30
0.0
  0
POINT
  5
D5DF6
330
D5DDF
100
AcDbEntity
  8
Defpoints
 62
     0
 48
5.0
100
AcDbPoint
 10
103313.0882676352
 20
-169146.975612169
 30
0.0
  0
ENDBLK
  5
D5DE1
330
D5DDF
100
AcDbEntity
  8
0
 48
5.0
100
AcDbBlockEnd
  0
BLOCK
  5
D5DFA
330
D5DF9
100
AcDbEntity
  8
0
 48
5.0
100
AcDbBlockBegin
  2
*D10
 70
     1
 10
0.0
 20
0.0
 30
0.0
  3
*D10
  1

  0
LINE
  5
D5DFC
330
D5DF9
100
AcDbEntity
  8
标注
 48
5.0
370
    -2
100
AcDbLine
 10
103299.0882676352
 20
-169122.9579506566
 30
0.0
 11
103289.0882676352
 21
-169122.9579506566
 31
0.0
  0
LINE
  5
D5DFD
330
D5DF9
100
AcDbEntity
  8
标注
 48
5.0
370
    -2
100
AcDbLine
 10
103323.0882676352
 20
-169122.9579506566
 30
0.0
 11
103333.0882676352
 21
-169122.9579506566
 31
0.0
  0
LINE
  5
D5DFE
330
D5DF9
100
AcDbEntity
  8
标注
 48
5.0
370
    -2
100
AcDbLine
 10
103309.0882676352
 20
-169122.9579506566
 30
0.0
 11
103313.0882676352
 21
-169122.9579506566
 31
0.0
  0
SOLID
  5
D5DFF
330
D5DF9
100
AcDbEntity
  8
标注
 48
5.0
100
AcDbTrace
 10
103299.0882676352
 20
-169121.29128399
 30
0.0
 11
103299.0882676352
 21
-169124.6246173233
 31
0.0
 12
103309.0882676352
 22
-169122.9579506566
 32
0.0
 13
103309.0882676352
 23
-169122.9579506566
 33
0.0
  0
SOLID
  5
D5E00
330
D5DF9
100
AcDbEntity
  8
标注
 48
5.0
100
AcDbTrace
 10
103323.0882676352
 20
-169121.29128399
 30
0.0
 11
103323.0882676352
 21
-169124.6246173233
 31
0.0
 12
103313.0882676352
 22
-169122.9579506566
 32
0.0
 13
103313.0882676352
 23
-169122.9579506566
 33
0.0
  0
MTEXT
  5
D5E01
330
D5DF9
100
AcDbEntity
  8
标注
 48
5.0
100
AcDbMText
 10
103337.2549343019
 20
-169122.9579506566
 30
0.0
 40
12.0
 41
0.0
 71
     5
 72
     1
  1
\A1;4
 73
     1
 44
1.0
1001
ACAD
1000
MTEXTBEGIN
1070
    73
1070
     1
1070
    44
1040
1.0
1070
    74
1070
     0
1000
MTEXTEND
  0
POINT
  5
D5E02
330
D5DF9
100
AcDbEntity
  8
Defpoints
 62
     0
 48
5.0
100
AcDbPoint
 10
103309.0882676352
 20
-169122.9579506566
 30
0.0
  0
POINT
  5
D5E03
330
D5DF9
100
AcDbEntity
  8
Defpoints
 62
     0
 48
5.0
100
AcDbPoint
 10
103313.0882676352
 20
-169122.9579506566
 30
0.0
  0
POINT
  5
D5E04
330
D5DF9
100
AcDbEntity
  8
Defpoints
 62
     0
 48
5.0
100
AcDbPoint
 10
103313.0882676352
 20
-169122.9579506566
 30
0.0
  0
ENDBLK
  5
D5DFB
330
D5DF9
100
AcDbEntity
  8
0
 48
5.0
100
AcDbBlockEnd
  0
BLOCK
  5
D5E07
330
D5E06
100
AcDbEntity
  8
0
 48
5.0
100
AcDbBlockBegin
  2
*D11
 70
     1
 10
0.0
 20
0.0
 30
0.0
  3
*D11
  1

  0
LINE
  5
D5E14
330
D5E06
100
AcDbEntity
  8
标注
 48
5.0
370
    -2
100
AcDbLine
 10
102777.5882676348
 20
-168599.1349866733
 30
0.0
 11
102500.0438305893
 21
-168599.1349866733
 31
0.0
  0
LINE
  5
D5E15
330
D5E06
100
AcDbEntity
  8
标注
 48
5.0
370
    -2
100
AcDbLine
 10
102652.0882676352
 20
-169069.1347207165
 30
0.0
 11
102500.0438305893
 21
-169069.1347207165
 31
0.0
  0
LINE
  5
D5E16
330
D5E06
100
AcDbEntity
  8
标注
 48
5.0
370
    -2
100
AcDbLine
 10
102507.0438305893
 20
-168609.1349866734
 30
0.0
 11
102507.0438305893
 21
-168821.5681870282
 31
0.0
  0
LINE
  5
D5E17
330
D5E06
100
AcDbEntity
  8
标注
 48
5.0
370
    -2
100
AcDbLine
 10
102507.0438305893
 20
-169059.1347207165
 30
0.0
 11
102507.0438305893
 21
-168846.7015203616
 31
0.0
  0
SOLID
  5
D5E18
330
D5E06
100
AcDbEntity
  8
标注
 48
5.0
100
AcDbTrace
 10
102505.3771639226
 20
-168609.1349866734
 30
0.0
 11
102508.710497256
 21
-168609.1349866734
 31
0.0
 12
102507.0438305893
 22
-168599.1349866733
 32
0.0
 13
102507.0438305893
 23
-168599.1349866733
 33
0.0
  0
SOLID
  5
D5E19
330
D5E06
100
AcDbEntity
  8
标注
 48
5.0
100
AcDbTrace
 10
102505.3771639226
 20
-169059.1347207165
 30
0.0
 11
102508.710497256
 21
-169059.1347207165
 31
0.0
 12
102507.0438305893
 22
-169069.1347207165
 32
0.0
 13
102507.0438305893
 23
-169069.1347207165
 33
0.0
  0
MTEXT
  5
D5E1A
330
D5E06
100
AcDbEntity
  8
标注
 48
5.0
100
AcDbMText
 10
102507.0438305893
 20
-168834.1348536949
 30
0.0
 40
12.0
 41
0.0
 71
     5
 72
     1
  1
\A1;470
 11
0.0000000000000001
 21
1.0
 31
0.0
 73
     1
 44
1.0
1001
ACAD
1000
MTEXTBEGIN
1070
    73
1070
     1
1070
    44
1040
1.0
1070
    74
1070
     0
1000
MTEXTEND
  0
POINT
  5
D5E1B
330
D5E06
100
AcDbEntity
  8
Defpoints
 62
     0
 48
5.0
100
AcDbPoint
 10
102784.5882676348
 20
-168599.1349866733
 30
0.0
  0
POINT
  5
D5E1C
330
D5E06
100
AcDbEntity
  8
Defpoints
 62
     0
 48
5.0
100
AcDbPoint
 10
102659.0882676352
 20
-169069.1347207165
 30
0.0
  0
POINT
  5
D5E1D
330
D5E06
100
AcDbEntity
  8
Defpoints
 62
     0
 48
5.0
100
AcDbPoint
 10
102507.0438305893
 20
-169069.1347207165
 30
0.0
  0
ENDBLK
  5
D5E08
330
D5E06
100
AcDbEntity
  8
0
 48
5.0
100
AcDbBlockEnd
  0
BLOCK
  5
D5E21
330
D5E20
100
AcDbEntity
  8
0
 48
5.0
100
AcDbBlockBegin
  2
*D12
 70
     1
 10
0.0
 20
0.0
 30
0.0
  3
*D12
  1

  0
LINE
  5
D5E2E
330
D5E20
100
AcDbEntity
  8
标注
 48
5.0
370
    -2
100
AcDbLine
 10
102652.0882676352
 20
-169073.1347207165
 30
0.0
 11
102472.7933680969
 21
-169073.1347207165
 31
0.0
  0
LINE
  5
D5E2F
330
D5E20
100
AcDbEntity
  8
标注
 48
5.0
370
    -2
100
AcDbLine
 10
102777.5882676348
 20
-168595.1349866734
 30
0.0
 11
102472.7933680969
 21
-168595.1349866734
 31
0.0
  0
LINE
  5
D5E30
330
D5E20
100
AcDbEntity
  8
标注
 48
5.0
370
    -2
100
AcDbLine
 10
102479.7933680969
 20
-169063.1347207165
 30
0.0
 11
102479.7933680969
 21
-168846.6348536949
 31
0.0
  0
LINE
  5
D5E31
330
D5E20
100
AcDbEntity
  8
标注
 48
5.0
370
    -2
100
AcDbLine
 10
102479.7933680969
 20
-168605.1349866733
 30
0.0
 11
102479.7933680969
 21
-168821.6348536949
 31
0.0
  0
SOLID
  5
D5E32
330
D5E20
100
AcDbEntity
  8
标注
 48
5.0
100
AcDbTrace
 10
102478.1267014302
 20
-169063.1347207165
 30
0.0
 11
102481.4600347635
 21
-169063.1347207165
 31
0.0
 12
102479.7933680969
 22
-169073.1347207165
 32
0.0
 13
102479.7933680969
 23
-169073.1347207165
 33
0.0
  0
SOLID
  5
D5E33
330
D5E20
100
AcDbEntity
  8
标注
 48
5.0
100
AcDbTrace
 10
102478.1267014302
 20
-168605.1349866733
 30
0.0
 11
102481.4600347635
 21
-168605.1349866733
 31
0.0
 12
102479.7933680969
 22
-168595.1349866734
 32
0.0
 13
102479.7933680969
 23
-168595.1349866734
 33
0.0
  0
MTEXT
  5
D5E34
330
D5E20
100
AcDbEntity
  8
标注
 48
5.0
100
AcDbMText
 10
102479.7933680969
 20
-168834.1348536949
 30
0.0
 40
12.0
 41
0.0
 71
     5
 72
     1
  1
\A1;478
 11
0.0000000000000001
 21
1.0
 31
0.0
 73
     1
 44
1.0
1001
ACAD
1000
MTEXTBEGIN
1070
    73
1070
     1
1070
    44
1040
1.0
1070
    74
1070
     0
1000
MTEXTEND
  0
POINT
  5
D5E35
330
D5E20
100
AcDbEntity
  8
Defpoints
 62
     0
 48
5.0
100
AcDbPoint
 10
102659.0882676352
 20
-169073.1347207165
 30
0.0
  0
POINT
  5
D5E36
330
D5E20
100
AcDbEntity
  8
Defpoints
 62
     0
 48
5.0
100
AcDbPoint
 10
102784.5882676348
 20
-168595.1349866734
 30
0.0
  0
POINT
  5
D5E37
330
D5E20
100
AcDbEntity
  8
Defpoints
 62
     0
 48
5.0
100
AcDbPoint
 10
102479.7933680969
 20
-168595.1349866734
 30
0.0
  0
ENDBLK
  5
D5E22
330
D5E20
100
AcDbEntity
  8
0
 48
5.0
100
AcDbBlockEnd
  0
BLOCK
  5
D5E3B
330
D5E3A
100
AcDbEntity
  8
0
 48
5.0
100
AcDbBlockBegin
  2
*D13
 70
     1
 10
0.0
 20
0.0
 30
0.0
  3
*D13
  1

  0
LINE
  5
D5E3D
330
D5E3A
100
AcDbEntity
  8
标注
 48
5.0
370
    -2
100
AcDbLine
 10
102507.0438305893
 20
-168609.1349866734
 30
0.0
 11
102507.0438305893
 21
-168619.1349866733
 31
0.0
  0
LINE
  5
D5E3E
330
D5E3A
100
AcDbEntity
  8
标注
 48
5.0
370
    -2
100
AcDbLine
 10
102507.0438305893
 20
-168585.1349866734
 30
0.0
 11
102507.0438305893
 21
-168575.1349866734
 31
0.0
  0
LINE
  5
D5E3F
330
D5E3A
100
AcDbEntity
  8
标注
 48
5.0
370
    -2
100
AcDbLine
 10
102507.0438305893
 20
-168599.1349866733
 30
0.0
 11
102507.0438305893
 21
-168595.1349866734
 31
0.0
  0
SOLID
  5
D5E40
330
D5E3A
100
AcDbEntity
  8
标注
 48
5.0
100
AcDbTrace
 10
102505.3771639226
 20
-168609.1349866734
 30
0.0
 11
102508.710497256
 21
-168609.1349866734
 31
0.0
 12
102507.0438305893
 22
-168599.1349866733
 32
0.0
 13
102507.0438305893
 23
-168599.1349866733
 33
0.0
  0
SOLID
  5
D5E41
330
D5E3A
100
AcDbEntity
  8
标注
 48
5.0
100
AcDbTrace
 10
102505.3771639226
 20
-168585.1349866734
 30
0.0
 11
102508.710497256
 21
-168585.1349866734
 31
0.0
 12
102507.0438305893
 22
-168595.1349866734
 32
0.0
 13
102507.0438305893
 23
-168595.1349866734
 33
0.0
  0
MTEXT
  5
D5E42
330
D5E3A
100
AcDbEntity
  8
标注
 48
5.0
100
AcDbMText
 10
102507.0438305893
 20
-168570.9683200067
 30
0.0
 40
12.0
 41
0.0
 71
     5
 72
     1
  1
\A1;4
 11
0.0000000000000001
 21
1.0
 31
0.0
 73
     1
 44
1.0
1001
ACAD
1000
MTEXTBEGIN
1070
    73
1070
     1
1070
    44
1040
1.0
1070
    74
1070
     0
1000
MTEXTEND
  0
POINT
  5
D5E43
330
D5E3A
100
AcDbEntity
  8
Defpoints
 62
     0
 48
5.0
100
AcDbPoint
 10
102507.0438305893
 20
-168599.1349866733
 30
0.0
  0
POINT
  5
D5E44
330
D5E3A
100
AcDbEntity
  8
Defpoints
 62
     0
 48
5.0
100
AcDbPoint
 10
102507.0438305893
 20
-168595.1349866734
 30
0.0
  0
POINT
  5
D5E45
330
D5E3A
100
AcDbEntity
  8
Defpoints
 62
     0
 48
5.0
100
AcDbPoint
 10
102507.0438305893
 20
-168595.1349866734
 30
0.0
  0
ENDBLK
  5
D5E3C
330
D5E3A
100
AcDbEntity
  8
0
 48
5.0
100
AcDbBlockEnd
  0
BLOCK
  5
D5E48
330
D5E47
100
AcDbEntity
  8
0
 48
5.0
100
AcDbBlockBegin
  2
*D14
 70
     1
 10
0.0
 20
0.0
 30
0.0
  3
*D14
  1

  0
LINE
  5
D5E55
330
D5E47
100
AcDbEntity
  8
标注
 48
5.0
370
    -2
100
AcDbLine
 10
103183.0882676352
 20
-169069.1347207165
 30
0.0
 11
103361.2849354579
 21
-169069.1347207165
 31
0.0
  0
LINE
  5
D5E56
330
D5E47
100
AcDbEntity
  8
标注
 48
5.0
370
    -2
100
AcDbLine
 10
103183.0882676345
 20
-168657.1347207165
 30
0.0
 11
103361.2849354579
 21
-168657.1347207165
 31
0.0
  0
LINE
  5
D5E57
330
D5E47
100
AcDbEntity
  8
标注
 48
5.0
370
    -2
100
AcDbLine
 10
103354.2849354579
 20
-169059.1347207165
 30
0.0
 11
103354.2849354579
 21
-168875.6013873832
 31
0.0
  0
LINE
  5
D5E58
330
D5E47
100
AcDbEntity
  8
标注
 48
5.0
370
    -2
100
AcDbLine
 10
103354.2849354579
 20
-168667.1347207165
 30
0.0
 11
103354.2849354579
 21
-168850.6680540498
 31
0.0
  0
SOLID
  5
D5E59
330
D5E47
100
AcDbEntity
  8
标注
 48
5.0
100
AcDbTrace
 10
103352.6182687912
 20
-169059.1347207165
 30
0.0
 11
103355.9516021245
 21
-169059.1347207165
 31
0.0
 12
103354.2849354579
 22
-169069.1347207165
 32
0.0
 13
103354.2849354579
 23
-169069.1347207165
 33
0.0
  0
SOLID
  5
D5E5A
330
D5E47
100
AcDbEntity
  8
标注
 48
5.0
100
AcDbTrace
 10
103352.6182687912
 20
-168667.1347207165
 30
0.0
 11
103355.9516021245
 21
-168667.1347207165
 31
0.0
 12
103354.2849354579
 22
-168657.1347207165
 32
0.0
 13
103354.2849354579
 23
-168657.1347207165
 33
0.0
  0
MTEXT
  5
D5E5B
330
D5E47
100
AcDbEntity
  8
标注
 48
5.0
100
AcDbMText
 10
103354.2849354579
 20
-168863.1347207165
 30
0.0
 40
12.0
 41
0.0
 71
     5
 72
     1
  1
\A1;412
 11
0.0000000000000001
 21
1.0
 31
0.0
 73
     1
 44
1.0
1001
ACAD
1000
MTEXTBEGIN
1070
    73
1070
     1
1070
    44
1040
1.0
1070
    74
1070
     0
1000
MTEXTEND
  0
POINT
  5
D5E5C
330
D5E47
100
AcDbEntity
  8
Defpoints
 62
     0
 48
5.0
100
AcDbPoint
 10
103176.0882676352
 20
-169069.1347207165
 30
0.0
  0
POINT
  5
D5E5D
330
D5E47
100
AcDbEntity
  8
Defpoints
 62
     0
 48
5.0
100
AcDbPoint
 10
103176.0882676345
 20
-168657.1347207165
 30
0.0
  0
POINT
  5
D5E5E
330
D5E47
100
AcDbEntity
  8
Defpoints
 62
     0
 48
5.0
100
AcDbPoint
 10
103354.2849354579
 20
-168657.1347207165
 30
0.0
  0
ENDBLK
  5
D5E49
330
D5E47
100
AcDbEntity
  8
0
 48
5.0
100
AcDbBlockEnd
  0
BLOCK
  5
D5E62
330
D5E61
100
AcDbEntity
  8
0
 48
5.0
100
AcDbBlockBegin
  2
*D15
 70
     1
 10
0.0
 20
0.0
 30
0.0
  3
*D15
  1

  0
LINE
  5
D5E6F
330
D5E61
100
AcDbEntity
  8
标注
 48
5.0
370
    -2
100
AcDbLine
 10
103183.0882676351
 20
-169073.1347207165
 30
0.0
 11
103389.058759765
 21
-169073.1347207165
 31
0.0
  0
LINE
  5
D5E70
330
D5E61
100
AcDbEntity
  8
标注
 48
5.0
370
    -2
100
AcDbLine
 10
103183.0882676352
 20
-168653.1347207165
 30
0.0
 11
103389.058759765
 21
-168653.1347207165
 31
0.0
  0
LINE
  5
D5E71
330
D5E61
100
AcDbEntity
  8
标注
 48
5.0
370
    -2
100
AcDbLine
 10
103382.058759765
 20
-169063.1347207165
 30
0.0
 11
103382.058759765
 21
-168875.7013873831
 31
0.0
  0
LINE
  5
D5E72
330
D5E61
100
AcDbEntity
  8
标注
 48
5.0
370
    -2
100
AcDbLine
 10
103382.058759765
 20
-168663.1347207165
 30
0.0
 11
103382.058759765
 21
-168850.5680540498
 31
0.0
  0
SOLID
  5
D5E73
330
D5E61
100
AcDbEntity
  8
标注
 48
5.0
100
AcDbTrace
 10
103380.3920930983
 20
-169063.1347207165
 30
0.0
 11
103383.7254264317
 21
-169063.1347207165
 31
0.0
 12
103382.058759765
 22
-169073.1347207165
 32
0.0
 13
103382.058759765
 23
-169073.1347207165
 33
0.0
  0
SOLID
  5
D5E74
330
D5E61
100
AcDbEntity
  8
标注
 48
5.0
100
AcDbTrace
 10
103380.3920930983
 20
-168663.1347207165
 30
0.0
 11
103383.7254264317
 21
-168663.1347207165
 31
0.0
 12
103382.058759765
 22
-168653.1347207165
 32
0.0
 13
103382.058759765
 23
-168653.1347207165
 33
0.0
  0
MTEXT
  5
D5E75
330
D5E61
100
AcDbEntity
  8
标注
 48
5.0
100
AcDbMText
 10
103382.058759765
 20
-168863.1347207164
 30
0.0
 40
12.0
 41
0.0
 71
     5
 72
     1
  1
\A1;420
 11
0.0000000000000001
 21
1.0
 31
0.0
 73
     1
 44
1.0
1001
ACAD
1000
MTEXTBEGIN
1070
    73
1070
     1
1070
    44
1040
1.0
1070
    74
1070
     0
1000
MTEXTEND
  0
POINT
  5
D5E76
330
D5E61
100
AcDbEntity
  8
Defpoints
 62
     0
 48
5.0
100
AcDbPoint
 10
103176.0882676351
 20
-169073.1347207165
 30
0.0
  0
POINT
  5
D5E77
330
D5E61
100
AcDbEntity
  8
Defpoints
 62
     0
 48
5.0
100
AcDbPoint
 10
103176.0882676352
 20
-168653.1347207165
 30
0.0
  0
POINT
  5
D5E78
330
D5E61
100
AcDbEntity
  8
Defpoints
 62
     0
 48
5.0
100
AcDbPoint
 10
103382.058759765
 20
-168653.1347207165
 30
0.0
  0
ENDBLK
  5
D5E63
330
D5E61
100
AcDbEntity
  8
0
 48
5.0
100
AcDbBlockEnd
  0
BLOCK
  5
D5E7C
330
D5E7B
100
AcDbEntity
  8
0
 48
5.0
100
AcDbBlockBegin
  2
*D16
 70
     1
 10
0.0
 20
0.0
 30
0.0
  3
*D16
  1

  0
LINE
  5
D5E7E
330
D5E7B
100
AcDbEntity
  8
标注
 48
5.0
370
    -2
100
AcDbLine
 10
103354.2849354579
 20
-168667.1347207165
 30
0.0
 11
103354.2849354579
 21
-168677.1347207165
 31
0.0
  0
LINE
  5
D5E7F
330
D5E7B
100
AcDbEntity
  8
标注
 48
5.0
370
    -2
100
AcDbLine
 10
103354.2849354579
 20
-168643.1347207165
 30
0.0
 11
103354.2849354579
 21
-168633.1347207165
 31
0.0
  0
LINE
  5
D5E80
330
D5E7B
100
AcDbEntity
  8
标注
 48
5.0
370
    -2
100
AcDbLine
 10
103354.2849354579
 20
-168657.1347207165
 30
0.0
 11
103354.2849354579
 21
-168653.1347207165
 31
0.0
  0
SOLID
  5
D5E81
330
D5E7B
100
AcDbEntity
  8
标注
 48
5.0
100
AcDbTrace
 10
103352.6182687912
 20
-168667.1347207165
 30
0.0
 11
103355.9516021245
 21
-168667.1347207165
 31
0.0
 12
103354.2849354579
 22
-168657.1347207165
 32
0.0
 13
103354.2849354579
 23
-168657.1347207165
 33
0.0
  0
SOLID
  5
D5E82
330
D5E7B
100
AcDbEntity
  8
标注
 48
5.0
100
AcDbTrace
 10
103352.6182687912
 20
-168643.1347207165
 30
0.0
 11
103355.9516021245
 21
-168643.1347207165
 31
0.0
 12
103354.2849354579
 22
-168653.1347207165
 32
0.0
 13
103354.2849354579
 23
-168653.1347207165
 33
0.0
  0
MTEXT
  5
D5E83
330
D5E7B
100
AcDbEntity
  8
标注
 48
5.0
100
AcDbMText
 10
103354.2849354579
 20
-168628.9680540498
 30
0.0
 40
12.0
 41
0.0
 71
     5
 72
     1
  1
\A1;4
 11
0.0000000000000001
 21
1.0
 31
0.0
 73
     1
 44
1.0
1001
ACAD
1000
MTEXTBEGIN
1070
    73
1070
     1
1070
    44
1040
1.0
1070
    74
1070
     0
1000
MTEXTEND
  0
POINT
  5
D5E84
330
D5E7B
100
AcDbEntity
  8
Defpoints
 62
     0
 48
5.0
100
AcDbPoint
 10
103354.2849354579
 20
-168657.1347207165
 30
0.0
  0
POINT
  5
D5E85
330
D5E7B
100
AcDbEntity
  8
Defpoints
 62
     0
 48
5.0
100
AcDbPoint
 10
103354.2849354579
 20
-168653.1347207165
 30
0.0
  0
POINT
  5
D5E86
330
D5E7B
100
AcDbEntity
  8
Defpoints
 62
     0
 48
5.0
100
AcDbPoint
 10
103354.2849354579
 20
-168653.1347207165
 30
0.0
  0
ENDBLK
  5
D5E7D
330
D5E7B
100
AcDbEntity
  8
0
 48
5.0
100
AcDbBlockEnd
  0
BLOCK
  5
D5E89
330
D5E88
100
AcDbEntity
  8
0
 48
5.0
100
AcDbBlockBegin
  2
*D17
 70
     1
 10
0.0
 20
0.0
 30
0.0
  3
*D17
  1

  0
LINE
  5
D5E91
330
D5E88
100
AcDbEntity
  8
标注
 48
5.0
370
    -2
100
AcDbLine
 10
103264.1115849141
 20
-168692.8985422396
 30
0.0
 11
103270.5891213889
 21
-168685.2800436199
 31
0.0
  0
MTEXT
  5
D5E92
330
D5E88
100
AcDbEntity
  8
标注
 48
5.0
100
AcDbMText
 10
103255.9498889558
 20
-168702.4978505003
 30
0.0
 40
12.0
 41
0.0
 71
     5
 72
     1
  1
\A1;R80
 11
0.6477536474828824
 21
0.761849861962724
 31
0.0
 73
     1
 44
1.0
1001
ACAD
1000
MTEXTBEGIN
1070
    73
1070
     1
1070
    44
1040
1.0
1070
    74
1070
     0
1000
MTEXTEND
  0
SOLID
  5
D5E93
330
D5E88
100
AcDbEntity
  8
标注
 48
5.0
100
AcDbTrace
 10
103269.319371619
 20
-168684.2004542074
 30
0.0
 11
103271.8588711588
 21
-168686.3596330324
 31
0.0
 12
103277.0666578637
 22
-168677.6615450003
 32
0.0
 13
103277.0666578637
 23
-168677.6615450003
 33
0.0
  0
POINT
  5
D5E94
330
D5E88
100
AcDbEntity
  8
Defpoints
 62
     0
 48
5.0
100
AcDbPoint
 10
103277.0666578637
 20
-168677.6615450003
 30
0.0
  0
POINT
  5
D5E95
330
D5E88
100
AcDbEntity
  8
Defpoints
 62
     0
 48
5.0
100
AcDbPoint
 10
103225.246366066
 20
-168738.6095339562
 30
0.0
  0
ENDBLK
  5
D5E8A
330
D5E88
100
AcDbEntity
  8
0
 48
5.0
100
AcDbBlockEnd
  0
BLOCK
  5
D5E99
330
D5E98
100
AcDbEntity
  8
0
 48
5.0
100
AcDbBlockBegin
  2
*D18
 70
     1
 10
0.0
 20
0.0
 30
0.0
  3
*D18
  1

  0
LINE
  5
D5EA1
330
D5E98
100
AcDbEntity
  8
标注
 48
5.0
370
    -2
100
AcDbLine
 10
103219.0566514499
 20
-168678.1843705872
 30
0.0
 11
103219.5449285387
 21
-168668.1962984266
 31
0.0
  0
MTEXT
  5
D5EA2
330
D5E98
100
AcDbEntity
  8
标注
 48
5.0
100
AcDbMText
 10
103218.2330907601
 20
-168695.0309189647
 30
0.0
 40
12.0
 41
0.0
 71
     5
 72
     1
  1
\A1;R900
 11
0.0488277088800693
 21
0.9988072160559932
 31
0.0
 73
     1
 44
1.0
1001
ACAD
1000
MTEXTBEGIN
1070
    73
1070
     1
1070
    44
1040
1.0
1070
    74
1070
     0
1000
MTEXTEND
  0
SOLID
  5
D5EA3
330
D5E98
100
AcDbEntity
  8
标注
 48
5.0
100
AcDbTrace
 10
103217.8802498452
 20
-168668.1149189118
 30
0.0
 11
103221.2096072321
 21
-168668.2776779414
 31
0.0
 12
103220.0332056275
 22
-168658.208226266
 32
0.0
 13
103220.0332056275
 23
-168658.208226266
 33
0.0
  0
POINT
  5
D5EA4
330
D5E98
100
AcDbEntity
  8
Defpoints
 62
     0
 48
5.0
100
AcDbPoint
 10
103220.0332056275
 20
-168658.208226266
 30
0.0
  0
POINT
  5
D5EA5
330
D5E98
100
AcDbEntity
  8
Defpoints
 62
     0
 48
5.0
100
AcDbPoint
 10
103176.0882676355
 20
-169557.1347207139
 30
0.0
  0
ENDBLK
  5
D5E9A
330
D5E98
100
AcDbEntity
  8
0
 48
5.0
100
AcDbBlockEnd
  0
BLOCK
  5
D5EA9
330
D5EA8
100
AcDbEntity
  8
0
 48
5.0
100
AcDbBlockBegin
  2
*D19
 70
     1
 10
0.0
 20
0.0
 30
0.0
  3
*D19
  1

  0
LINE
  5
D613E
330
D5EA8
100
AcDbEntity
  8
标注
 48
5.0
370
    -2
100
AcDbLine
 10
103288.4287971795
 20
-168810.7614241413
 30
0.0
 11
103298.4256266485
 21
-168810.5096294462
 31
0.0
  0
MTEXT
  5
D613F
330
D5EA8
100
AcDbEntity
  8
标注
 48
5.0
100
AcDbMText
 10
103267.3021642351
 20
-168811.2935502635
 30
0.0
 40
12.0
 41
0.0
 71
     5
 72
     1
  1
\A1;R2100
 11
0.9996829468963296
 21
0.0251794695073235
 31
0.0
 73
     1
 44
1.0
1001
ACAD
1000
MTEXTBEGIN
1070
    73
1070
     1
1070
    44
1040
1.0
1070
    74
1070
     0
1000
MTEXTEND
  0
SOLID
  5
D6140
330
D5EA8
100
AcDbEntity
  8
标注
 48
5.0
100
AcDbTrace
 10
103298.383660866
 20
-168808.8434912013
 30
0.0
 11
103298.467592431
 21
-168812.175767691
 31
0.0
 12
103308.4224561174
 22
-168810.2578347511
 32
0.0
 13
103308.4224561174
 23
-168810.2578347511
 33
0.0
  0
POINT
  5
D6141
330
D5EA8
100
AcDbEntity
  8
Defpoints
 62
     0
 48
5.0
100
AcDbPoint
 10
103308.4224561174
 20
-168810.2578347511
 30
0.0
  0
POINT
  5
D6142
330
D5EA8
100
AcDbEntity
  8
Defpoints
 62
     0
 48
5.0
100
AcDbPoint
 10
101209.0882676351
 20
-168863.1347207165
 30
0.0
  0
ENDBLK
  5
D5EAA
330
D5EA8
100
AcDbEntity
  8
0
 48
5.0
100
AcDbBlockEnd
  0
BLOCK
  5
D5EB9
330
D5EB8
100
AcDbEntity
  8
0
 48
5.0
100
AcDbBlockBegin
  2
*D20
 70
     1
 10
0.0
 20
0.0
 30
0.0
  3
*D20
  1

  0
LINE
  5
D5EC1
330
D5EB8
100
AcDbEntity
  8
标注
 48
5.0
370
    -2
100
AcDbLine
 10
103269.3925940675
 20
-169028.2937671636
 30
0.0
 11
103276.7502987345
 21
-169035.0660771115
 31
0.0
  0
MTEXT
  5
D5EC2
330
D5EB8
100
AcDbEntity
  8
标注
 48
5.0
100
AcDbMText
 10
103260.1218861869
 20
-169019.7606566291
 30
0.0
 40
12.0
 41
0.0
 71
     5
 72
     1
  1
\A1;R80
 11
0.7357704667111653
 21
-0.6772309947984029
 31
0.0
 73
     1
 44
1.0
1001
ACAD
1000
MTEXTBEGIN
1070
    73
1070
     1
1070
    44
1040
1.0
1070
    74
1070
     0
1000
MTEXTEND
  0
SOLID
  5
D5EC3
330
D5EB8
100
AcDbEntity
  8
标注
 48
5.0
100
AcDbTrace
 10
103277.8790170592
 20
-169033.8397930003
 30
0.0
 11
103275.6215804099
 21
-169036.2923612227
 31
0.0
 12
103284.1080034017
 22
-169041.8383870595
 32
0.0
 13
103284.1080034017
 23
-169041.8383870595
 33
0.0
  0
POINT
  5
D5EC4
330
D5EB8
100
AcDbEntity
  8
Defpoints
 62
     0
 48
5.0
100
AcDbPoint
 10
103284.1080034017
 20
-169041.8383870595
 30
0.0
  0
POINT
  5
D5EC5
330
D5EB8
100
AcDbEntity
  8
Defpoints
 62
     0
 48
5.0
100
AcDbPoint
 10
103225.2463660653
 20
-168987.6599074761
 30
0.0
  0
ENDBLK
  5
D5EBA
330
D5EB8
100
AcDbEntity
  8
0
 48
5.0
100
AcDbBlockEnd
  0
BLOCK
  5
D5EC9
330
D5EC8
100
AcDbEntity
  8
0
 48
5.0
100
AcDbBlockBegin
  2
*D21
 70
     1
 10
0.0
 20
0.0
 30
0.0
  3
*D21
  1

  0
LINE
  5
D6143
330
D5EC8
100
AcDbEntity
  8
标注
 48
5.0
370
    -2
100
AcDbLine
 10
103226.3822809404
 20
-169047.6963362141
 30
0.0
 11
103226.9538038188
 21
-169057.6799909356
 31
0.0
  0
MTEXT
  5
D6144
330
D5EC8
100
AcDbEntity
  8
标注
 48
5.0
100
AcDbMText
 10
103225.418312352
 20
-169030.8572385837
 30
0.0
 40
12.0
 41
0.0
 71
     5
 72
     1
  1
\A1;R900
 11
0.0571522878462309
 21
-0.9983654721563349
 31
0.0
 73
     1
 44
1.0
1001
ACAD
1000
MTEXTBEGIN
1070
    73
1070
     1
1070
    44
1040
1.0
1070
    74
1070
     0
1000
MTEXTEND
  0
SOLID
  5
D6145
330
D5EC8
100
AcDbEntity
  8
标注
 48
5.0
100
AcDbTrace
 10
103228.6177462724
 20
-169057.5847371226
 30
0.0
 11
103225.2898613652
 21
-169057.7752447486
 31
0.0
 12
103227.5253266973
 22
-169067.6636456572
 32
0.0
 13
103227.5253266973
 23
-169067.6636456572
 33
0.0
  0
POINT
  5
D6146
330
D5EC8
100
AcDbEntity
  8
Defpoints
 62
     0
 48
5.0
100
AcDbPoint
 10
103227.5253266973
 20
-169067.6636456572
 30
0.0
  0
POINT
  5
D6147
330
D5EC8
100
AcDbEntity
  8
Defpoints
 62
     0
 48
5.0
100
AcDbPoint
 10
103176.0882676354
 20
-168169.1347207118
 30
0.0
  0
ENDBLK
  5
D5ECA
330
D5EC8
100
AcDbEntity
  8
0
 48
5.0
100
AcDbBlockEnd
  0
BLOCK
  5
D5EDC
330
D5EDB
100
AcDbEntity
  8
0
 48
5.0
100
AcDbBlockBegin
  2
*D22
 70
     1
 10
0.0
 20
0.0
 30
0.0
  3
*D22
  1

  0
LINE
  5
D5EE4
330
D5EDB
100
AcDbEntity
  8
标注
 48
5.0
370
    -2
100
AcDbLine
 10
102602.7145752278
 20
-169025.8974444386
 30
0.0
 11
102595.6678636769
 21
-169032.992784904
 31
0.0
  0
MTEXT
  5
D5EE5
330
D5EDB
100
AcDbEntity
  8
标注
 48
5.0
100
AcDbMText
 10
102614.6000287104
 20
-169013.9299701872
 30
0.0
 40
12.0
 41
0.0
 71
     5
 72
     1
  1
\A1;R100
 11
0.7046711550907824
 21
0.7095340465284403
 31
0.0
 73
     1
 44
1.0
1001
ACAD
1000
MTEXTBEGIN
1070
    73
1070
     1
1070
    44
1040
1.0
1070
    74
1070
     0
1000
MTEXTEND
  0
SOLID
  5
D5EE6
330
D5EDB
100
AcDbEntity
  8
标注
 48
5.0
100
AcDbTrace
 10
102594.4853069327
 20
-169031.8183329788
 30
0.0
 11
102596.8504204211
 21
-169034.167236829
 31
0.0
 12
102588.621152126
 22
-169040.0881253692
 32
0.0
 13
102588.621152126
 23
-169040.0881253692
 33
0.0
  0
POINT
  5
D5EE7
330
D5EDB
100
AcDbEntity
  8
Defpoints
 62
     0
 48
5.0
100
AcDbPoint
 10
102588.621152126
 20
-169040.0881253692
 30
0.0
  0
POINT
  5
D5EE8
330
D5EDB
100
AcDbEntity
  8
Defpoints
 62
     0
 48
5.0
100
AcDbPoint
 10
102659.0882676351
 20
-168969.1347207163
 30
0.0
  0
ENDBLK
  5
D5EDD
330
D5EDB
100
AcDbEntity
  8
0
 48
5.0
100
AcDbBlockEnd
  0
BLOCK
  5
D5EEC
330
D5EEB
100
AcDbEntity
  8
0
 48
5.0
100
AcDbBlockBegin
  2
*D23
 70
     1
 10
0.0
 20
0.0
 30
0.0
  3
*D23
  1

  0
LINE
  5
D5EF4
330
D5EEB
100
AcDbEntity
  8
标注
 48
5.0
370
    -2
100
AcDbLine
 10
102596.3264600336
 20
-168698.8319021652
 30
0.0
 11
102587.5577594907
 21
-168694.0246273876
 31
0.0
  0
MTEXT
  5
D5EF5
330
D5EEB
100
AcDbEntity
  8
标注
 48
5.0
100
AcDbMText
 10
102611.1163349494
 20
-168706.9401722902
 30
0.0
 40
12.0
 41
0.0
 71
     5
 72
     1
  1
\A1;R160
 11
0.8768700542957045
 21
-0.4807274777661957
 31
0.0
 73
     1
 44
1.0
1001
ACAD
1000
MTEXTBEGIN
1070
    73
1070
     1
1070
    44
1040
1.0
1070
    74
1070
     0
1000
MTEXTEND
  0
SOLID
  5
D5EF6
330
D5EEB
100
AcDbEntity
  8
标注
 48
5.0
100
AcDbTrace
 10
102588.3589719536
 20
-168692.5631772971
 30
0.0
 11
102586.7565470277
 21
-168695.4860774781
 31
0.0
 12
102578.7890589477
 22
-168689.2173526099
 32
0.0
 13
102578.7890589477
 23
-168689.2173526099
 33
0.0
  0
POINT
  5
D5EF7
330
D5EEB
100
AcDbEntity
  8
Defpoints
 62
     0
 48
5.0
100
AcDbPoint
 10
102578.7890589477
 20
-168689.2173526099
 30
0.0
  0
POINT
  5
D5EF8
330
D5EEB
100
AcDbEntity
  8
Defpoints
 62
     0
 48
5.0
100
AcDbPoint
 10
102719.0882676342
 20
-168766.1337490521
 30
0.0
  0
ENDBLK
  5
D5EED
330
D5EEB
100
AcDbEntity
  8
0
 48
5.0
100
AcDbBlockEnd
  0
BLOCK
  5
D5EFC
330
D5EFB
100
AcDbEntity
  8
0
 48
5.0
100
AcDbBlockBegin
  2
*D24
 70
     1
 10
0.0
 20
0.0
 30
0.0
  3
*D24
  1

  0
LINE
  5
D5F04
330
D5EFB
100
AcDbEntity
  8
标注
 48
5.0
370
    -2
100
AcDbLine
 10
102778.9514811195
 20
-168626.0826593502
 30
0.0
 11
102778.7363359082
 21
-168609.1722111197
 31
0.0
  0
MTEXT
  5
D5F05
330
D5EFB
100
AcDbEntity
  8
标注
 48
5.0
100
AcDbMText
 10
102779.1660519496
 20
-168642.9479611205
 30
0.0
 40
12.0
 41
0.0
 71
     5
 72
     1
  1
\A1;R470
 11
0.0127215907164766
 21
-0.9999190772905787
 31
0.0
 73
     1
 44
1.0
1001
ACAD
1000
MTEXTBEGIN
1070
    73
1070
     1
1070
    44
1040
1.0
1070
    74
1070
     0
1000
MTEXTEND
  0
SOLID
  5
D5F06
330
D5EFB
100
AcDbEntity
  8
标注
 48
5.0
100
AcDbTrace
 10
102780.4028677037
 20
-168609.1510084685
 30
0.0
 11
102777.0698041127
 21
-168609.1934137709
 31
0.0
 12
102778.609120001
 22
-168599.1730203468
 32
0.0
 13
102778.609120001
 23
-168599.1730203468
 33
0.0
  0
POINT
  5
D5F07
330
D5EFB
100
AcDbEntity
  8
Defpoints
 62
     0
 48
5.0
100
AcDbPoint
 10
102778.609120001
 20
-168599.1730203468
 30
0.0
  0
POINT
  5
D5F08
330
D5EFB
100
AcDbEntity
  8
Defpoints
 62
     0
 48
5.0
100
AcDbPoint
 10
102784.5882676377
 20
-169069.1349866719
 30
0.0
  0
ENDBLK
  5
D5EFD
330
D5EFB
100
AcDbEntity
  8
0
 48
5.0
100
AcDbBlockEnd
  0
BLOCK
  5
D5F1E
330
D5F1D
100
AcDbEntity
  8
0
 48
5.0
100
AcDbBlockBegin
  2
*D25
 70
     1
 10
0.0
 20
0.0
 30
0.0
  3
*D25
  1

  0
LINE
  5
D5F26
330
D5F1D
100
AcDbEntity
  8
标注
 48
5.0
370
    -2
100
AcDbLine
 10
102973.2077186491
 20
-168634.8056407758
 30
0.0
 11
102966.7923476198
 21
-168642.4765608351
 31
0.0
  0
MTEXT
  5
D5F27
330
D5F1D
100
AcDbEntity
  8
标注
 48
5.0
100
AcDbMText
 10
102981.2910861461
 20
-168625.140281501
 30
0.0
 40
12.0
 41
0.0
 71
     5
 72
     1
  1
\A1;R30
 11
0.6415371029305828
 21
0.7670920059311236
 31
0.0
 73
     1
 44
1.0
1001
ACAD
1000
MTEXTBEGIN
1070
    73
1070
     1
1070
    44
1040
1.0
1070
    74
1070
     0
1000
MTEXTEND
  0
SOLID
  5
D5F28
330
D5F1D
100
AcDbEntity
  8
标注
 48
5.0
100
AcDbTrace
 10
102965.5138609433
 20
-168641.4073323302
 30
0.0
 11
102968.0708342964
 21
-168643.54578934
 31
0.0
 12
102960.3769765905
 22
-168650.1474808944
 32
0.0
 13
102960.3769765905
 23
-168650.1474808944
 33
0.0
  0
POINT
  5
D5F29
330
D5F1D
100
AcDbEntity
  8
Defpoints
 62
     0
 48
5.0
100
AcDbPoint
 10
102960.3769765905
 20
-168650.1474808944
 30
0.0
  0
POINT
  5
D5F2A
330
D5F1D
100
AcDbEntity
  8
Defpoints
 62
     0
 48
5.0
100
AcDbPoint
 10
102979.6230896784
 20
-168627.1347207165
 30
0.0
  0
ENDBLK
  5
D5F1F
330
D5F1D
100
AcDbEntity
  8
0
 48
5.0
100
AcDbBlockEnd
  0
BLOCK
  5
D618F
330
D618E
100
AcDbEntity
  8
0
 48
5.0
100
AcDbBlockBegin
  2
*D26
 70
     1
 10
0.0
 20
0.0
 30
0.0
  3
*D26
  1

  0
LINE
  5
D640F
330
D618E
100
AcDbEntity
  8
标注
 48
5.0
370
    -2
100
AcDbLine
 10
105496.4400177388
 20
-168818.8556559014
 30
0.0
 11
105496.4400177388
 21
-168846.496864151
 31
0.0
  0
LINE
  5
D6410
330
D618E
100
AcDbEntity
  8
标注
 48
5.0
370
    -2
100
AcDbLine
 10
105135.4400177288
 20
-168818.8556559014
 30
0.0
 11
105135.4400177288
 21
-168846.496864151
 31
0.0
  0
LINE
  5
D6411
330
D618E
100
AcDbEntity
  8
标注
 48
5.0
370
    -2
100
AcDbLine
 10
105486.4400177388
 20
-168839.496864151
 30
0.0
 11
105327.8733510672
 21
-168839.496864151
 31
0.0
  0
LINE
  5
D6412
330
D618E
100
AcDbEntity
  8
标注
 48
5.0
370
    -2
100
AcDbLine
 10
105145.4400177288
 20
-168839.496864151
 30
0.0
 11
105304.0066844005
 21
-168839.496864151
 31
0.0
  0
SOLID
  5
D6413
330
D618E
100
AcDbEntity
  8
标注
 48
5.0
100
AcDbTrace
 10
105486.4400177388
 20
-168837.8301974843
 30
0.0
 11
105486.4400177388
 21
-168841.1635308177
 31
0.0
 12
105496.4400177388
 22
-168839.496864151
 32
0.0
 13
105496.4400177388
 23
-168839.496864151
 33
0.0
  0
SOLID
  5
D6414
330
D618E
100
AcDbEntity
  8
标注
 48
5.0
100
AcDbTrace
 10
105145.4400177288
 20
-168837.8301974843
 30
0.0
 11
105145.4400177288
 21
-168841.1635308177
 31
0.0
 12
105135.4400177288
 22
-168839.496864151
 32
0.0
 13
105135.4400177288
 23
-168839.496864151
 33
0.0
  0
MTEXT
  5
D6415
330
D618E
100
AcDbEntity
  8
标注
 48
5.0
100
AcDbMText
 10
105315.9400177338
 20
-168839.496864151
 30
0.0
 40
12.0
 41
0.0
 71
     5
 72
     1
  1
\A1;361
 73
     1
 44
1.0
1001
ACAD
1000
MTEXTBEGIN
1070
    73
1070
     1
1070
    44
1040
1.0
1070
    74
1070
     0
1000
MTEXTEND
  0
POINT
  5
D6416
330
D618E
100
AcDbEntity
  8
Defpoints
 62
     0
 48
5.0
100
AcDbPoint
 10
105496.4400177388
 20
-168811.8556559014
 30
0.0
  0
POINT
  5
D6417
330
D618E
100
AcDbEntity
  8
Defpoints
 62
     0
 48
5.0
100
AcDbPoint
 10
105135.4400177288
 20
-168811.8556559015
 30
0.0
  0
POINT
  5
D6418
330
D618E
100
AcDbEntity
  8
Defpoints
 62
     0
 48
5.0
100
AcDbPoint
 10
105135.4400177288
 20
-168839.496864151
 30
0.0
  0
ENDBLK
  5
D6190
330
D618E
100
AcDbEntity
  8
0
 48
5.0
100
AcDbBlockEnd
  0
BLOCK
  5
D619C
330
D619B
100
AcDbEntity
  8
0
 48
5.0
100
AcDbBlockBegin
  2
*D27
 70
     1
 10
0.0
 20
0.0
 30
0.0
  3
*D27
  1

  0
LINE
  5
D642E
330
D619B
100
AcDbEntity
  8
标注
 48
5.0
370
    -2
100
AcDbLine
 10
105128.4400177288
 20
-169032.8555229329
 30
0.0
 11
105103.6375275106
 21
-169032.8555229329
 31
0.0
  0
LINE
  5
D642F
330
D619B
100
AcDbEntity
  8
标注
 48
5.0
370
    -2
100
AcDbLine
 10
105128.4400177288
 20
-168811.8556559014
 30
0.0
 11
105103.6375275106
 21
-168811.8556559014
 31
0.0
  0
LINE
  5
D6430
330
D619B
100
AcDbEntity
  8
标注
 48
5.0
370
    -2
100
AcDbLine
 10
105110.6375275106
 20
-169022.8555229329
 30
0.0
 11
105110.6375275106
 21
-168934.3555894172
 31
0.0
  0
LINE
  5
D6431
330
D619B
100
AcDbEntity
  8
标注
 48
5.0
370
    -2
100
AcDbLine
 10
105110.6375275106
 20
-168821.8556559014
 30
0.0
 11
105110.6375275106
 21
-168910.3555894172
 31
0.0
  0
SOLID
  5
D6432
330
D619B
100
AcDbEntity
  8
标注
 48
5.0
100
AcDbTrace
 10
105108.970860844
 20
-169022.8555229329
 30
0.0
 11
105112.3041941773
 21
-169022.8555229329
 31
0.0
 12
105110.6375275106
 22
-169032.8555229329
 32
0.0
 13
105110.6375275106
 23
-169032.8555229329
 33
0.0
  0
SOLID
  5
D6433
330
D619B
100
AcDbEntity
  8
标注
 48
5.0
100
AcDbTrace
 10
105108.970860844
 20
-168821.8556559014
 30
0.0
 11
105112.3041941773
 21
-168821.8556559014
 31
0.0
 12
105110.6375275106
 22
-168811.8556559014
 32
0.0
 13
105110.6375275106
 23
-168811.8556559014
 33
0.0
  0
MTEXT
  5
D6434
330
D619B
100
AcDbEntity
  8
标注
 48
5.0
100
AcDbMText
 10
105110.6375275107
 20
-168922.3555894171
 30
0.0
 40
12.0
 41
0.0
 71
     5
 72
     1
  1
\A1;221
 11
0.0000000000000001
 21
1.0
 31
0.0
 73
     1
 44
1.0
1001
ACAD
1000
MTEXTBEGIN
1070
    73
1070
     1
1070
    44
1040
1.0
1070
    74
1070
     0
1000
MTEXTEND
  0
POINT
  5
D6435
330
D619B
100
AcDbEntity
  8
Defpoints
 62
     0
 48
5.0
100
AcDbPoint
 10
105135.4400177288
 20
-169032.8555229329
 30
0.0
  0
POINT
  5
D6436
330
D619B
100
AcDbEntity
  8
Defpoints
 62
     0
 48
5.0
100
AcDbPoint
 10
105135.4400177288
 20
-168811.8556559014
 30
0.0
  0
POINT
  5
D6437
330
D619B
100
AcDbEntity
  8
Defpoints
 62
     0
 48
5.0
100
AcDbPoint
 10
105110.6375275106
 20
-168811.8556559014
 30
0.0
  0
ENDBLK
  5
D619D
330
D619B
100
AcDbEntity
  8
0
 48
5.0
100
AcDbBlockEnd
  0
BLOCK
  5
D61A9
330
D61A8
100
AcDbEntity
  8
0
 48
5.0
100
AcDbBlockBegin
  2
*D28
 70
     1
 10
0.0
 20
0.0
 30
0.0
  3
*D28
  1

  0
LINE
  5
D6456
330
D61A8
100
AcDbEntity
  8
标注
 48
5.0
370
    -2
100
AcDbLine
 10
104770.4400177288
 20
-169100.6787528631
 30
0.0
 11
104780.4400177288
 21
-169100.6787528631
 31
0.0
  0
LINE
  5
D6457
330
D61A8
100
AcDbEntity
  8
标注
 48
5.0
370
    -2
100
AcDbLine
 10
104746.4400177288
 20
-169100.6787528631
 30
0.0
 11
104736.4400177288
 21
-169100.6787528631
 31
0.0
  0
LINE
  5
D6458
330
D61A8
100
AcDbEntity
  8
标注
 48
5.0
370
    -2
100
AcDbLine
 10
104760.4400177288
 20
-169100.6787528631
 30
0.0
 11
104756.4400177288
 21
-169100.6787528631
 31
0.0
  0
SOLID
  5
D6459
330
D61A8
100
AcDbEntity
  8
标注
 48
5.0
100
AcDbTrace
 10
104770.4400177288
 20
-169099.0120861965
 30
0.0
 11
104770.4400177288
 21
-169102.3454195297
 31
0.0
 12
104760.4400177288
 22
-169100.6787528631
 32
0.0
 13
104760.4400177288
 23
-169100.6787528631
 33
0.0
  0
SOLID
  5
D645A
330
D61A8
100
AcDbEntity
  8
标注
 48
5.0
100
AcDbTrace
 10
104746.4400177288
 20
-169099.0120861965
 30
0.0
 11
104746.4400177288
 21
-169102.3454195297
 31
0.0
 12
104756.4400177288
 22
-169100.6787528631
 32
0.0
 13
104756.4400177288
 23
-169100.6787528631
 33
0.0
  0
MTEXT
  5
D645B
330
D61A8
100
AcDbEntity
  8
标注
 48
5.0
100
AcDbMText
 10
104732.2733510621
 20
-169100.6787528631
 30
0.0
 40
12.0
 41
0.0
 71
     5
 72
     1
  1
\A1;4
 73
     1
 44
1.0
1001
ACAD
1000
MTEXTBEGIN
1070
    73
1070
     1
1070
    44
1040
1.0
1070
    74
1070
     0
1000
MTEXTEND
  0
POINT
  5
D645C
330
D61A8
100
AcDbEntity
  8
Defpoints
 62
     0
 48
5.0
100
AcDbPoint
 10
104760.4400177288
 20
-169100.6787528631
 30
0.0
  0
POINT
  5
D645D
330
D61A8
100
AcDbEntity
  8
Defpoints
 62
     0
 48
5.0
100
AcDbPoint
 10
104756.4400177288
 20
-169100.6787528631
 30
0.0
  0
POINT
  5
D645E
330
D61A8
100
AcDbEntity
  8
Defpoints
 62
     0
 48
5.0
100
AcDbPoint
 10
104756.4400177288
 20
-169100.6787528631
 30
0.0
  0
ENDBLK
  5
D61AA
330
D61A8
100
AcDbEntity
  8
0
 48
5.0
100
AcDbBlockEnd
  0
BLOCK
  5
D61B5
330
D61B4
100
AcDbEntity
  8
0
 48
5.0
100
AcDbBlockBegin
  2
*D29
 70
     1
 10
0.0
 20
0.0
 30
0.0
  3
*D29
  1

  0
LINE
  5
D6473
330
D61B4
100
AcDbEntity
  8
标注
 48
5.0
370
    -2
100
AcDbLine
 10
105562.4844547747
 20
-168586.8557888798
 30
0.0
 11
105562.4844547747
 21
-168596.8557888799
 31
0.0
  0
LINE
  5
D6474
330
D61B4
100
AcDbEntity
  8
标注
 48
5.0
370
    -2
100
AcDbLine
 10
105562.4844547747
 20
-168562.8557888798
 30
0.0
 11
105562.4844547747
 21
-168552.8557888799
 31
0.0
  0
LINE
  5
D6475
330
D61B4
100
AcDbEntity
  8
标注
 48
5.0
370
    -2
100
AcDbLine
 10
105562.4844547747
 20
-168576.8557888798
 30
0.0
 11
105562.4844547747
 21
-168572.8557888798
 31
0.0
  0
SOLID
  5
D6476
330
D61B4
100
AcDbEntity
  8
标注
 48
5.0
100
AcDbTrace
 10
105560.817788108
 20
-168586.8557888798
 30
0.0
 11
105564.1511214414
 21
-168586.8557888798
 31
0.0
 12
105562.4844547747
 22
-168576.8557888798
 32
0.0
 13
105562.4844547747
 23
-168576.8557888798
 33
0.0
  0
SOLID
  5
D6477
330
D61B4
100
AcDbEntity
  8
标注
 48
5.0
100
AcDbTrace
 10
105560.817788108
 20
-168562.8557888798
 30
0.0
 11
105564.1511214414
 21
-168562.8557888798
 31
0.0
 12
105562.4844547747
 22
-168572.8557888798
 32
0.0
 13
105562.4844547747
 23
-168572.8557888798
 33
0.0
  0
MTEXT
  5
D6478
330
D61B4
100
AcDbEntity
  8
标注
 48
5.0
100
AcDbMText
 10
105562.4844547748
 20
-168548.6891222131
 30
0.0
 40
12.0
 41
0.0
 71
     5
 72
     1
  1
\A1;4
 11
0.0000000000000001
 21
1.0
 31
0.0
 73
     1
 44
1.0
1001
ACAD
1000
MTEXTBEGIN
1070
    73
1070
     1
1070
    44
1040
1.0
1070
    74
1070
     0
1000
MTEXTEND
  0
POINT
  5
D6479
330
D61B4
100
AcDbEntity
  8
Defpoints
 62
     0
 48
5.0
100
AcDbPoint
 10
105562.4844547747
 20
-168576.8557888798
 30
0.0
  0
POINT
  5
D647A
330
D61B4
100
AcDbEntity
  8
Defpoints
 62
     0
 48
5.0
100
AcDbPoint
 10
105562.4844547747
 20
-168572.8557888798
 30
0.0
  0
POINT
  5
D647B
330
D61B4
100
AcDbEntity
  8
Defpoints
 62
     0
 48
5.0
100
AcDbPoint
 10
105562.4844547747
 20
-168572.8557888798
 30
0.0
  0
ENDBLK
  5
D61B6
330
D61B4
100
AcDbEntity
  8
0
 48
5.0
100
AcDbBlockEnd
  0
BLOCK
  5
D61C1
330
D61C0
100
AcDbEntity
  8
0
 48
5.0
100
AcDbBlockBegin
  2
*D30
 70
     1
 10
0.0
 20
0.0
 30
0.0
  3
*D30
  1

  0
LINE
  5
D6490
330
D61C0
100
AcDbEntity
  8
标注
 48
5.0
370
    -2
100
AcDbLine
 10
104715.2433499062
 20
-168644.855522923
 30
0.0
 11
104715.2433499062
 21
-168654.855522923
 31
0.0
  0
LINE
  5
D6491
330
D61C0
100
AcDbEntity
  8
标注
 48
5.0
370
    -2
100
AcDbLine
 10
104715.2433499062
 20
-168620.855522923
 30
0.0
 11
104715.2433499062
 21
-168610.855522923
 31
0.0
  0
LINE
  5
D6492
330
D61C0
100
AcDbEntity
  8
标注
 48
5.0
370
    -2
100
AcDbLine
 10
104715.2433499062
 20
-168634.855522923
 30
0.0
 11
104715.2433499062
 21
-168630.855522923
 31
0.0
  0
SOLID
  5
D6493
330
D61C0
100
AcDbEntity
  8
标注
 48
5.0
100
AcDbTrace
 10
104713.5766832395
 20
-168644.855522923
 30
0.0
 11
104716.9100165728
 21
-168644.855522923
 31
0.0
 12
104715.2433499062
 22
-168634.855522923
 32
0.0
 13
104715.2433499062
 23
-168634.855522923
 33
0.0
  0
SOLID
  5
D6494
330
D61C0
100
AcDbEntity
  8
标注
 48
5.0
100
AcDbTrace
 10
104713.5766832395
 20
-168620.855522923
 30
0.0
 11
104716.9100165728
 21
-168620.855522923
 31
0.0
 12
104715.2433499062
 22
-168630.855522923
 32
0.0
 13
104715.2433499062
 23
-168630.855522923
 33
0.0
  0
MTEXT
  5
D6495
330
D61C0
100
AcDbEntity
  8
标注
 48
5.0
100
AcDbMText
 10
104715.2433499062
 20
-168606.6888562563
 30
0.0
 40
12.0
 41
0.0
 71
     5
 72
     1
  1
\A1;4
 11
0.0000000000000001
 21
1.0
 31
0.0
 73
     1
 44
1.0
1001
ACAD
1000
MTEXTBEGIN
1070
    73
1070
     1
1070
    44
1040
1.0
1070
    74
1070
     0
1000
MTEXTEND
  0
POINT
  5
D6496
330
D61C0
100
AcDbEntity
  8
Defpoints
 62
     0
 48
5.0
100
AcDbPoint
 10
104715.2433499062
 20
-168634.855522923
 30
0.0
  0
POINT
  5
D6497
330
D61C0
100
AcDbEntity
  8
Defpoints
 62
     0
 48
5.0
100
AcDbPoint
 10
104715.2433499062
 20
-168630.855522923
 30
0.0
  0
POINT
  5
D6498
330
D61C0
100
AcDbEntity
  8
Defpoints
 62
     0
 48
5.0
100
AcDbPoint
 10
104715.2433499062
 20
-168630.855522923
 30
0.0
  0
ENDBLK
  5
D61C2
330
D61C0
100
AcDbEntity
  8
0
 48
5.0
100
AcDbBlockEnd
  0
BLOCK
  5
D61CD
330
D61CC
100
AcDbEntity
  8
0
 48
5.0
100
AcDbBlockBegin
  2
*D31
 70
     1
 10
0.0
 20
0.0
 30
0.0
  3
*D31
  1

  0
LINE
  5
D64E4
330
D61CC
100
AcDbEntity
  8
标注
 48
5.0
370
    -2
100
AcDbLine
 10
105154.4457632279
 20
-168798.9026007396
 30
0.0
 11
105146.1823956196
 21
-168804.5343638534
 31
0.0
  0
LINE
  5
D64E5
330
D61CC
100
AcDbEntity
  8
标注
 48
5.0
370
    -2
100
AcDbLine
 10
105124.697639838
 20
-168819.1769479493
 30
0.0
 11
105116.4342722297
 21
-168824.8087110631
 31
0.0
  0
MTEXT
  5
D64E6
102
{ACAD_XDICTIONARY
360
D6807
102
}
330
D61CC
100
AcDbEntity
  8
标注
 48
5.0
100
AcDbMText
 10
105171.4230775438
 20
-168787.3319896924
 30
0.0
 40
12.0
 41
0.0
 71
     5
 72
     1
  1
\A1;{\fGulim|b0|i0|c129|p34;5-\U+22056}
 11
0.8263367608309762
 21
0.5631763113798111
 31
0.0
 73
     1
 44
1.0
1001
ACAD
1000
MTEXTBEGIN
1070
    73
1070
     1
1070
    44
1040
1.0
1070
    74
1070
     0
1000
MTEXTEND
  0
LINE
  5
D64E7
330
D61CC
100
AcDbEntity
  8
标注
 48
5.0
370
    -2
100
AcDbLine
 10
105132.9610074463
 20
-168813.5451848355
 30
0.0
 11
105137.9190280113
 21
-168810.1661269672
 31
0.0
  0
SOLID
  5
D64E8
330
D61CC
100
AcDbEntity
  8
标注
 48
5.0
100
AcDbTrace
 10
105123.7590126524
 20
-168817.7997200146
 30
0.0
 11
105125.6362670236
 21
-168820.554175884
 31
0.0
 12
105132.9610074463
 22
-168813.5451848355
 32
0.0
 13
105132.9610074463
 23
-168813.5451848355
 33
0.0
  0
SOLID
  5
D64E9
330
D61CC
100
AcDbEntity
  8
标注
 48
5.0
100
AcDbTrace
 10
105145.243768434
 20
-168803.1571359187
 30
0.0
 11
105147.1210228052
 21
-168805.9115917881
 31
0.0
 12
105137.9190280113
 22
-168810.1661269672
 32
0.0
 13
105137.9190280113
 23
-168810.1661269672
 33
0.0
  0
POINT
  5
D64EA
330
D61CC
100
AcDbEntity
  8
Defpoints
 62
     0
 48
5.0
100
AcDbPoint
 10
105137.9190280113
 20
-168810.1661269672
 30
0.0
  0
POINT
  5
D64EB
330
D61CC
100
AcDbEntity
  8
Defpoints
 62
     0
 48
5.0
100
AcDbPoint
 10
105132.9610074463
 20
-168813.5451848355
 30
0.0
  0
ENDBLK
  5
D61CE
330
D61CC
100
AcDbEntity
  8
0
 48
5.0
100
AcDbBlockEnd
  0
BLOCK
  5
D61D8
330
D61D7
100
AcDbEntity
  8
0
 48
5.0
100
AcDbBlockBegin
  2
*D32
 70
     1
 10
0.0
 20
0.0
 30
0.0
  3
*D32
  1

  0
LINE
  5
D6404
330
D61D7
100
AcDbEntity
  8
标注
 48
5.0
370
    -2
100
AcDbLine
 10
105496.4400177388
 20
-168818.8556559014
 30
0.0
 11
105496.4400177388
 21
-168846.496864151
 31
0.0
  0
LINE
  5
D6405
330
D61D7
100
AcDbEntity
  8
标注
 48
5.0
370
    -2
100
AcDbLine
 10
105514.4400177288
 20
-168818.8556559014
 30
0.0
 11
105514.4400177288
 21
-168846.496864151
 31
0.0
  0
LINE
  5
D6406
330
D61D7
100
AcDbEntity
  8
标注
 48
5.0
370
    -2
100
AcDbLine
 10
105486.4400177388
 20
-168839.496864151
 30
0.0
 11
105476.4400177388
 21
-168839.496864151
 31
0.0
  0
LINE
  5
D6407
330
D61D7
100
AcDbEntity
  8
标注
 48
5.0
370
    -2
100
AcDbLine
 10
105524.4400177289
 20
-168839.496864151
 30
0.0
 11
105534.4400177289
 21
-168839.496864151
 31
0.0
  0
LINE
  5
D6408
330
D61D7
100
AcDbEntity
  8
标注
 48
5.0
370
    -2
100
AcDbLine
 10
105496.4400177388
 20
-168839.496864151
 30
0.0
 11
105514.4400177288
 21
-168839.496864151
 31
0.0
  0
SOLID
  5
D6409
330
D61D7
100
AcDbEntity
  8
标注
 48
5.0
100
AcDbTrace
 10
105486.4400177388
 20
-168837.8301974843
 30
0.0
 11
105486.4400177388
 21
-168841.1635308177
 31
0.0
 12
105496.4400177388
 22
-168839.496864151
 32
0.0
 13
105496.4400177388
 23
-168839.496864151
 33
0.0
  0
SOLID
  5
D640A
330
D61D7
100
AcDbEntity
  8
标注
 48
5.0
100
AcDbTrace
 10
105524.4400177289
 20
-168837.8301974843
 30
0.0
 11
105524.4400177289
 21
-168841.1635308177
 31
0.0
 12
105514.4400177288
 22
-168839.496864151
 32
0.0
 13
105514.4400177288
 23
-168839.496864151
 33
0.0
  0
MTEXT
  5
D640B
330
D61D7
100
AcDbEntity
  8
标注
 48
5.0
100
AcDbMText
 10
105542.0066843955
 20
-168839.496864151
 30
0.0
 40
12.0
 41
0.0
 71
     5
 72
     1
  1
\A1;18
 73
     1
 44
1.0
1001
ACAD
1000
MTEXTBEGIN
1070
    73
1070
     1
1070
    44
1040
1.0
1070
    74
1070
     0
1000
MTEXTEND
  0
POINT
  5
D640C
330
D61D7
100
AcDbEntity
  8
Defpoints
 62
     0
 48
5.0
100
AcDbPoint
 10
105496.4400177388
 20
-168811.8556559014
 30
0.0
  0
POINT
  5
D640D
330
D61D7
100
AcDbEntity
  8
Defpoints
 62
     0
 48
5.0
100
AcDbPoint
 10
105514.4400177288
 20
-168811.8556559014
 30
0.0
  0
POINT
  5
D640E
330
D61D7
100
AcDbEntity
  8
Defpoints
 62
     0
 48
5.0
100
AcDbPoint
 10
105514.4400177288
 20
-168839.496864151
 30
0.0
  0
ENDBLK
  5
D61D9
330
D61D7
100
AcDbEntity
  8
0
 48
5.0
100
AcDbBlockEnd
  0
BLOCK
  5
D61F0
330
D61EF
100
AcDbEntity
  8
0
 48
5.0
100
AcDbBlockBegin
  2
*D33
 70
     1
 10
0.0
 20
0.0
 30
0.0
  3
*D33
  1

  0
LINE
  5
D6419
330
D61EF
100
AcDbEntity
  8
标注
 48
5.0
370
    -2
100
AcDbLine
 10
105496.4400177388
 20
-168818.8556559014
 30
0.0
 11
105496.4400177388
 21
-168880.4776065214
 31
0.0
  0
LINE
  5
D641A
330
D61EF
100
AcDbEntity
  8
标注
 48
5.0
370
    -2
100
AcDbLine
 10
104774.4400177188
 20
-168818.8556559014
 30
0.0
 11
104774.4400177188
 21
-168880.4776065214
 31
0.0
  0
LINE
  5
D641B
330
D61EF
100
AcDbEntity
  8
标注
 48
5.0
370
    -2
100
AcDbLine
 10
105486.4400177388
 20
-168873.4776065214
 30
0.0
 11
105329.2900177338
 21
-168873.4776065214
 31
0.0
  0
LINE
  5
D641C
330
D61EF
100
AcDbEntity
  8
标注
 48
5.0
370
    -2
100
AcDbLine
 10
104784.4400177188
 20
-168873.4776065214
 30
0.0
 11
105304.8233510671
 21
-168873.4776065214
 31
0.0
  0
SOLID
  5
D641D
330
D61EF
100
AcDbEntity
  8
标注
 48
5.0
100
AcDbTrace
 10
105486.4400177388
 20
-168871.8109398548
 30
0.0
 11
105486.4400177388
 21
-168875.1442731881
 31
0.0
 12
105496.4400177388
 22
-168873.4776065214
 32
0.0
 13
105496.4400177388
 23
-168873.4776065214
 33
0.0
  0
SOLID
  5
D641E
330
D61EF
100
AcDbEntity
  8
标注
 48
5.0
100
AcDbTrace
 10
104784.4400177188
 20
-168871.8109398548
 30
0.0
 11
104784.4400177188
 21
-168875.1442731881
 31
0.0
 12
104774.4400177188
 22
-168873.4776065214
 32
0.0
 13
104774.4400177188
 23
-168873.4776065214
 33
0.0
  0
MTEXT
  5
D641F
330
D61EF
100
AcDbEntity
  8
标注
 48
5.0
100
AcDbMText
 10
105317.0566844005
 20
-168873.4776065214
 30
0.0
 40
12.0
 41
0.0
 71
     5
 72
     1
  1
\A1;722
 73
     1
 44
1.0
1001
ACAD
1000
MTEXTBEGIN
1070
    73
1070
     1
1070
    44
1040
1.0
1070
    74
1070
     0
1000
MTEXTEND
  0
POINT
  5
D6420
330
D61EF
100
AcDbEntity
  8
Defpoints
 62
     0
 48
5.0
100
AcDbPoint
 10
105496.4400177388
 20
-168811.8556559014
 30
0.0
  0
POINT
  5
D6421
330
D61EF
100
AcDbEntity
  8
Defpoints
 62
     0
 48
5.0
100
AcDbPoint
 10
104774.4400177188
 20
-168811.8556559014
 30
0.0
  0
POINT
  5
D6422
330
D61EF
100
AcDbEntity
  8
Defpoints
 62
     0
 48
5.0
100
AcDbPoint
 10
104774.4400177188
 20
-168873.4776065214
 30
0.0
  0
ENDBLK
  5
D61F1
330
D61EF
100
AcDbEntity
  8
0
 48
5.0
100
AcDbBlockEnd
  0
BLOCK
  5
D61FD
330
D61FC
100
AcDbEntity
  8
0
 48
5.0
100
AcDbBlockBegin
  2
*D34
 70
     1
 10
0.0
 20
0.0
 30
0.0
  3
*D34
  1

  0
LINE
  5
D6423
330
D61FC
100
AcDbEntity
  8
标注
 48
5.0
370
    -2
100
AcDbLine
 10
105128.4400177288
 20
-169032.8555229329
 30
0.0
 11
105103.6375275106
 21
-169032.8555229329
 31
0.0
  0
LINE
  5
D6424
330
D61FC
100
AcDbEntity
  8
标注
 48
5.0
370
    -2
100
AcDbLine
 10
105128.4400177288
 20
-169050.855522923
 30
0.0
 11
105103.6375275106
 21
-169050.855522923
 31
0.0
  0
LINE
  5
D6425
330
D61FC
100
AcDbEntity
  8
标注
 48
5.0
370
    -2
100
AcDbLine
 10
105110.6375275106
 20
-169022.8555229329
 30
0.0
 11
105110.6375275106
 21
-169012.8555229329
 31
0.0
  0
LINE
  5
D6426
330
D61FC
100
AcDbEntity
  8
标注
 48
5.0
370
    -2
100
AcDbLine
 10
105110.6375275106
 20
-169060.855522923
 30
0.0
 11
105110.6375275106
 21
-169070.855522923
 31
0.0
  0
LINE
  5
D6427
330
D61FC
100
AcDbEntity
  8
标注
 48
5.0
370
    -2
100
AcDbLine
 10
105110.6375275106
 20
-169032.8555229329
 30
0.0
 11
105110.6375275106
 21
-169050.855522923
 31
0.0
  0
SOLID
  5
D6428
330
D61FC
100
AcDbEntity
  8
标注
 48
5.0
100
AcDbTrace
 10
105108.9708608439
 20
-169022.8555229329
 30
0.0
 11
105112.3041941772
 21
-169022.8555229329
 31
0.0
 12
105110.6375275106
 22
-169032.8555229329
 32
0.0
 13
105110.6375275106
 23
-169032.8555229329
 33
0.0
  0
SOLID
  5
D6429
330
D61FC
100
AcDbEntity
  8
标注
 48
5.0
100
AcDbTrace
 10
105108.9708608439
 20
-169060.855522923
 30
0.0
 11
105112.3041941772
 21
-169060.855522923
 31
0.0
 12
105110.6375275106
 22
-169050.855522923
 32
0.0
 13
105110.6375275106
 23
-169050.855522923
 33
0.0
  0
MTEXT
  5
D642A
330
D61FC
100
AcDbEntity
  8
标注
 48
5.0
100
AcDbMText
 10
105110.6375275106
 20
-169078.4221895896
 30
0.0
 40
12.0
 41
0.0
 71
     5
 72
     1
  1
\A1;18
 11
0.0000000000000001
 21
1.0
 31
0.0
 73
     1
 44
1.0
1001
ACAD
1000
MTEXTBEGIN
1070
    73
1070
     1
1070
    44
1040
1.0
1070
    74
1070
     0
1000
MTEXTEND
  0
POINT
  5
D642B
330
D61FC
100
AcDbEntity
  8
Defpoints
 62
     0
 48
5.0
100
AcDbPoint
 10
105135.4400177288
 20
-169032.8555229329
 30
0.0
  0
POINT
  5
D642C
330
D61FC
100
AcDbEntity
  8
Defpoints
 62
     0
 48
5.0
100
AcDbPoint
 10
105135.4400177288
 20
-169050.855522923
 30
0.0
  0
POINT
  5
D642D
330
D61FC
100
AcDbEntity
  8
Defpoints
 62
     0
 48
5.0
100
AcDbPoint
 10
105110.6375275106
 20
-169050.855522923
 30
0.0
  0
ENDBLK
  5
D61FE
330
D61FC
100
AcDbEntity
  8
0
 48
5.0
100
AcDbBlockEnd
  0
BLOCK
  5
D6215
330
D6214
100
AcDbEntity
  8
0
 48
5.0
100
AcDbBlockBegin
  2
*D35
 70
     1
 10
0.0
 20
0.0
 30
0.0
  3
*D35
  1

  0
LINE
  5
D6438
330
D6214
100
AcDbEntity
  8
标注
 48
5.0
370
    -2
100
AcDbLine
 10
105128.4400177288
 20
-169032.8555229329
 30
0.0
 11
105080.725866
 21
-169032.8555229329
 31
0.0
  0
LINE
  5
D6439
330
D6214
100
AcDbEntity
  8
标注
 48
5.0
370
    -2
100
AcDbLine
 10
105128.4400177288
 20
-168621.000016365
 30
0.0
 11
105080.725866
 21
-168621.000016365
 31
0.0
  0
LINE
  5
D643A
330
D6214
100
AcDbEntity
  8
标注
 48
5.0
370
    -2
100
AcDbLine
 10
105087.725866
 20
-169022.8555229329
 30
0.0
 11
105087.725866
 21
-168936.2948562524
 31
0.0
  0
LINE
  5
D643B
330
D6214
100
AcDbEntity
  8
标注
 48
5.0
370
    -2
100
AcDbLine
 10
105087.725866
 20
-168631.000016365
 30
0.0
 11
105087.725866
 21
-168894.1615229191
 31
0.0
  0
SOLID
  5
D643C
330
D6214
100
AcDbEntity
  8
标注
 48
5.0
100
AcDbTrace
 10
105086.0591993334
 20
-169022.8555229329
 30
0.0
 11
105089.3925326667
 21
-169022.8555229329
 31
0.0
 12
105087.725866
 22
-169032.8555229329
 32
0.0
 13
105087.725866
 23
-169032.8555229329
 33
0.0
  0
SOLID
  5
D643D
330
D6214
100
AcDbEntity
  8
标注
 48
5.0
100
AcDbTrace
 10
105086.0591993334
 20
-168631.000016365
 30
0.0
 11
105089.3925326667
 21
-168631.000016365
 31
0.0
 12
105087.725866
 22
-168621.000016365
 32
0.0
 13
105087.725866
 23
-168621.000016365
 33
0.0
  0
MTEXT
  5
D643E
330
D6214
100
AcDbEntity
  8
标注
 48
5.0
100
AcDbMText
 10
105087.7258660001
 20
-168915.2281895857
 30
0.0
 40
12.0
 41
0.0
 71
     5
 72
     1
  1
\A1;411,9
 11
0.0000000000000001
 21
1.0
 31
0.0
 73
     1
 44
1.0
1001
ACAD
1000
MTEXTBEGIN
1070
    73
1070
     1
1070
    44
1040
1.0
1070
    74
1070
     0
1000
MTEXTEND
  0
POINT
  5
D643F
330
D6214
100
AcDbEntity
  8
Defpoints
 62
     0
 48
5.0
100
AcDbPoint
 10
105135.4400177288
 20
-169032.8555229329
 30
0.0
  0
POINT
  5
D6440
330
D6214
100
AcDbEntity
  8
Defpoints
 62
     0
 48
5.0
100
AcDbPoint
 10
105135.4400177288
 20
-168621.000016365
 30
0.0
  0
POINT
  5
D6441
330
D6214
100
AcDbEntity
  8
Defpoints
 62
     0
 48
5.0
100
AcDbPoint
 10
105087.725866
 20
-168621.000016365
 30
0.0
  0
ENDBLK
  5
D6216
330
D6214
100
AcDbEntity
  8
0
 48
5.0
100
AcDbBlockEnd
  0
BLOCK
  5
D6222
330
D6221
100
AcDbEntity
  8
0
 48
5.0
100
AcDbBlockBegin
  2
*D36
 70
     1
 10
0.0
 20
0.0
 30
0.0
  3
*D36
  1

  0
LINE
  5
D6442
330
D6221
100
AcDbEntity
  8
标注
 48
5.0
370
    -2
100
AcDbLine
 10
105510.4400177288
 20
-168953.855522923
 30
0.0
 11
105510.4400177288
 21
-169107.6787528631
 31
0.0
  0
LINE
  5
D6443
330
D6221
100
AcDbEntity
  8
标注
 48
5.0
370
    -2
100
AcDbLine
 10
104760.4400177288
 20
-168847.855522923
 30
0.0
 11
104760.4400177288
 21
-169107.6787528631
 31
0.0
  0
LINE
  5
D6444
330
D6221
100
AcDbEntity
  8
标注
 48
5.0
370
    -2
100
AcDbLine
 10
105500.4400177288
 20
-169100.6787528631
 30
0.0
 11
105147.7733510622
 21
-169100.6787528631
 31
0.0
  0
LINE
  5
D6445
330
D6221
100
AcDbEntity
  8
标注
 48
5.0
370
    -2
100
AcDbLine
 10
104770.4400177288
 20
-169100.6787528631
 30
0.0
 11
105123.1066843955
 21
-169100.6787528631
 31
0.0
  0
SOLID
  5
D6446
330
D6221
100
AcDbEntity
  8
标注
 48
5.0
100
AcDbTrace
 10
105500.4400177288
 20
-169099.0120861965
 30
0.0
 11
105500.4400177288
 21
-169102.3454195297
 31
0.0
 12
105510.4400177288
 22
-169100.6787528631
 32
0.0
 13
105510.4400177288
 23
-169100.6787528631
 33
0.0
  0
SOLID
  5
D6447
330
D6221
100
AcDbEntity
  8
标注
 48
5.0
100
AcDbTrace
 10
104770.4400177288
 20
-169099.0120861965
 30
0.0
 11
104770.4400177288
 21
-169102.3454195297
 31
0.0
 12
104760.4400177288
 22
-169100.6787528631
 32
0.0
 13
104760.4400177288
 23
-169100.6787528631
 33
0.0
  0
MTEXT
  5
D6448
330
D6221
100
AcDbEntity
  8
标注
 48
5.0
100
AcDbMText
 10
105135.4400177288
 20
-169100.6787528631
 30
0.0
 40
12.0
 41
0.0
 71
     5
 72
     1
  1
\A1;750
 73
     1
 44
1.0
1001
ACAD
1000
MTEXTBEGIN
1070
    73
1070
     1
1070
    44
1040
1.0
1070
    74
1070
     0
1000
MTEXTEND
  0
POINT
  5
D6449
330
D6221
100
AcDbEntity
  8
Defpoints
 62
     0
 48
5.0
100
AcDbPoint
 10
105510.4400177288
 20
-168946.855522923
 30
0.0
  0
POINT
  5
D644A
330
D6221
100
AcDbEntity
  8
Defpoints
 62
     0
 48
5.0
100
AcDbPoint
 10
104760.4400177288
 20
-168840.855522923
 30
0.0
  0
POINT
  5
D644B
330
D6221
100
AcDbEntity
  8
Defpoints
 62
     0
 48
5.0
100
AcDbPoint
 10
104760.4400177288
 20
-169100.6787528631
 30
0.0
  0
ENDBLK
  5
D6223
330
D6221
100
AcDbEntity
  8
0
 48
5.0
100
AcDbBlockEnd
  0
BLOCK
  5
D622F
330
D622E
100
AcDbEntity
  8
0
 48
5.0
100
AcDbBlockBegin
  2
*D37
 70
     1
 10
0.0
 20
0.0
 30
0.0
  3
*D37
  1

  0
LINE
  5
D644C
330
D622E
100
AcDbEntity
  8
标注
 48
5.0
370
    -2
100
AcDbLine
 10
105514.4400177288
 20
-168953.855522923
 30
0.0
 11
105514.4400177288
 21
-169131.6964143755
 31
0.0
  0
LINE
  5
D644D
330
D622E
100
AcDbEntity
  8
标注
 48
5.0
370
    -2
100
AcDbLine
 10
104756.4400177288
 20
-168847.8555229217
 30
0.0
 11
104756.4400177288
 21
-169131.6964143755
 31
0.0
  0
LINE
  5
D644E
330
D622E
100
AcDbEntity
  8
标注
 48
5.0
370
    -2
100
AcDbLine
 10
105504.4400177288
 20
-169124.6964143755
 30
0.0
 11
105147.7066843955
 21
-169124.6964143755
 31
0.0
  0
LINE
  5
D644F
330
D622E
100
AcDbEntity
  8
标注
 48
5.0
370
    -2
100
AcDbLine
 10
104766.4400177288
 20
-169124.6964143755
 30
0.0
 11
105123.1733510622
 21
-169124.6964143755
 31
0.0
  0
SOLID
  5
D6450
330
D622E
100
AcDbEntity
  8
标注
 48
5.0
100
AcDbTrace
 10
105504.4400177288
 20
-169123.0297477089
 30
0.0
 11
105504.4400177288
 21
-169126.3630810422
 31
0.0
 12
105514.4400177288
 22
-169124.6964143755
 32
0.0
 13
105514.4400177288
 23
-169124.6964143755
 33
0.0
  0
SOLID
  5
D6451
330
D622E
100
AcDbEntity
  8
标注
 48
5.0
100
AcDbTrace
 10
104766.4400177288
 20
-169123.0297477089
 30
0.0
 11
104766.4400177288
 21
-169126.3630810422
 31
0.0
 12
104756.4400177288
 22
-169124.6964143755
 32
0.0
 13
104756.4400177288
 23
-169124.6964143755
 33
0.0
  0
MTEXT
  5
D6452
330
D622E
100
AcDbEntity
  8
标注
 48
5.0
100
AcDbMText
 10
105135.4400177288
 20
-169124.6964143755
 30
0.0
 40
12.0
 41
0.0
 71
     5
 72
     1
  1
\A1;758
 73
     1
 44
1.0
1001
ACAD
1000
MTEXTBEGIN
1070
    73
1070
     1
1070
    44
1040
1.0
1070
    74
1070
     0
1000
MTEXTEND
  0
POINT
  5
D6453
330
D622E
100
AcDbEntity
  8
Defpoints
 62
     0
 48
5.0
100
AcDbPoint
 10
105514.4400177288
 20
-168946.855522923
 30
0.0
  0
POINT
  5
D6454
330
D622E
100
AcDbEntity
  8
Defpoints
 62
     0
 48
5.0
100
AcDbPoint
 10
104756.4400177288
 20
-168840.8555229217
 30
0.0
  0
POINT
  5
D6455
330
D622E
100
AcDbEntity
  8
Defpoints
 62
     0
 48
5.0
100
AcDbPoint
 10
104756.4400177288
 20
-169124.6964143755
 30
0.0
  0
ENDBLK
  5
D6230
330
D622E
100
AcDbEntity
  8
0
 48
5.0
100
AcDbBlockEnd
  0
BLOCK
  5
D6245
330
D6244
100
AcDbEntity
  8
0
 48
5.0
100
AcDbBlockBegin
  2
*D38
 70
     1
 10
0.0
 20
0.0
 30
0.0
  3
*D38
  1

  0
LINE
  5
D645F
330
D6244
100
AcDbEntity
  8
标注
 48
5.0
370
    -2
100
AcDbLine
 10
105291.9400177292
 20
-168576.8557888798
 30
0.0
 11
105569.4844547747
 21
-168576.8557888798
 31
0.0
  0
LINE
  5
D6460
330
D6244
100
AcDbEntity
  8
标注
 48
5.0
370
    -2
100
AcDbLine
 10
105417.4400177289
 20
-169046.855522923
 30
0.0
 11
105569.4844547747
 21
-169046.855522923
 31
0.0
  0
LINE
  5
D6461
330
D6244
100
AcDbEntity
  8
标注
 48
5.0
370
    -2
100
AcDbLine
 10
105562.4844547747
 20
-168586.8557888798
 30
0.0
 11
105562.4844547747
 21
-168799.2889892347
 31
0.0
  0
LINE
  5
D6462
330
D6244
100
AcDbEntity
  8
标注
 48
5.0
370
    -2
100
AcDbLine
 10
105562.4844547747
 20
-169036.855522923
 30
0.0
 11
105562.4844547747
 21
-168824.4223225681
 31
0.0
  0
SOLID
  5
D6463
330
D6244
100
AcDbEntity
  8
标注
 48
5.0
100
AcDbTrace
 10
105560.817788108
 20
-168586.8557888798
 30
0.0
 11
105564.1511214414
 21
-168586.8557888798
 31
0.0
 12
105562.4844547747
 22
-168576.8557888798
 32
0.0
 13
105562.4844547747
 23
-168576.8557888798
 33
0.0
  0
SOLID
  5
D6464
330
D6244
100
AcDbEntity
  8
标注
 48
5.0
100
AcDbTrace
 10
105560.817788108
 20
-169036.855522923
 30
0.0
 11
105564.1511214414
 21
-169036.855522923
 31
0.0
 12
105562.4844547747
 22
-169046.855522923
 32
0.0
 13
105562.4844547747
 23
-169046.855522923
 33
0.0
  0
MTEXT
  5
D6465
330
D6244
100
AcDbEntity
  8
标注
 48
5.0
100
AcDbMText
 10
105562.4844547748
 20
-168811.8556559014
 30
0.0
 40
12.0
 41
0.0
 71
     5
 72
     1
  1
\A1;470
 11
0.0000000000000001
 21
1.0
 31
0.0
 73
     1
 44
1.0
1001
ACAD
1000
MTEXTBEGIN
1070
    73
1070
     1
1070
    44
1040
1.0
1070
    74
1070
     0
1000
MTEXTEND
  0
POINT
  5
D6466
330
D6244
100
AcDbEntity
  8
Defpoints
 62
     0
 48
5.0
100
AcDbPoint
 10
105284.9400177293
 20
-168576.8557888798
 30
0.0
  0
POINT
  5
D6467
330
D6244
100
AcDbEntity
  8
Defpoints
 62
     0
 48
5.0
100
AcDbPoint
 10
105410.4400177289
 20
-169046.855522923
 30
0.0
  0
POINT
  5
D6468
330
D6244
100
AcDbEntity
  8
Defpoints
 62
     0
 48
5.0
100
AcDbPoint
 10
105562.4844547747
 20
-169046.855522923
 30
0.0
  0
ENDBLK
  5
D6246
330
D6244
100
AcDbEntity
  8
0
 48
5.0
100
AcDbBlockEnd
  0
BLOCK
  5
D6252
330
D6251
100
AcDbEntity
  8
0
 48
5.0
100
AcDbBlockBegin
  2
*D39
 70
     1
 10
0.0
 20
0.0
 30
0.0
  3
*D39
  1

  0
LINE
  5
D6469
330
D6251
100
AcDbEntity
  8
标注
 48
5.0
370
    -2
100
AcDbLine
 10
105417.4400177289
 20
-169050.855522923
 30
0.0
 11
105596.7349172671
 21
-169050.855522923
 31
0.0
  0
LINE
  5
D646A
330
D6251
100
AcDbEntity
  8
标注
 48
5.0
370
    -2
100
AcDbLine
 10
105291.9400177292
 20
-168572.8557888798
 30
0.0
 11
105596.7349172671
 21
-168572.8557888798
 31
0.0
  0
LINE
  5
D646B
330
D6251
100
AcDbEntity
  8
标注
 48
5.0
370
    -2
100
AcDbLine
 10
105589.7349172671
 20
-169040.855522923
 30
0.0
 11
105589.7349172671
 21
-168824.3556559014
 31
0.0
  0
LINE
  5
D646C
330
D6251
100
AcDbEntity
  8
标注
 48
5.0
370
    -2
100
AcDbLine
 10
105589.7349172671
 20
-168582.8557888799
 30
0.0
 11
105589.7349172671
 21
-168799.3556559014
 31
0.0
  0
SOLID
  5
D646D
330
D6251
100
AcDbEntity
  8
标注
 48
5.0
100
AcDbTrace
 10
105588.0682506005
 20
-169040.855522923
 30
0.0
 11
105591.4015839338
 21
-169040.855522923
 31
0.0
 12
105589.7349172671
 22
-169050.855522923
 32
0.0
 13
105589.7349172671
 23
-169050.855522923
 33
0.0
  0
SOLID
  5
D646E
330
D6251
100
AcDbEntity
  8
标注
 48
5.0
100
AcDbTrace
 10
105588.0682506005
 20
-168582.8557888799
 30
0.0
 11
105591.4015839338
 21
-168582.8557888799
 31
0.0
 12
105589.7349172671
 22
-168572.8557888798
 32
0.0
 13
105589.7349172671
 23
-168572.8557888798
 33
0.0
  0
MTEXT
  5
D646F
330
D6251
100
AcDbEntity
  8
标注
 48
5.0
100
AcDbMText
 10
105589.7349172672
 20
-168811.8556559014
 30
0.0
 40
12.0
 41
0.0
 71
     5
 72
     1
  1
\A1;478
 11
0.0000000000000001
 21
1.0
 31
0.0
 73
     1
 44
1.0
1001
ACAD
1000
MTEXTBEGIN
1070
    73
1070
     1
1070
    44
1040
1.0
1070
    74
1070
     0
1000
MTEXTEND
  0
POINT
  5
D6470
330
D6251
100
AcDbEntity
  8
Defpoints
 62
     0
 48
5.0
100
AcDbPoint
 10
105410.4400177289
 20
-169050.855522923
 30
0.0
  0
POINT
  5
D6471
330
D6251
100
AcDbEntity
  8
Defpoints
 62
     0
 48
5.0
100
AcDbPoint
 10
105284.9400177293
 20
-168572.8557888798
 30
0.0
  0
POINT
  5
D6472
330
D6251
100
AcDbEntity
  8
Defpoints
 62
     0
 48
5.0
100
AcDbPoint
 10
105589.7349172671
 20
-168572.8557888798
 30
0.0
  0
ENDBLK
  5
D6253
330
D6251
100
AcDbEntity
  8
0
 48
5.0
100
AcDbBlockEnd
  0
BLOCK
  5
D6268
330
D6267
100
AcDbEntity
  8
0
 48
5.0
100
AcDbBlockBegin
  2
*D40
 70
     1
 10
0.0
 20
0.0
 30
0.0
  3
*D40
  1

  0
LINE
  5
D647C
330
D6267
100
AcDbEntity
  8
标注
 48
5.0
370
    -2
100
AcDbLine
 10
104886.4400177288
 20
-169046.855522923
 30
0.0
 11
104708.2433499062
 21
-169046.855522923
 31
0.0
  0
LINE
  5
D647D
330
D6267
100
AcDbEntity
  8
标注
 48
5.0
370
    -2
100
AcDbLine
 10
104886.4400177295
 20
-168634.855522923
 30
0.0
 11
104708.2433499062
 21
-168634.855522923
 31
0.0
  0
LINE
  5
D647E
330
D6267
100
AcDbEntity
  8
标注
 48
5.0
370
    -2
100
AcDbLine
 10
104715.2433499062
 20
-169036.855522923
 30
0.0
 11
104715.2433499062
 21
-168853.3221895897
 31
0.0
  0
LINE
  5
D647F
330
D6267
100
AcDbEntity
  8
标注
 48
5.0
370
    -2
100
AcDbLine
 10
104715.2433499062
 20
-168644.855522923
 30
0.0
 11
104715.2433499062
 21
-168828.3888562563
 31
0.0
  0
SOLID
  5
D6480
330
D6267
100
AcDbEntity
  8
标注
 48
5.0
100
AcDbTrace
 10
104713.5766832395
 20
-169036.855522923
 30
0.0
 11
104716.9100165728
 21
-169036.855522923
 31
0.0
 12
104715.2433499062
 22
-169046.855522923
 32
0.0
 13
104715.2433499062
 23
-169046.855522923
 33
0.0
  0
SOLID
  5
D6481
330
D6267
100
AcDbEntity
  8
标注
 48
5.0
100
AcDbTrace
 10
104713.5766832395
 20
-168644.855522923
 30
0.0
 11
104716.9100165728
 21
-168644.855522923
 31
0.0
 12
104715.2433499062
 22
-168634.855522923
 32
0.0
 13
104715.2433499062
 23
-168634.855522923
 33
0.0
  0
MTEXT
  5
D6482
330
D6267
100
AcDbEntity
  8
标注
 48
5.0
100
AcDbMText
 10
104715.2433499062
 20
-168840.855522923
 30
0.0
 40
12.0
 41
0.0
 71
     5
 72
     1
  1
\A1;412
 11
0.0000000000000001
 21
1.0
 31
0.0
 73
     1
 44
1.0
1001
ACAD
1000
MTEXTBEGIN
1070
    73
1070
     1
1070
    44
1040
1.0
1070
    74
1070
     0
1000
MTEXTEND
  0
POINT
  5
D6483
330
D6267
100
AcDbEntity
  8
Defpoints
 62
     0
 48
5.0
100
AcDbPoint
 10
104893.4400177288
 20
-169046.855522923
 30
0.0
  0
POINT
  5
D6484
330
D6267
100
AcDbEntity
  8
Defpoints
 62
     0
 48
5.0
100
AcDbPoint
 10
104893.4400177295
 20
-168634.855522923
 30
0.0
  0
POINT
  5
D6485
330
D6267
100
AcDbEntity
  8
Defpoints
 62
     0
 48
5.0
100
AcDbPoint
 10
104715.2433499062
 20
-168634.855522923
 30
0.0
  0
ENDBLK
  5
D6269
330
D6267
100
AcDbEntity
  8
0
 48
5.0
100
AcDbBlockEnd
  0
BLOCK
  5
D6275
330
D6274
100
AcDbEntity
  8
0
 48
5.0
100
AcDbBlockBegin
  2
*D41
 70
     1
 10
0.0
 20
0.0
 30
0.0
  3
*D41
  1

  0
LINE
  5
D64DA
330
D6274
100
AcDbEntity
  8
标注
 48
5.0
370
    -2
100
AcDbLine
 10
104886.4400177289
 20
-169050.855522923
 30
0.0
 11
104680.469525599
 21
-169050.855522923
 31
0.0
  0
LINE
  5
D64DB
330
D6274
100
AcDbEntity
  8
标注
 48
5.0
370
    -2
100
AcDbLine
 10
104886.4400177289
 20
-168630.855522923
 30
0.0
 11
104680.469525599
 21
-168630.855522923
 31
0.0
  0
LINE
  5
D64DC
330
D6274
100
AcDbEntity
  8
标注
 48
5.0
370
    -2
100
AcDbLine
 10
104687.469525599
 20
-169040.855522923
 30
0.0
 11
104687.469525599
 21
-168853.4221895896
 31
0.0
  0
LINE
  5
D64DD
330
D6274
100
AcDbEntity
  8
标注
 48
5.0
370
    -2
100
AcDbLine
 10
104687.469525599
 20
-168640.855522923
 30
0.0
 11
104687.469525599
 21
-168828.2888562563
 31
0.0
  0
SOLID
  5
D64DE
330
D6274
100
AcDbEntity
  8
标注
 48
5.0
100
AcDbTrace
 10
104685.8028589324
 20
-169040.855522923
 30
0.0
 11
104689.1361922657
 21
-169040.855522923
 31
0.0
 12
104687.469525599
 22
-169050.855522923
 32
0.0
 13
104687.469525599
 23
-169050.855522923
 33
0.0
  0
SOLID
  5
D64DF
330
D6274
100
AcDbEntity
  8
标注
 48
5.0
100
AcDbTrace
 10
104685.8028589324
 20
-168640.855522923
 30
0.0
 11
104689.1361922657
 21
-168640.855522923
 31
0.0
 12
104687.469525599
 22
-168630.855522923
 32
0.0
 13
104687.469525599
 23
-168630.855522923
 33
0.0
  0
MTEXT
  5
D64E0
330
D6274
100
AcDbEntity
  8
标注
 48
5.0
100
AcDbMText
 10
104687.4695255991
 20
-168840.8555229228
 30
0.0
 40
12.0
 41
0.0
 71
     5
 72
     1
  1
\A1;420
 11
0.0000000000000001
 21
1.0
 31
0.0
 73
     1
 44
1.0
1001
ACAD
1000
MTEXTBEGIN
1070
    73
1070
     1
1070
    44
1040
1.0
1070
    74
1070
     0
1000
MTEXTEND
  0
POINT
  5
D64E1
330
D6274
100
AcDbEntity
  8
Defpoints
 62
     0
 48
5.0
100
AcDbPoint
 10
104893.4400177289
 20
-169050.855522923
 30
0.0
  0
POINT
  5
D64E2
330
D6274
100
AcDbEntity
  8
Defpoints
 62
     0
 48
5.0
100
AcDbPoint
 10
104893.4400177289
 20
-168630.855522923
 30
0.0
  0
POINT
  5
D64E3
330
D6274
100
AcDbEntity
  8
Defpoints
 62
     0
 48
5.0
100
AcDbPoint
 10
104687.469525599
 20
-168630.855522923
 30
0.0
  0
ENDBLK
  5
D6276
330
D6274
100
AcDbEntity
  8
0
 48
5.0
100
AcDbBlockEnd
  0
BLOCK
  5
D628B
330
D628A
100
AcDbEntity
  8
0
 48
5.0
100
AcDbBlockBegin
  2
*D42
 70
     1
 10
0.0
 20
0.0
 30
0.0
  3
*D42
  1

  0
LINE
  5
D64B7
330
D628A
100
AcDbEntity
  8
标注
 48
5.0
370
    -2
100
AcDbLine
 10
104805.41670045
 20
-168670.6193444461
 30
0.0
 11
104798.9391639751
 21
-168663.0008458264
 31
0.0
  0
MTEXT
  5
D64B8
330
D628A
100
AcDbEntity
  8
标注
 48
5.0
100
AcDbMText
 10
104813.5783964083
 20
-168680.2186527067
 30
0.0
 40
12.0
 41
0.0
 71
     5
 72
     1
  1
\A1;R80
 11
0.6477536474836323
 21
-0.7618498619620865
 31
0.0
 73
     1
 44
1.0
1001
ACAD
1000
MTEXTBEGIN
1070
    73
1070
     1
1070
    44
1040
1.0
1070
    74
1070
     0
1000
MTEXTEND
  0
SOLID
  5
D64B9
330
D628A
100
AcDbEntity
  8
标注
 48
5.0
100
AcDbTrace
 10
104800.2089137451
 20
-168661.921256414
 30
0.0
 11
104797.6694142052
 21
-168664.0804352389
 31
0.0
 12
104792.4616275003
 22
-168655.3823472068
 32
0.0
 13
104792.4616275003
 23
-168655.3823472068
 33
0.0
  0
POINT
  5
D64BA
330
D628A
100
AcDbEntity
  8
Defpoints
 62
     0
 48
5.0
100
AcDbPoint
 10
104792.4616275003
 20
-168655.3823472068
 30
0.0
  0
POINT
  5
D64BB
330
D628A
100
AcDbEntity
  8
Defpoints
 62
     0
 48
5.0
100
AcDbPoint
 10
104844.281919298
 20
-168716.3303361627
 30
0.0
  0
ENDBLK
  5
D628C
330
D628A
100
AcDbEntity
  8
0
 48
5.0
100
AcDbBlockEnd
  0
BLOCK
  5
D6294
330
D6293
100
AcDbEntity
  8
0
 48
5.0
100
AcDbBlockBegin
  2
*D43
 70
     1
 10
0.0
 20
0.0
 30
0.0
  3
*D43
  1

  0
LINE
  5
D64BC
330
D6293
100
AcDbEntity
  8
标注
 48
5.0
370
    -2
100
AcDbLine
 10
104850.4716339142
 20
-168655.905172794
 30
0.0
 11
104849.9833568254
 21
-168645.9171006334
 31
0.0
  0
MTEXT
  5
D64BD
330
D6293
100
AcDbEntity
  8
标注
 48
5.0
100
AcDbMText
 10
104851.295194604
 20
-168672.7517211715
 30
0.0
 40
12.0
 41
0.0
 71
     5
 72
     1
  1
\A1;R900
 11
0.0488277088800853
 21
-0.9988072160559923
 31
0.0
 73
     1
 44
1.0
1001
ACAD
1000
MTEXTBEGIN
1070
    73
1070
     1
1070
    44
1040
1.0
1070
    74
1070
     0
1000
MTEXTEND
  0
SOLID
  5
D64BE
330
D6293
100
AcDbEntity
  8
标注
 48
5.0
100
AcDbTrace
 10
104851.6480355188
 20
-168645.8357211186
 30
0.0
 11
104848.318678132
 21
-168645.9984801482
 31
0.0
 12
104849.4950797366
 22
-168635.9290284728
 32
0.0
 13
104849.4950797366
 23
-168635.9290284728
 33
0.0
  0
POINT
  5
D64BF
330
D6293
100
AcDbEntity
  8
Defpoints
 62
     0
 48
5.0
100
AcDbPoint
 10
104849.4950797366
 20
-168635.9290284728
 30
0.0
  0
POINT
  5
D64C0
330
D6293
100
AcDbEntity
  8
Defpoints
 62
     0
 48
5.0
100
AcDbPoint
 10
104893.4400177286
 20
-169534.8555229207
 30
0.0
  0
ENDBLK
  5
D6295
330
D6293
100
AcDbEntity
  8
0
 48
5.0
100
AcDbBlockEnd
  0
BLOCK
  5
D629D
330
D629C
100
AcDbEntity
  8
0
 48
5.0
100
AcDbBlockBegin
  2
*D44
 70
     1
 10
0.0
 20
0.0
 30
0.0
  3
*D44
  1

  0
LINE
  5
D64C1
330
D629C
100
AcDbEntity
  8
标注
 48
5.0
370
    -2
100
AcDbLine
 10
104800.1356912966
 20
-169006.01456937
 30
0.0
 11
104792.7779866295
 21
-169012.7868793181
 31
0.0
  0
MTEXT
  5
D64C2
330
D629C
100
AcDbEntity
  8
标注
 48
5.0
100
AcDbMText
 10
104809.4063991772
 20
-168997.4814588356
 30
0.0
 40
12.0
 41
0.0
 71
     5
 72
     1
  1
\A1;R80
 11
0.7357704667106909
 21
0.6772309947989182
 31
0.0
 73
     1
 44
1.0
1001
ACAD
1000
MTEXTBEGIN
1070
    73
1070
     1
1070
    44
1040
1.0
1070
    74
1070
     0
1000
MTEXTEND
  0
SOLID
  5
D64C3
330
D629C
100
AcDbEntity
  8
标注
 48
5.0
100
AcDbTrace
 10
104791.6492683048
 20
-169011.5605952069
 30
0.0
 11
104793.9067049541
 21
-169014.0131634293
 31
0.0
 12
104785.4202819624
 22
-169019.5591892661
 32
0.0
 13
104785.4202819624
 23
-169019.5591892661
 33
0.0
  0
POINT
  5
D64C4
330
D629C
100
AcDbEntity
  8
Defpoints
 62
     0
 48
5.0
100
AcDbPoint
 10
104785.4202819624
 20
-169019.5591892661
 30
0.0
  0
POINT
  5
D64C5
330
D629C
100
AcDbEntity
  8
Defpoints
 62
     0
 48
5.0
100
AcDbPoint
 10
104844.2819192988
 20
-168965.3807096825
 30
0.0
  0
ENDBLK
  5
D629E
330
D629C
100
AcDbEntity
  8
0
 48
5.0
100
AcDbBlockEnd
  0
BLOCK
  5
D62A6
330
D62A5
100
AcDbEntity
  8
0
 48
5.0
100
AcDbBlockBegin
  2
*D45
 70
     1
 10
0.0
 20
0.0
 30
0.0
  3
*D45
  1

  0
LINE
  5
D64C6
330
D62A5
100
AcDbEntity
  8
标注
 48
5.0
370
    -2
100
AcDbLine
 10
105466.8137101361
 20
-169003.6182466452
 30
0.0
 11
105473.860421687
 21
-169010.7135871105
 31
0.0
  0
MTEXT
  5
D64C7
330
D62A5
100
AcDbEntity
  8
标注
 48
5.0
100
AcDbMText
 10
105454.9282566535
 20
-168991.6507723937
 30
0.0
 40
12.0
 41
0.0
 71
     5
 72
     1
  1
\A1;R100
 11
0.7046711550909281
 21
-0.7095340465282954
 31
0.0
 73
     1
 44
1.0
1001
ACAD
1000
MTEXTBEGIN
1070
    73
1070
     1
1070
    44
1040
1.0
1070
    74
1070
     0
1000
MTEXTEND
  0
SOLID
  5
D64C8
330
D62A5
100
AcDbEntity
  8
标注
 48
5.0
100
AcDbTrace
 10
105475.0429784312
 20
-169009.5391351854
 30
0.0
 11
105472.6778649428
 21
-169011.8880390357
 31
0.0
 12
105480.9071332379
 22
-169017.8089275758
 32
0.0
 13
105480.9071332379
 23
-169017.8089275758
 33
0.0
  0
POINT
  5
D64C9
330
D62A5
100
AcDbEntity
  8
Defpoints
 62
     0
 48
5.0
100
AcDbPoint
 10
105480.9071332379
 20
-169017.8089275758
 30
0.0
  0
POINT
  5
D64CA
330
D62A5
100
AcDbEntity
  8
Defpoints
 62
     0
 48
5.0
100
AcDbPoint
 10
105410.4400177289
 20
-168946.855522923
 30
0.0
  0
ENDBLK
  5
D62A7
330
D62A5
100
AcDbEntity
  8
0
 48
5.0
100
AcDbBlockEnd
  0
BLOCK
  5
D62AF
330
D62AE
100
AcDbEntity
  8
0
 48
5.0
100
AcDbBlockBegin
  2
*D46
 70
     1
 10
0.0
 20
0.0
 30
0.0
  3
*D46
  1

  0
LINE
  5
D64CB
330
D62AE
100
AcDbEntity
  8
标注
 48
5.0
370
    -2
100
AcDbLine
 10
105473.2018253303
 20
-168676.5527043718
 30
0.0
 11
105481.9705258733
 21
-168671.7454295941
 31
0.0
  0
MTEXT
  5
D64CC
330
D62AE
100
AcDbEntity
  8
标注
 48
5.0
100
AcDbMText
 10
105458.4119504145
 20
-168684.6609744967
 30
0.0
 40
12.0
 41
0.0
 71
     5
 72
     1
  1
\A1;R160
 11
0.876870054295893
 21
0.4807274777658523
 31
0.0
 73
     1
 44
1.0
1001
ACAD
1000
MTEXTBEGIN
1070
    73
1070
     1
1070
    44
1040
1.0
1070
    74
1070
     0
1000
MTEXTEND
  0
SOLID
  5
D64CD
330
D62AE
100
AcDbEntity
  8
标注
 48
5.0
100
AcDbTrace
 10
105481.1693134103
 20
-168670.2839795036
 30
0.0
 11
105482.7717383362
 21
-168673.2068796846
 31
0.0
 12
105490.7392264162
 22
-168666.9381548164
 32
0.0
 13
105490.7392264162
 23
-168666.9381548164
 33
0.0
  0
POINT
  5
D64CE
330
D62AE
100
AcDbEntity
  8
Defpoints
 62
     0
 48
5.0
100
AcDbPoint
 10
105490.7392264162
 20
-168666.9381548164
 30
0.0
  0
POINT
  5
D64CF
330
D62AE
100
AcDbEntity
  8
Defpoints
 62
     0
 48
5.0
100
AcDbPoint
 10
105350.4400177297
 20
-168743.8545512585
 30
0.0
  0
ENDBLK
  5
D62B0
330
D62AE
100
AcDbEntity
  8
0
 48
5.0
100
AcDbBlockEnd
  0
BLOCK
  5
D62B8
330
D62B7
100
AcDbEntity
  8
0
 48
5.0
100
AcDbBlockBegin
  2
*D47
 70
     1
 10
0.0
 20
0.0
 30
0.0
  3
*D47
  1

  0
LINE
  5
D64D0
330
D62B7
100
AcDbEntity
  8
标注
 48
5.0
370
    -2
100
AcDbLine
 10
105290.5768042445
 20
-168603.8034615567
 30
0.0
 11
105290.7919494558
 21
-168586.8930133262
 31
0.0
  0
MTEXT
  5
D64D1
330
D62B7
100
AcDbEntity
  8
标注
 48
5.0
100
AcDbMText
 10
105290.3622334144
 20
-168620.6687633269
 30
0.0
 40
12.0
 41
0.0
 71
     5
 72
     1
  1
\A1;R470
 11
0.0127215907164757
 21
0.9999190772905787
 31
0.0
 73
     1
 44
1.0
1001
ACAD
1000
MTEXTBEGIN
1070
    73
1070
     1
1070
    44
1040
1.0
1070
    74
1070
     0
1000
MTEXTEND
  0
SOLID
  5
D64D2
330
D62B7
100
AcDbEntity
  8
标注
 48
5.0
100
AcDbTrace
 10
105289.1254176604
 20
-168586.871810675
 30
0.0
 11
105292.4584812513
 21
-168586.9142159774
 31
0.0
 12
105290.919165363
 22
-168576.8938225533
 32
0.0
 13
105290.919165363
 23
-168576.8938225533
 33
0.0
  0
POINT
  5
D64D3
330
D62B7
100
AcDbEntity
  8
Defpoints
 62
     0
 48
5.0
100
AcDbPoint
 10
105290.919165363
 20
-168576.8938225533
 30
0.0
  0
POINT
  5
D64D4
330
D62B7
100
AcDbEntity
  8
Defpoints
 62
     0
 48
5.0
100
AcDbPoint
 10
105284.9400177263
 20
-169046.8557888784
 30
0.0
  0
ENDBLK
  5
D62B9
330
D62B7
100
AcDbEntity
  8
0
 48
5.0
100
AcDbBlockEnd
  0
BLOCK
  5
D62C0
330
D62BF
100
AcDbEntity
  8
0
 48
5.0
100
AcDbBlockBegin
  2
*D48
 70
     1
 10
0.0
 20
0.0
 30
0.0
  3
*D48
  1

  0
LINE
  5
D64D5
330
D62BF
100
AcDbEntity
  8
标注
 48
5.0
370
    -2
100
AcDbLine
 10
105096.3205667147
 20
-168612.5264429822
 30
0.0
 11
105102.735937744
 21
-168620.1973630415
 31
0.0
  0
MTEXT
  5
D64D6
330
D62BF
100
AcDbEntity
  8
标注
 48
5.0
100
AcDbMText
 10
105088.2371992178
 20
-168602.8610837075
 30
0.0
 40
12.0
 41
0.0
 71
     5
 72
     1
  1
\A1;R30
 11
0.6415371029305833
 21
-0.7670920059311232
 31
0.0
 73
     1
 44
1.0
1001
ACAD
1000
MTEXTBEGIN
1070
    73
1070
     1
1070
    44
1040
1.0
1070
    74
1070
     0
1000
MTEXTEND
  0
SOLID
  5
D64D7
330
D62BF
100
AcDbEntity
  8
标注
 48
5.0
100
AcDbTrace
 10
105104.0144244206
 20
-168619.1281345366
 30
0.0
 11
105101.4574510675
 21
-168621.2665915464
 31
0.0
 12
105109.1513087733
 22
-168627.8682831008
 32
0.0
 13
105109.1513087733
 23
-168627.8682831008
 33
0.0
  0
POINT
  5
D64D8
330
D62BF
100
AcDbEntity
  8
Defpoints
 62
     0
 48
5.0
100
AcDbPoint
 10
105109.1513087733
 20
-168627.8682831008
 30
0.0
  0
POINT
  5
D64D9
330
D62BF
100
AcDbEntity
  8
Defpoints
 62
     0
 48
5.0
100
AcDbPoint
 10
105089.9051956855
 20
-168604.855522923
 30
0.0
  0
ENDBLK
  5
D62C1
330
D62BF
100
AcDbEntity
  8
0
 48
5.0
100
AcDbBlockEnd
  0
ENDSEC
  0
SECTION
  2
ENTITIES
  0
LWPOLYLINE
  5
D6148
102
{ACAD_REACTORS
330
D6164
330
D616B
330
D6172
330
D6179
330
D617C
330
D617F
330
D6182
330
D6185
330
D6188
330
D618B
102
}
330
1F
100
AcDbEntity
  8
虚线
 48
5.0
100
AcDbPolyline
 90
       14
 70
     0
 43
0.0
 10
104764.4340738171
 20
-168970.3124002468
 42
0.3790098975626591
 10
104839.4860072563
 20
-169045.2368254633
 42
0.0149973409552557
 10
104893.4400177288
 20
-169046.855522923
 10
105410.4400177289
 20
-169046.855522923
 42
0.4142135623730951
 10
105510.4400177289
 20
-168946.855522923
 10
105510.4400177289
 20
-168743.854551258
 42
0.3531466961479098
 10
105384.246469342
 20
-168587.4668157128
 42
0.1068513340272297
 10
105185.6335661163
 20
-168587.4668157116
 42
0.1351321011353483
 10
105110.358062324
 20
-168626.8027379232
 42
-0.1897723166472056
 10
105089.9051956855
 20
-168634.855522923
 10
104893.4400177295
 20
-168634.855522923
 42
0.0149973409552556
 10
104839.4860072574
 20
-168636.4742203826
 42
0.3790098975626591
 10
104764.4340738172
 20
-168711.3986455966
 42
0.0308524056106652
 10
104764.4340738172
 20
-168970.3124002493
  0
LWPOLYLINE
  5
D6149
102
{ACAD_REACTORS
330
D6156
330
D615D
330
D6167
330
D616E
330
D6175
102
}
330
1F
100
AcDbEntity
  8
0
100
AcDbPolyline
 90
       13
 70
     1
 43
0.0
 10
104760.4416815429
 20
-168970.558984775
 42
0.3790098975625797
 10
104839.2462116542
 20
-169049.2296312523
 42
0.0149973409552522
 10
104893.4400177288
 20
-169050.855522923
 10
105410.4400177289
 20
-169050.855522923
 42
0.4142135623730951
 10
105514.4400177288
 20
-168946.855522923
 10
105514.4400177288
 20
-168743.854551258
 42
0.3531466961478988
 10
105385.0916306323
 20
-168583.5571223242
 42
0.1068513340272275
 10
105184.788404826
 20
-168583.5571223229
 42
0.1351321011353351
 10
105107.6310134389
 20
-168623.8764425899
 42
-0.1897723166471885
 10
105089.9051956855
 20
-168630.855522923
 10
104893.4400177295
 20
-168630.855522923
 42
0.0149973409552564
 10
104839.2462116553
 20
-168632.4814145936
 42
0.3790098975625802
 10
104760.4416815431
 20
-168711.1520610683
 42
0.0308524056106656
  0
LINE
  5
D614A
330
1F
100
AcDbEntity
  8
虚线
 48
5.0
100
AcDbLine
 10
105493.4400177388
 20
-168811.8556559014
 30
0.0
 11
105138.4400177288
 21
-168811.8556559014
 31
0.0
  0
LINE
  5
D614B
330
1F
100
AcDbEntity
  8
虚线
 48
5.0
100
AcDbLine
 10
105135.4400177288
 20
-169029.8555229329
 30
0.0
 11
105135.4400177288
 21
-168814.8556559013
 31
0.0
  0
CIRCLE
  5
D614C
102
{ACAD_REACTORS
330
D614F
102
}
330
1F
100
AcDbEntity
  8
细实线
 48
5.0
100
AcDbCircle
 10
105135.4400177288
 20
-168811.8556559014
 30
0.0
 40
3.0
  0
DIMENSION
  5
D614D
102
{ACAD_XDICTIONARY
360
D614E
102
}
102
{ACAD_REACTORS
330
D614F
102
}
330
1F
100
AcDbEntity
  8
标注
 48
5.0
100
AcDbDimension
  2
*D31
 10
105132.9610074463
 20
-168813.5451848355
 30
0.0
 11
105171.4230775438
 21
-168787.3319896924
 31
0.0
 70
    35
  1
{\fGulim|b0|i0|c129|p34;5-<>}
 71
     5
 42
5.999999999985447
  3
副本Standard
100
AcDbDiametricDimension
 15
105137.9190280113
 25
-168810.1661269672
 35
0.0
 40
0.0
1001
ACAD
1000
DSTYLE
1002
{
1070
    41
1040
10.0
1070
    49
1040
8.0
1070
   140
1040
12.0
1070
   147
1040
0.5
1070
   179
1070
     0
1070
   288
1070
     1
1070
   345
1005
15
1002
}
1001
ACAD_DSTYLE_DIMRADIAL_EXTENSION
1070
   387
1070
     1
1070
   388
1040
0.0
1070
   390
1040
0.0
  0
CIRCLE
  5
D6150
102
{ACAD_REACTORS
330
D6161
102
}
330
1F
100
AcDbEntity
  8
细实线
 48
5.0
100
AcDbCircle
 10
105135.4400177288
 20
-168621.000016365
 30
0.0
 40
3.0
  0
CIRCLE
  5
D6151
102
{ACAD_REACTORS
330
D615A
102
}
330
1F
100
AcDbEntity
  8
细实线
 48
5.0
100
AcDbCircle
 10
104774.4400177188
 20
-168811.8556559014
 30
0.0
 40
3.0
  0
CIRCLE
  5
D6152
102
{ACAD_REACTORS
330
D615D
102
}
330
1F
100
AcDbEntity
  8
细实线
 48
5.0
100
AcDbCircle
 10
105135.4400177288
 20
-169032.8555229329
 30
0.0
 40
3.0
  0
CIRCLE
  5
D6153
102
{ACAD_REACTORS
330
D6156
102
}
330
1F
100
AcDbEntity
  8
细实线
 48
5.0
100
AcDbCircle
 10
105496.4400177388
 20
-168811.8556559014
 30
0.0
 40
3.0
  0
DIMENSION
  5
D6154
102
{ACAD_XDICTIONARY
360
D6155
102
}
102
{ACAD_REACTORS
330
D6156
102
}
330
1F
100
AcDbEntity
  8
标注
 48
5.0
100
AcDbDimension
  2
*D32
 10
105514.4400177288
 20
-168839.496864151
 30
0.0
 11
105542.0066843955
 21
-168839.496864151
 31
0.0
 70
   160
 71
     5
 42
17.99999999004649
  3
副本Standard
100
AcDbAlignedDimension
 13
105496.4400177388
 23
-168811.8556559014
 33
0.0
 14
105514.4400177288
 24
-168811.8556559014
 34
0.0
 50
180.0
100
AcDbRotatedDimension
1001
ACAD
1000
DSTYLE
1002
{
1070
    41
1040
10.0
1070
    49
1040
8.0
1070
   140
1040
12.0
1070
   147
1040
0.5
1070
   179
1070
     0
1070
   345
1005
15
1002
}
  0
DIMENSION
  5
D6157
330
1F
100
AcDbEntity
  8
标注
 48
5.0
100
AcDbDimension
  2
*D26
 10
105135.4400177288
 20
-168839.496864151
 30
0.0
 11
105315.9400177338
 21
-168839.496864151
 31
0.0
 70
    32
 71
     5
 42
361.0000000099972
  3
副本Standard
100
AcDbAlignedDimension
 13
105496.4400177388
 23
-168811.8556559014
 33
0.0
 14
105135.4400177288
 24
-168811.8556559015
 34
0.0
 50
180.0
100
AcDbRotatedDimension
1001
ACAD
1000
DSTYLE
1002
{
1070
    41
1040
10.0
1070
    49
1040
8.0
1070
   140
1040
12.0
1070
   147
1040
0.5
1070
   179
1070
     0
1070
   345
1005
15
1002
}
  0
DIMENSION
  5
D6158
102
{ACAD_XDICTIONARY
360
D6159
102
}
102
{ACAD_REACTORS
330
D615A
102
}
330
1F
100
AcDbEntity
  8
标注
 48
5.0
100
AcDbDimension
  2
*D33
 10
104774.4400177188
 20
-168873.4776065214
 30
0.0
 11
105317.0566844005
 21
-168873.4776065214
 31
0.0
 70
   160
 71
     5
 42
722.0000000200525
  3
副本Standard
100
AcDbAlignedDimension
 13
105496.4400177388
 23
-168811.8556559014
 33
0.0
 14
104774.4400177188
 24
-168811.8556559014
 34
0.0
 50
180.0
100
AcDbRotatedDimension
1001
ACAD
1000
DSTYLE
1002
{
1070
    41
1040
10.0
1070
    49
1040
8.0
1070
   140
1040
12.0
1070
   147
1040
0.5
1070
   179
1070
     0
1070
   345
1005
15
1002
}
  0
DIMENSION
  5
D615B
102
{ACAD_XDICTIONARY
360
D615C
102
}
102
{ACAD_REACTORS
330
D615D
102
}
330
1F
100
AcDbEntity
  8
标注
 48
5.0
100
AcDbDimension
  2
*D34
 10
105110.6375275106
 20
-169050.855522923
 30
0.0
 11
105110.6375275106
 21
-169078.4221895896
 31
0.0
 70
   160
 71
     5
 42
17.99999999004649
  3
副本Standard
100
AcDbAlignedDimension
 13
105135.4400177288
 23
-169032.8555229329
 33
0.0
 14
105135.4400177288
 24
-169050.855522923
 34
0.0
 50
90.0
100
AcDbRotatedDimension
1001
ACAD
1000
DSTYLE
1002
{
1070
    41
1040
10.0
1070
    49
1040
8.0
1070
   140
1040
12.0
1070
   147
1040
0.5
1070
   179
1070
     0
1070
   345
1005
15
1002
}
  0
DIMENSION
  5
D615E
330
1F
100
AcDbEntity
  8
标注
 48
5.0
100
AcDbDimension
  2
*D27
 10
105110.6375275106
 20
-168811.8556559014
 30
0.0
 11
105110.6375275107
 21
-168922.3555894171
 31
0.0
 70
    32
 71
     5
 42
220.9998670315254
  3
副本Standard
100
AcDbAlignedDimension
 13
105135.4400177288
 23
-169032.8555229329
 33
0.0
 14
105135.4400177288
 24
-168811.8556559014
 34
0.0
 50
90.0
100
AcDbRotatedDimension
1001
ACAD
1000
DSTYLE
1002
{
1070
    41
1040
10.0
1070
    49
1040
8.0
1070
   140
1040
12.0
1070
   147
1040
0.5
1070
   179
1070
     0
1070
   345
1005
15
1002
}
  0
DIMENSION
  5
D615F
102
{ACAD_XDICTIONARY
360
D6160
102
}
102
{ACAD_REACTORS
330
D6161
102
}
330
1F
100
AcDbEntity
  8
标注
 48
5.0
100
AcDbDimension
  2
*D35
 10
105087.725866
 20
-168621.000016365
 30
0.0
 11
105087.7258660001
 21
-168915.2281895857
 31
0.0
 70
   160
 71
     5
 42
411.8555065679828
  3
副本Standard
100
AcDbAlignedDimension
 13
105135.4400177288
 23
-169032.8555229329
 33
0.0
 14
105135.4400177288
 24
-168621.000016365
 34
0.0
 50
90.0
100
AcDbRotatedDimension
1001
ACAD
1000
DSTYLE
1002
{
1070
    41
1040
10.0
1070
    49
1040
8.0
1070
   140
1040
12.0
1070
   147
1040
0.5
1070
   179
1070
     0
1070
   345
1005
15
1002
}
  0
DIMENSION
  5
D6162
102
{ACAD_XDICTIONARY
360
D6163
102
}
102
{ACAD_REACTORS
330
D6164
102
}
330
1F
100
AcDbEntity
  8
标注
 48
5.0
100
AcDbDimension
  2
*D36
 10
104760.4400177288
 20
-169100.6787528631
 30
0.0
 11
105135.4400177288
 21
-169100.6787528631
 31
0.0
 70
    32
 71
     5
 42
750.0000000000291
  3
副本Standard
100
AcDbAlignedDimension
 13
105510.4400177288
 23
-168946.855522923
 33
0.0
 14
104760.4400177288
 24
-168840.855522923
 34
0.0
 50
180.0
100
AcDbRotatedDimension
1001
ACAD
1000
DSTYLE
1002
{
1070
    41
1040
10.0
1070
    49
1040
8.0
1070
   140
1040
12.0
1070
   147
1040
0.5
1070
   179
1070
     0
1070
   345
1005
15
1002
}
  0
DIMENSION
  5
D6165
102
{ACAD_XDICTIONARY
360
D6166
102
}
102
{ACAD_REACTORS
330
D6167
102
}
330
1F
100
AcDbEntity
  8
标注
 48
5.0
100
AcDbDimension
  2
*D37
 10
104756.4400177288
 20
-169124.6964143755
 30
0.0
 11
105135.4400177288
 21
-169124.6964143755
 31
0.0
 70
    32
 71
     5
 42
758.0000000000437
  3
副本Standard
100
AcDbAlignedDimension
 13
105514.4400177288
 23
-168946.855522923
 33
0.0
 14
104756.4400177288
 24
-168840.8555229217
 34
0.0
 50
180.0
100
AcDbRotatedDimension
1001
ACAD
1000
DSTYLE
1002
{
1070
    41
1040
10.0
1070
    49
1040
8.0
1070
   140
1040
12.0
1070
   147
1040
0.5
1070
   179
1070
     0
1070
   345
1005
15
1002
}
  0
DIMENSION
  5
D6168
330
1F
100
AcDbEntity
  8
标注
 48
5.0
100
AcDbDimension
  2
*D28
 10
104756.4400177288
 20
-169100.6787528631
 30
0.0
 11
104732.2733510621
 21
-169100.6787528631
 31
0.0
 70
    32
 71
     5
 42
4.000000000029102
  3
副本Standard
100
AcDbAlignedDimension
 13
104760.4400177288
 23
-169100.6787528631
 33
0.0
 14
104756.4400177288
 24
-169100.6787528631
 34
0.0
 50
180.0
100
AcDbRotatedDimension
1001
ACAD
1000
DSTYLE
1002
{
1070
    41
1040
10.0
1070
    49
1040
8.0
1070
   140
1040
12.0
1070
   147
1040
0.5
1070
   179
1070
     0
1070
   345
1005
15
1002
}
  0
DIMENSION
  5
D6169
102
{ACAD_XDICTIONARY
360
D616A
102
}
102
{ACAD_REACTORS
330
D616B
102
}
330
1F
100
AcDbEntity
  8
标注
 48
5.0
100
AcDbDimension
  2
*D38
 10
105562.4844547747
 20
-169046.855522923
 30
0.0
 11
105562.4844547748
 21
-168811.8556559014
 31
0.0
 70
    32
 71
     5
 42
469.9997340431436
  3
副本Standard
100
AcDbAlignedDimension
 13
105284.9400177293
 23
-168576.8557888798
 33
0.0
 14
105410.4400177289
 24
-169046.855522923
 34
0.0
 50
90.0
100
AcDbRotatedDimension
1001
ACAD
1000
DSTYLE
1002
{
1070
    41
1040
10.0
1070
    49
1040
8.0
1070
   140
1040
12.0
1070
   147
1040
0.5
1070
   179
1070
     0
1070
   345
1005
15
1002
}
  0
DIMENSION
  5
D616C
102
{ACAD_XDICTIONARY
360
D616D
102
}
102
{ACAD_REACTORS
330
D616E
102
}
330
1F
100
AcDbEntity
  8
标注
 48
5.0
100
AcDbDimension
  2
*D39
 10
105589.7349172671
 20
-168572.8557888798
 30
0.0
 11
105589.7349172672
 21
-168811.8556559014
 31
0.0
 70
    32
 71
     5
 42
477.9997340431436
  3
副本Standard
100
AcDbAlignedDimension
 13
105410.4400177289
 23
-169050.855522923
 33
0.0
 14
105284.9400177293
 24
-168572.8557888798
 34
0.0
 50
90.0
100
AcDbRotatedDimension
1001
ACAD
1000
DSTYLE
1002
{
1070
    41
1040
10.0
1070
    49
1040
8.0
1070
   140
1040
12.0
1070
   147
1040
0.5
1070
   179
1070
     0
1070
   345
1005
15
1002
}
  0
DIMENSION
  5
D616F
330
1F
100
AcDbEntity
  8
标注
 48
5.0
100
AcDbDimension
  2
*D29
 10
105562.4844547747
 20
-168572.8557888798
 30
0.0
 11
105562.4844547748
 21
-168548.6891222131
 31
0.0
 70
    32
 71
     5
 42
4.0
  3
副本Standard
100
AcDbAlignedDimension
 13
105562.4844547747
 23
-168576.8557888798
 33
0.0
 14
105562.4844547747
 24
-168572.8557888798
 34
0.0
 50
90.0
100
AcDbRotatedDimension
1001
ACAD
1000
DSTYLE
1002
{
1070
    41
1040
10.0
1070
    49
1040
8.0
1070
   140
1040
12.0
1070
   147
1040
0.5
1070
   179
1070
     0
1070
   345
1005
15
1002
}
  0
DIMENSION
  5
D6170
102
{ACAD_XDICTIONARY
360
D6171
102
}
102
{ACAD_REACTORS
330
D6172
102
}
330
1F
100
AcDbEntity
  8
标注
 48
5.0
100
AcDbDimension
  2
*D40
 10
104715.2433499062
 20
-168634.855522923
 30
0.0
 11
104715.2433499062
 21
-168840.855522923
 31
0.0
 70
    32
 71
     5
 42
412.0
  3
副本Standard
100
AcDbAlignedDimension
 13
104893.4400177288
 23
-169046.855522923
 33
0.0
 14
104893.4400177295
 24
-168634.855522923
 34
0.0
 50
90.0
100
AcDbRotatedDimension
1001
ACAD
1000
DSTYLE
1002
{
1070
    41
1040
10.0
1070
    49
1040
8.0
1070
   140
1040
12.0
1070
   147
1040
0.5
1070
   179
1070
     0
1070
   345
1005
15
1002
}
  0
DIMENSION
  5
D6173
102
{ACAD_XDICTIONARY
360
D6174
102
}
102
{ACAD_REACTORS
330
D6175
102
}
330
1F
100
AcDbEntity
  8
标注
 48
5.0
100
AcDbDimension
  2
*D41
 10
104687.469525599
 20
-168630.855522923
 30
0.0
 11
104687.4695255991
 21
-168840.8555229228
 31
0.0
 70
    32
 71
     5
 42
419.9999999999707
  3
副本Standard
100
AcDbAlignedDimension
 13
104893.4400177289
 23
-169050.855522923
 33
0.0
 14
104893.4400177289
 24
-168630.855522923
 34
0.0
 50
90.0
100
AcDbRotatedDimension
1001
ACAD
1000
DSTYLE
1002
{
1070
    41
1040
10.0
1070
    49
1040
8.0
1070
   140
1040
12.0
1070
   147
1040
0.5
1070
   179
1070
     0
1070
   345
1005
15
1002
}
  0
DIMENSION
  5
D6176
330
1F
100
AcDbEntity
  8
标注
 48
5.0
100
AcDbDimension
  2
*D30
 10
104715.2433499062
 20
-168630.855522923
 30
0.0
 11
104715.2433499062
 21
-168606.6888562563
 31
0.0
 70
    32
 71
     5
 42
4.0
  3
副本Standard
100
AcDbAlignedDimension
 13
104715.2433499062
 23
-168634.855522923
 33
0.0
 14
104715.2433499062
 24
-168630.855522923
 34
0.0
 50
90.0
100
AcDbRotatedDimension
1001
ACAD
1000
DSTYLE
1002
{
1070
    41
1040
10.0
1070
    49
1040
8.0
1070
   140
1040
12.0
1070
   147
1040
0.5
1070
   179
1070
     0
1070
   345
1005
15
1002
}
  0
DIMENSION
  5
D6177
102
{ACAD_XDICTIONARY
360
D6178
102
}
102
{ACAD_REACTORS
330
D6179
102
}
330
1F
100
AcDbEntity
  8
标注
 48
5.0
100
AcDbDimension
  2
*D42
 10
104844.281919298
 20
-168716.3303361627
 30
0.0
 11
104813.5783964083
 21
-168680.2186527067
 31
0.0
 70
   164
 71
     5
 42
79.99999999854479
  3
副本Standard
100
AcDbRadialDimension
 15
104792.4616275003
 25
-168655.3823472068
 35
0.0
 40
0.0
1001
ACAD
1000
DSTYLE
1002
{
1070
    41
1040
10.0
1070
    49
1040
8.0
1070
   140
1040
12.0
1070
   147
1040
0.5
1070
   179
1070
     0
1070
   288
1070
     1
1070
   345
1005
15
1002
}
1001
ACAD_DSTYLE_DIMRADIAL_EXTENSION
1070
   387
1070
     1
1070
   388
1040
1.630781193599681
1070
   390
1040
3.079907409517066
  0
DIMENSION
  5
D617A
102
{ACAD_XDICTIONARY
360
D617B
102
}
102
{ACAD_REACTORS
330
D617C
102
}
330
1F
100
AcDbEntity
  8
标注
 48
5.0
100
AcDbDimension
  2
*D43
 10
104893.4400177286
 20
-169534.8555229207
 30
0.0
 11
104851.295194604
 21
-168672.7517211715
 31
0.0
 70
   164
 71
     5
 42
899.9999999974678
  3
副本Standard
100
AcDbRadialDimension
 15
104849.4950797366
 25
-168635.9290284728
 35
0.0
 40
0.0
1001
ACAD
1000
DSTYLE
1002
{
1070
    41
1040
10.0
1070
    49
1040
8.0
1070
   140
1040
12.0
1070
   147
1040
0.5
1070
   179
1070
     0
1070
   288
1070
     1
1070
   345
1005
15
1002
}
1001
ACAD_DSTYLE_DIMRADIAL_EXTENSION
1070
   387
1070
     1
1070
   388
1040
1.570796326793813
1070
   390
1040
1.630781193614414
  0
DIMENSION
  5
D617D
102
{ACAD_XDICTIONARY
360
D617E
102
}
102
{ACAD_REACTORS
330
D617F
102
}
330
1F
100
AcDbEntity
  8
标注
 48
5.0
100
AcDbDimension
  2
*D44
 10
104844.2819192988
 20
-168965.3807096825
 30
0.0
 11
104809.4063991772
 21
-168997.4814588356
 31
0.0
 70
   164
 71
     5
 42
79.99999999943248
  3
副本Standard
100
AcDbRadialDimension
 15
104785.4202819624
 25
-169019.5591892661
 35
0.0
 40
0.0
1001
ACAD
1000
DSTYLE
1002
{
1070
    41
1040
10.0
1070
    49
1040
8.0
1070
   140
1040
12.0
1070
   147
1040
0.5
1070
   179
1070
     0
1070
   288
1070
     1
1070
   345
1005
15
1002
}
1001
ACAD_DSTYLE_DIMRADIAL_EXTENSION
1070
   387
1070
     1
1070
   388
1040
3.203277897639299
1070
   390
1040
4.652404113556823
  0
DIMENSION
  5
D6180
102
{ACAD_XDICTIONARY
360
D6181
102
}
102
{ACAD_REACTORS
330
D6182
102
}
330
1F
100
AcDbEntity
  8
标注
 48
5.0
100
AcDbDimension
  2
*D45
 10
105410.4400177289
 20
-168946.855522923
 30
0.0
 11
105454.9282566535
 21
-168991.6507723937
 31
0.0
 70
   164
 71
     5
 42
100.0
  3
副本Standard
100
AcDbRadialDimension
 15
105480.9071332379
 25
-169017.8089275758
 35
0.0
 40
0.0
1001
ACAD
1000
DSTYLE
1002
{
1070
    41
1040
10.0
1070
    49
1040
8.0
1070
   140
1040
12.0
1070
   147
1040
0.5
1070
   179
1070
     0
1070
   288
1070
     1
1070
   345
1005
15
1002
}
1001
ACAD_DSTYLE_DIMRADIAL_EXTENSION
1070
   387
1070
     1
1070
   388
1040
4.712388980384688
1070
   390
1040
0.0
  0
DIMENSION
  5
D6183
102
{ACAD_XDICTIONARY
360
D6184
102
}
102
{ACAD_REACTORS
330
D6185
102
}
330
1F
100
AcDbEntity
  8
标注
 48
5.0
100
AcDbDimension
  2
*D46
 10
105350.4400177297
 20
-168743.8545512585
 30
0.0
 11
105458.4119504145
 21
-168684.6609744967
 31
0.0
 70
   164
 71
     5
 42
159.9999999990395
  3
副本Standard
100
AcDbRadialDimension
 15
105490.7392264162
 25
-168666.9381548164
 35
0.0
 40
0.0
1001
ACAD
1000
DSTYLE
1002
{
1070
    41
1040
10.0
1070
    49
1040
8.0
1070
   140
1040
12.0
1070
   147
1040
0.5
1070
   179
1070
     0
1070
   288
1070
     1
1070
   345
1005
15
1002
}
1001
ACAD_DSTYLE_DIMRADIAL_EXTENSION
1070
   387
1070
     1
1070
   388
1040
0.0000000000032742
1070
   390
1040
1.357901428345679
  0
DIMENSION
  5
D6186
102
{ACAD_XDICTIONARY
360
D6187
102
}
102
{ACAD_REACTORS
330
D6188
102
}
330
1F
100
AcDbEntity
  8
标注
 48
5.0
100
AcDbDimension
  2
*D47
 10
105284.9400177263
 20
-169046.8557888784
 30
0.0
 11
105290.3622334144
 21
-168620.6687633269
 31
0.0
 70
   164
 71
     5
 42
469.9999999984866
  3
副本Standard
100
AcDbRadialDimension
 15
105290.919165363
 25
-168576.8938225533
 35
0.0
 40
0.0
1001
ACAD
1000
DSTYLE
1002
{
1070
    41
1040
10.0
1070
    49
1040
8.0
1070
   140
1040
12.0
1070
   147
1040
0.5
1070
   179
1070
     0
1070
   288
1070
     1
1070
   345
1005
15
1002
}
1001
ACAD_DSTYLE_DIMRADIAL_EXTENSION
1070
   387
1070
     1
1070
   388
1040
1.357901428336037
1070
   390
1040
1.783691225241148
  0
DIMENSION
  5
D6189
102
{ACAD_XDICTIONARY
360
D618A
102
}
102
{ACAD_REACTORS
330
D618B
102
}
330
1F
100
AcDbEntity
  8
标注
 48
5.0
100
AcDbDimension
  2
*D48
 10
105089.9051956855
 20
-168604.855522923
 30
0.0
 11
105088.2371992178
 21
-168602.8610837075
 31
0.0
 70
   164
 71
     5
 42
29.99999999985448
  3
副本Standard
100
AcDbRadialDimension
 15
105109.1513087733
 25
-168627.8682831008
 35
0.0
 40
0.0
1001
ACAD
1000
DSTYLE
1002
{
1070
    41
1040
10.0
1070
    49
1040
8.0
1070
   140
1040
12.0
1070
   147
1040
0.5
1070
   179
1070
     0
1070
   288
1070
     1
1070
   345
1005
15
1002
}
1001
ACAD_DSTYLE_DIMRADIAL_EXTENSION
1070
   387
1070
     1
1070
   388
1040
4.712388980384688
1070
   390
1040
5.46255772829325
  0
LINE
  5
D618C
330
1F
100
AcDbEntity
  8
标注
100
AcDbLine
 10
105092.4051956855
 20
-168604.855522923
 30
0.0
 11
105087.4051956855
 21
-168604.855522923
 31
0.0
  0
LINE
  5
D618D
330
1F
100
AcDbEntity
  8
标注
100
AcDbLine
 10
105089.9051956855
 20
-168607.355522923
 30
0.0
 11
105089.9051956855
 21
-168602.355522923
 31
0.0
  0
LINE
  5
D6771
330
1F
100
AcDbEntity
  8
虚线
 48
5.0
100
AcDbLine
 10
105135.4400177288
 20
-168808.8556559014
 30
0.0
 11
105135.4400177288
 21
-168624.000016365
 31
0.0
  0
LINE
  5
D6772
330
1F
100
AcDbEntity
  8
虚线
 48
5.0
100
AcDbLine
 10
105132.4400177288
 20
-168811.8556559014
 30
0.0
 11
104777.4400177188
 21
-168811.8556559014
 31
0.0
  0
ENDSEC
  0
SECTION
  2
OBJECTS
  0
DICTIONARY
  5
C
330
0
100
AcDbDictionary
281
     1
  3
ACAD_2007HEADERVARS_RT
350
D67FB
  3
ACAD_COLOR
350
6C
  3
ACAD_GROUP
350
D
  3
ACAD_LAYOUT
350
1A
  3
ACAD_MATERIAL
350
6B
  3
ACAD_MLEADERSTYLE
350
CEDBA
  3
ACAD_MLINESTYLE
350
17
  3
ACAD_PLOTSETTINGS
350
19
  3
ACAD_PLOTSTYLENAME
350
E
  3
ACAD_SCALELIST
350
CED98
  3
ACAD_TABLESTYLE
350
FAF
  3
ACAD_VISUALSTYLE
350
CED87
  3
AcadDim
350
100FD
  3
ACDB_RECOMPOSE_DATA
350
D0C4C
  3
AcDbVariableDictionary
350
59
  3
ASE_INDEX_DICTIONARY
350
C2668
  3
DWGPROPS
350
D67FA
  3
lxx_dict
350
A9D16
  0
DICTIONARY
  5
AB
330
2
100
AcDbDictionary
280
     1
281
     1
  3
ACAD_LAYERFILTERS
360
176
  3
ACAD_LAYERSTATES
360
AC
  0
DICTIONARY
  5
CF251
330
10
100
AcDbDictionary
280
     1
281
     1
  3
ADSK_XREC_LAYER_RECONCILED
360
CF252
  0
DICTIONARY
  5
CF259
330
9D
100
AcDbDictionary
280
     1
281
     1
  3
ADSK_XREC_LAYER_RECONCILED
360
CF25A
  0
DICTIONARY
  5
CF25B
330
9E
100
AcDbDictionary
280
     1
281
     1
  3
ADSK_XREC_LAYER_RECONCILED
360
CF25C
  0
DICTIONARY
  5
CF25D
330
16DF9
100
AcDbDictionary
280
     1
281
     1
  3
ADSK_XREC_LAYER_RECONCILED
360
CF25E
  0
DICTIONARY
  5
118B
330
1F
100
AcDbDictionary
280
     1
281
     1
  3
ACAD_SORTENTS
360
118C
  0
DICTIONARY
  5
D6805
330
D5DBC
100
AcDbDictionary
280
     1
281
     1
  3
ACAD_MTEXT_RT
360
D6806
  0
DICTIONARY
  5
D6807
330
D64E6
100
AcDbDictionary
280
     1
281
     1
  3
ACAD_MTEXT_RT
360
D6808
  0
DICTIONARY
  5
D614E
330
D614D
100
AcDbDictionary
280
     1
281
     1
  3
ACAD_DIMASSOC
360
D614F
  0
DICTIONARY
  5
D6155
330
D6154
100
AcDbDictionary
280
     1
281
     1
  3
ACAD_DIMASSOC
360
D6156
  0
DICTIONARY
  5
D6159
330
D6158
100
AcDbDictionary
280
     1
281
     1
  3
ACAD_DIMASSOC
360
D615A
  0
DICTIONARY
  5
D615C
330
D615B
100
AcDbDictionary
280
     1
281
     1
  3
ACAD_DIMASSOC
360
D615D
  0
DICTIONARY
  5
D6160
330
D615F
100
AcDbDictionary
280
     1
281
     1
  3
ACAD_DIMASSOC
360
D6161
  0
DICTIONARY
  5
D6163
330
D6162
100
AcDbDictionary
280
     1
281
     1
  3
ACAD_DIMASSOC
360
D6164
  0
DICTIONARY
  5
D6166
330
D6165
100
AcDbDictionary
280
     1
281
     1
  3
ACAD_DIMASSOC
360
D6167
  0
DICTIONARY
  5
D616A
330
D6169
100
AcDbDictionary
280
     1
281
     1
  3
ACAD_DIMASSOC
360
D616B
  0
DICTIONARY
  5
D616D
330
D616C
100
AcDbDictionary
280
     1
281
     1
  3
ACAD_DIMASSOC
360
D616E
  0
DICTIONARY
  5
D6171
330
D6170
100
AcDbDictionary
280
     1
281
     1
  3
ACAD_DIMASSOC
360
D6172
  0
DICTIONARY
  5
D6174
330
D6173
100
AcDbDictionary
280
     1
281
     1
  3
ACAD_DIMASSOC
360
D6175
  0
DICTIONARY
  5
D6178
330
D6177
100
AcDbDictionary
280
     1
281
     1
  3
ACAD_DIMASSOC
360
D6179
  0
DICTIONARY
  5
D617B
330
D617A
100
AcDbDictionary
280
     1
281
     1
  3
ACAD_DIMASSOC
360
D617C
  0
DICTIONARY
  5
D617E
330
D617D
100
AcDbDictionary
280
     1
281
     1
  3
ACAD_DIMASSOC
360
D617F
  0
DICTIONARY
  5
D6181
330
D6180
100
AcDbDictionary
280
     1
281
     1
  3
ACAD_DIMASSOC
360
D6182
  0
DICTIONARY
  5
D6184
330
D6183
100
AcDbDictionary
280
     1
281
     1
  3
ACAD_DIMASSOC
360
D6185
  0
DICTIONARY
  5
D6187
330
D6186
100
AcDbDictionary
280
     1
281
     1
  3
ACAD_DIMASSOC
360
D6188
  0
DICTIONARY
  5
D618A
330
D6189
100
AcDbDictionary
280
     1
281
     1
  3
ACAD_DIMASSOC
360
D618B
  0
DICTIONARY
  5
D67FB
102
{ACAD_REACTORS
330
C
102
}
330
C
100
AcDbDictionary
281
     1
  3
DIMFXL
350
D67FC
  3
DIMLTYPE
350
D67FD
  0
DICTIONARY
  5
6C
102
{ACAD_REACTORS
330
C
102
}
330
C
100
AcDbDictionary
281
     1
  0
DICTIONARY
  5
D
102
{ACAD_REACTORS
330
C
102
}
330
C
100
AcDbDictionary
281
     1
  0
DICTIONARY
  5
1A
102
{ACAD_REACTORS
330
C
102
}
330
C
100
AcDbDictionary
281
     1
  3
Model
350
22
  3
布局1
350
74
  3
布局2
350
79
  0
DICTIONARY
  5
6B
102
{ACAD_REACTORS
330
C
102
}
330
C
100
AcDbDictionary
281
     1
  3
ByBlock
350
CED77
  3
ByLayer
350
CED6F
  3
Global
350
CED7F
  0
DICTIONARY
  5
CEDBA
102
{ACAD_REACTORS
330
C
102
}
330
C
100
AcDbDictionary
281
     1
  3
Standard
350
CEDBB
  0
DICTIONARY
  5
17
102
{ACAD_REACTORS
330
C
102
}
330
C
100
AcDbDictionary
281
     1
  3
Standard
350
18
  0
DICTIONARY
  5
19
102
{ACAD_REACTORS
330
C
102
}
330
C
100
AcDbDictionary
281
     1
  0
ACDBDICTIONARYWDFLT
  5
E
102
{ACAD_REACTORS
330
C
102
}
330
C
100
AcDbDictionary
281
     1
  3
Normal
350
F
100
AcDbDictionaryWithDefault
340
F
  0
DICTIONARY
  5
CED98
102
{ACAD_REACTORS
330
C
102
}
330
C
100
AcDbDictionary
281
     1
  3
A0
350
CED99
  3
A1
350
CED9A
  3
A2
350
CED9B
  3
A3
350
CED9C
  3
A4
350
CED9D
  3
A5
350
CED9E
  3
A6
350
CED9F
  3
A7
350
CEDA0
  3
A8
350
CEDA1
  3
A9
350
CEDA2
  3
B0
350
CEDA3
  3
B1
350
CEDA4
  3
B2
350
CEDA5
  3
B3
350
CEDA6
  3
B4
350
CEDA7
  3
B5
350
CEDA8
  3
B6
350
CEDA9
  3
B7
350
CEDAA
  3
B8
350
CEDAB
  3
B9
350
CEDAC
  3
C0
350
CEDAD
  3
C1
350
CEDAE
  3
C2
350
CEDAF
  3
C3
350
CEDB0
  3
C4
350
CEDB1
  3
C5
350
CEDB2
  3
C6
350
CEDB3
  3
C7
350
CEDB4
  3
C8
350
CEDB5
  3
C9
350
CEDB6
  3
D0
350
CEDB7
  3
D1
350
CEDB8
  3
D2
350
CEDB9
  0
DICTIONARY
  5
FAF
102
{ACAD_REACTORS
330
C
102
}
330
C
100
AcDbDictionary
281
     1
  3
Standard
350
FB0
  0
DICTIONARY
  5
CED87
102
{ACAD_REACTORS
330
C
102
}
330
C
100
AcDbDictionary
281
     1
  3
2dWireframe
350
CED8D
  3
3D Hidden
350
CED8F
  3
3dWireframe
350
CED8E
  3
Basic
350
CED8C
  3
Brighten
350
CED93
  3
ColorChange
350
CED97
  3
Conceptual
350
CED90
  3
Dim
350
CED92
  3
Facepattern
350
CED96
  3
Flat
350
CED88
  3
FlatWithEdges
350
CED89
  3
Gouraud
350
CED8A
  3
GouraudWithEdges
350
CED8B
  3
Linepattern
350
CED95
  3
Realistic
350
CED91
  3
Thicken
350
CED94
  0
XRECORD
  5
100FD
102
{ACAD_REACTORS
330
C
102
}
330
C
100
AcDbXrecord
280
     1
 90
   990106
  3

 60
     0
 61
     0
 62
     1
 63
     3
 64
     0
 65
     0
 66
     0
 67
     3
 68
     1
 69
     0
 70
     0
 71
     0
 72
     0
 40
0.0
170
     0
  0
XRECORD
  5
D0C4C
102
{ACAD_REACTORS
330
C
102
}
330
C
100
AcDbXrecord
280
     1
 90
        1
330
FB0
  0
DICTIONARY
  5
59
102
{ACAD_REACTORS
330
C
102
}
330
C
100
AcDbDictionary
281
     1
  3
CANNOSCALE
350
D0C4F
  3
CMLEADERSTYLE
350
D0C4D
  3
CTABLESTYLE
350
100D
  3
DIMASSOC
350
5A
  3
HIDETEXT
350
5E
  3
INDEXCTL
350
D67C7
  3
LIGHTINGUNITS
350
D0C50
  3
MSLTSCALE
350
D0C4E
  3
SORTENTS
350
D67C6
  0
DICTIONARY
  5
C2668
102
{ACAD_REACTORS
330
C
102
}
330
C
100
AcDbDictionary
281
     1
  3
ASEBlockHierarchyIndexRecord
350
C2669
1001
DCO15
1040
1779131318.625
  0
XRECORD
  5
D67FA
102
{ACAD_REACTORS
330
C
102
}
330
C
100
AcDbXrecord
280
     1
  1
DWGPROPS COOKIE
  2

  3

  4

  6

  7

  8
Administrator
  9

300
=
301
=
302
=
303
=
304
=
305
=
306
=
307
=
308
=
309
=
 40
8.976920879629629
 41
2454355.343801713
 42
2457938.594500451
  1

 90
        0
  0
DICTIONARY
  5
A9D16
102
{ACAD_REACTORS
330
C
102
}
330
C
100
AcDbDictionary
281
     1
  3
lxx_dimth
350
A9D17
  0
DICTIONARY
  5
176
102
{ACAD_REACTORS
330
AB
102
}
330
AB
100
AcDbDictionary
281
     1
  0
DICTIONARY
  5
AC
102
{ACAD_REACTORS
330
AB
102
}
330
AB
100
AcDbDictionary
281
     1
  0
XRECORD
  5
CF252
102
{ACAD_REACTORS
330
CF251
102
}
330
CF251
100
AcDbXrecord
280
     1
290
     1
  0
XRECORD
  5
CF25A
102
{ACAD_REACTORS
330
CF259
102
}
330
CF259
100
AcDbXrecord
280
     1
290
     1
  0
XRECORD
  5
CF25C
102
{ACAD_REACTORS
330
CF25B
102
}
330
CF25B
100
AcDbXrecord
280
     1
290
     1
  0
XRECORD
  5
CF25E
102
{ACAD_REACTORS
330
CF25D
102
}
330
CF25D
100
AcDbXrecord
280
     1
290
     1
  0
SORTENTSTABLE
  5
118C
102
{ACAD_REACTORS
330
118B
102
}
330
118B
100
AcDbSortentsTable
330
1F
331
D6186
  5
D661A
331
D6157
  5
D615F
331
D6771
  5
D6151
331
D615F
  5
D6169
331
D616F
  5
D6177
331
D6177
  5
D6183
331
D6148
  5
D614A
331
D6150
  5
D6154
331
D6772
  5
D614D
331
D6158
  5
D6162
331
D6168
  5
D6170
331
D6170
  5
D617A
331
D6180
  5
D618C
331
D6149
  5
D614B
331
D6151
  5
D6157
331
D6169
  5
D6173
331
D6189
  5
D661B
331
D614A
  5
D614C
331
D6152
  5
D6158
331
D6162
  5
D616C
331
D617A
  5
D6186
331
D614B
  5
D6150
331
D6153
  5
D615B
331
D615B
  5
D6165
331
D6173
  5
D617D
331
D6183
  5
D618D
331
D614C
  5
D6152
331
D6154
  5
D615E
331
D616C
  5
D6176
331
D614D
  5
D6153
331
D618C
  5
D675A
331
D6165
  5
D616F
331
D617D
  5
D6189
331
D618D
  5
D675B
331
D615E
  5
D6168
331
D6176
  5
D6180
  0
XRECORD
  5
D6806
102
{ACAD_REACTORS
330
D6805
102
}
330
D6805
100
AcDbXrecord
280
     1
 40
57865.0
  1
\A1;{\fGulim|b0|i0|c129|p34;5-\U+22056}
  0
XRECORD
  5
D6808
102
{ACAD_REACTORS
330
D6807
102
}
330
D6807
100
AcDbXrecord
280
     1
 40
57865.0
  1
\A1;{\fGulim|b0|i0|c129|p34;5-\U+22056}
  0
DIMASSOC
  5
D614F
102
{ACAD_REACTORS
330
D614E
102
}
330
D614E
100
AcDbDimAssoc
330
D614D
 90
        2
 70
     0
 71
     0
  1
AcDbOsnapPointRef
 72
     3
331
D614C
 73
     2
 91
        0
 40
0.0
 10
0.0
 20
0.0
 30
0.0
 75
     0
  0
DIMASSOC
  5
D6156
102
{ACAD_REACTORS
330
D6155
102
}
330
D6155
100
AcDbDimAssoc
330
D6154
 90
        3
 70
     0
 71
     0
  1
AcDbOsnapPointRef
 72
     3
331
D6153
 73
     2
 91
        0
 40
0.0
 10
0.0
 20
0.0
 30
0.0
 75
     0
  1
AcDbOsnapPointRef
 72
     8
331
D6149
 73
     2
 91
        5
 40
0.6650207923359872
 10
0.0
 20
0.0
 30
0.0
 75
     1
  1
AcDbOsnapPointRef
 72
     3
331
D6153
 73
     2
 91
        0
 40
0.0
 10
0.0
 20
0.0
 30
0.0
 75
     0
  0
DIMASSOC
  5
D615A
102
{ACAD_REACTORS
330
D6159
102
}
330
D6159
100
AcDbDimAssoc
330
D6158
 90
        2
 70
     0
 71
     0
  1
AcDbOsnapPointRef
 72
     3
331
D6151
 73
     2
 91
        0
 40
0.0
 10
0.0
 20
0.0
 30
0.0
 75
     0
  0
DIMASSOC
  5
D615D
102
{ACAD_REACTORS
330
D615C
102
}
330
D615C
100
AcDbDimAssoc
330
D615B
 90
        3
 70
     0
 71
     0
  1
AcDbOsnapPointRef
 72
     3
331
D6152
 73
     2
 91
        0
 40
0.0
 10
0.0
 20
0.0
 30
0.0
 75
     0
  1
AcDbOsnapPointRef
 72
     8
331
D6149
 73
     2
 91
        3
 40
0.4680851063828812
 10
0.0
 20
0.0
 30
0.0
 75
     1
  1
AcDbOsnapPointRef
 72
     3
331
D6152
 73
     2
 91
        0
 40
0.0
 10
0.0
 20
0.0
 30
0.0
 75
     0
  0
DIMASSOC
  5
D6161
102
{ACAD_REACTORS
330
D6160
102
}
330
D6160
100
AcDbDimAssoc
330
D615F
 90
        2
 70
     0
 71
     0
  1
AcDbOsnapPointRef
 72
     3
331
D6150
 73
     2
 91
        0
 40
0.0
 10
0.0
 20
0.0
 30
0.0
 75
     0
  0
DIMASSOC
  5
D6164
102
{ACAD_REACTORS
330
D6163
102
}
330
D6163
100
AcDbDimAssoc
330
D6162
 90
        3
 70
     0
 71
     0
  1
AcDbOsnapPointRef
 72
     1
331
D6148
 73
     2
 91
        4
 40
3.141592653589792
 10
0.0
 20
0.0
 30
2.000000000000000E+50
 75
     0
  1
AcDbOsnapPointRef
 72
     2
331
D6148
 73
     2
 91
       13
 40
6.283185307179585
 10
0.0
 20
0.0
 30
0.0
 75
     0
  0
DIMASSOC
  5
D6167
102
{ACAD_REACTORS
330
D6166
102
}
330
D6166
100
AcDbDimAssoc
330
D6165
 90
        3
 70
     0
 71
     0
  1
AcDbOsnapPointRef
 72
     1
331
D6149
 73
     2
 91
        4
 40
3.141592653589792
 10
0.0
 20
0.0
 30
2.000000000000000E+50
 75
     0
  1
AcDbOsnapPointRef
 72
     2
331
D6149
 73
     2
 91
       13
 40
6.283185307180124
 10
0.0
 20
0.0
 30
0.0
 75
     0
  0
DIMASSOC
  5
D616B
102
{ACAD_REACTORS
330
D616A
102
}
330
D616A
100
AcDbDimAssoc
330
D6169
 90
        3
 70
     0
 71
     0
  1
AcDbOsnapPointRef
 72
     2
331
D6148
 73
     2
 91
        7
 40
1.570796326801211
 10
0.0
 20
0.0
 30
0.0
 75
     0
  1
AcDbOsnapPointRef
 72
     1
331
D6148
 73
     2
 91
        3
 40
1.0
 10
0.0
 20
0.0
 30
2.000000000000000E+50
 75
     0
  0
DIMASSOC
  5
D616E
102
{ACAD_REACTORS
330
D616D
102
}
330
D616D
100
AcDbDimAssoc
330
D616C
 90
        3
 70
     0
 71
     0
  1
AcDbOsnapPointRef
 72
     1
331
D6149
 73
     2
 91
        3
 40
1.0
 10
0.0
 20
0.0
 30
2.000000000000000E+50
 75
     0
  1
AcDbOsnapPointRef
 72
     2
331
D6149
 73
     2
 91
        7
 40
1.570796326801159
 10
0.0
 20
0.0
 30
0.0
 75
     0
  0
DIMASSOC
  5
D6172
102
{ACAD_REACTORS
330
D6171
102
}
330
D6171
100
AcDbDimAssoc
330
D6170
 90
        3
 70
     0
 71
     0
  1
AcDbOsnapPointRef
 72
     1
331
D6148
 73
     2
 91
        2
 40
4.712388980384463
 10
0.0
 20
0.0
 30
2.000000000000000E+50
 75
     0
  1
AcDbOsnapPointRef
 72
     1
331
D6148
 73
     2
 91
       10
 40
1.0
 10
0.0
 20
0.0
 30
2.000000000000000E+50
 75
     0
  0
DIMASSOC
  5
D6175
102
{ACAD_REACTORS
330
D6174
102
}
330
D6174
100
AcDbDimAssoc
330
D6173
 90
        1
 70
     0
 71
     0
  1
AcDbOsnapPointRef
 72
     6
331
D6149
 73
     2
 91
        3
 40
0.0
 10
0.0
 20
0.0
 30
0.0
332
D6149
 74
     2
 92
        2
 75
     0
  0
DIMASSOC
  5
D6179
102
{ACAD_REACTORS
330
D6178
102
}
330
D6178
100
AcDbDimAssoc
330
D6177
 90
        2
 70
     0
 71
     0
  1
AcDbOsnapPointRef
 72
     3
331
D6148
 73
     2
 91
       12
 40
0.0
 10
0.0
 20
0.0
 30
0.0
 75
     0
  0
DIMASSOC
  5
D617C
102
{ACAD_REACTORS
330
D617B
102
}
330
D617B
100
AcDbDimAssoc
330
D617A
 90
        2
 70
     0
 71
     0
  1
AcDbOsnapPointRef
 72
     3
331
D6148
 73
     2
 91
       11
 40
0.0
 10
0.0
 20
0.0
 30
0.0
 75
     0
  0
DIMASSOC
  5
D617F
102
{ACAD_REACTORS
330
D617E
102
}
330
D617E
100
AcDbDimAssoc
330
D617D
 90
        2
 70
     0
 71
     0
  1
AcDbOsnapPointRef
 72
     3
331
D6148
 73
     2
 91
        1
 40
0.0
 10
0.0
 20
0.0
 30
0.0
 75
     0
  0
DIMASSOC
  5
D6182
102
{ACAD_REACTORS
330
D6181
102
}
330
D6181
100
AcDbDimAssoc
330
D6180
 90
        2
 70
     0
 71
     0
  1
AcDbOsnapPointRef
 72
     3
331
D6148
 73
     2
 91
        4
 40
0.0
 10
0.0
 20
0.0
 30
0.0
 75
     0
  0
DIMASSOC
  5
D6185
102
{ACAD_REACTORS
330
D6184
102
}
330
D6184
100
AcDbDimAssoc
330
D6183
 90
        2
 70
     0
 71
     0
  1
AcDbOsnapPointRef
 72
     3
331
D6148
 73
     2
 91
        6
 40
0.0
 10
0.0
 20
0.0
 30
0.0
 75
     0
  0
DIMASSOC
  5
D6188
102
{ACAD_REACTORS
330
D6187
102
}
330
D6187
100
AcDbDimAssoc
330
D6186
 90
        2
 70
     0
 71
     0
  1
AcDbOsnapPointRef
 72
     3
331
D6148
 73
     2
 91
        7
 40
0.0
 10
0.0
 20
0.0
 30
0.0
 75
     0
  0
DIMASSOC
  5
D618B
102
{ACAD_REACTORS
330
D618A
102
}
330
D618A
100
AcDbDimAssoc
330
D6189
 90
        2
 70
     0
 71
     0
  1
AcDbOsnapPointRef
 72
     3
331
D6148
 73
     2
 91
        9
 40
0.0
 10
0.0
 20
0.0
 30
0.0
 75
     0
  0
XRECORD
  5
D67FC
102
{ACAD_REACTORS
330
D67FB
102
}
330
D67FB
100
AcDbXrecord
280
     1
 40
8.0
  0
XRECORD
  5
D67FD
102
{ACAD_REACTORS
330
D67FB
102
}
330
D67FB
100
AcDbXrecord
280
     1
340
15
  0
LAYOUT
  5
22
102
{ACAD_XDICTIONARY
360
D67FE
102
}
102
{ACAD_REACTORS
330
1A
102
}
330
1A
100
AcDbPlotSettings
  1

  2
\\PC-201204061032\Canon LBP2900
  4
A4
  6

 40
5.873749732971191
 41
6.805091857910156
 42
5.873748779296875
 43
4.857757568359375
 44
209.9733276367186
 45
296.9259948730469
 46
-5.889999999999998
 47
-5.87
 48
85766.02374884076
 49
-163980.7810393121
140
88736.02374884079
141
-161880.7810393122
142
1.0
143
10.0
 70
 11940
 72
     1
 73
     1
 74
     4
  7
monochrome.ctb
 75
     0
147
0.1
148
-85766.02374884076
149
163980.7810393121
100
AcDbLayout
  1
Model
 70
     1
 71
     0
 10
0.0
 20
0.0
 11
12.0
 21
9.0
 12
0.0
 22
0.0
 32
0.0
 14
0.0
 24
0.0
 34
0.0
 15
0.0
 25
0.0
 35
0.0
146
0.0
 13
0.0
 23
0.0
 33
0.0
 16
1.0
 26
0.0
 36
0.0
 17
0.0
 27
1.0
 37
0.0
 76
     0
330
1F
331
CED6D
  0
LAYOUT
  5
74
102
{ACAD_XDICTIONARY
360
D6800
102
}
102
{ACAD_REACTORS
330
1A
102
}
330
1A
100
AcDbPlotSettings
  1

  2
\\ADSCCNDC1\hq601xrx1
  4

  6

 40
0.0
 41
0.0
 42
0.0
 43
0.0
 44
0.0
 45
0.0
 46
0.0
 47
0.0
 48
0.0
 49
0.0
140
0.0
141
0.0
142
1.0
143
1.0
 70
   688
 72
     0
 73
     0
 74
     5
  7
monochrome.ctb
 75
    16
147
1.0
148
0.0
149
0.0
100
AcDbLayout
  1
布局1
 70
     1
 71
     1
 10
0.0
 20
0.0
 11
12.0
 21
9.0
 12
0.0
 22
0.0
 32
0.0
 14
0.0
 24
0.0
 34
0.0
 15
0.0
 25
0.0
 35
0.0
146
0.0
 13
0.0
 23
0.0
 33
0.0
 16
1.0
 26
0.0
 36
0.0
 17
0.0
 27
1.0
 37
0.0
 76
     0
330
73
  0
LAYOUT
  5
79
102
{ACAD_XDICTIONARY
360
D6802
102
}
102
{ACAD_REACTORS
330
1A
102
}
330
1A
100
AcDbPlotSettings
  1

  2
\\ADSCCNDC1\hq601xrx1
  4

  6

 40
0.0
 41
0.0
 42
0.0
 43
0.0
 44
0.0
 45
0.0
 46
0.0
 47
0.0
 48
0.0
 49
0.0
140
0.0
141
0.0
142
1.0
143
1.0
 70
   688
 72
     0
 73
     0
 74
     5
  7
monochrome.ctb
 75
    16
147
1.0
148
0.0
149
0.0
100
AcDbLayout
  1
布局2
 70
     1
 71
     2
 10
0.0
 20
0.0
 11
12.0
 21
9.0
 12
0.0
 22
0.0
 32
0.0
 14
0.0
 24
0.0
 34
0.0
 15
0.0
 25
0.0
 35
0.0
146
0.0
 13
0.0
 23
0.0
 33
0.0
 16
1.0
 26
0.0
 36
0.0
 17
0.0
 27
1.0
 37
0.0
 76
     0
330
78
  0
MATERIAL
  5
CED77
102
{ACAD_XDICTIONARY
360
CED78
102
}
102
{ACAD_REACTORS
330
6B
102
}
330
6B
100
AcDbMaterial
  1
ByBlock
 72
     0
 43
0.0208333333333333
 43
0.0
 43
0.0
 43
0.0
 43
0.0
 43
0.0208333333333333
 43
0.0
 43
0.0
 43
0.0
 43
0.0
 43
1.0
 43
0.0
 43
0.0
 43
0.0
 43
0.0
 43
1.0
 77
     0
 47
0.0208333333333333
 47
0.0
 47
0.0
 47
0.0
 47
0.0
 47
0.0208333333333333
 47
0.0
 47
0.0
 47
0.0
 47
0.0
 47
1.0
 47
0.0
 47
0.0
 47
0.0
 47
0.0
 47
1.0
171
     0
 49
0.0208333333333333
 49
0.0
 49
0.0
 49
0.0
 49
0.0
 49
0.0208333333333333
 49
0.0
 49
0.0
 49
0.0
 49
0.0
 49
1.0
 49
0.0
 49
0.0
 49
0.0
 49
0.0
 49
1.0
175
     0
142
0.0208333333333333
142
0.0
142
0.0
142
0.0
142
0.0
142
0.0208333333333333
142
0.0
142
0.0
142
0.0
142
0.0
142
1.0
142
0.0
142
0.0
142
0.0
142
0.0
142
1.0
179
     0
144
0.0208333333333333
144
0.0
144
0.0
144
0.0
144
0.0
144
0.0208333333333333
144
0.0
144
0.0
144
0.0
144
0.0
144
1.0
144
0.0
144
0.0
144
0.0
144
0.0
144
1.0
147
0.0208333333333333
147
0.0
147
0.0
147
0.0
147
0.0
147
0.0208333333333333
147
0.0
147
0.0
147
0.0
147
0.0
147
1.0
147
0.0
147
0.0
147
0.0
147
0.0
147
1.0
  0
MATERIAL
  5
CED6F
102
{ACAD_XDICTIONARY
360
CED70
102
}
102
{ACAD_REACTORS
330
6B
102
}
330
6B
100
AcDbMaterial
  1
ByLayer
 72
     0
 43
0.0208333333333333
 43
0.0
 43
0.0
 43
0.0
 43
0.0
 43
0.0208333333333333
 43
0.0
 43
0.0
 43
0.0
 43
0.0
 43
1.0
 43
0.0
 43
0.0
 43
0.0
 43
0.0
 43
1.0
 77
     0
 47
0.0208333333333333
 47
0.0
 47
0.0
 47
0.0
 47
0.0
 47
0.0208333333333333
 47
0.0
 47
0.0
 47
0.0
 47
0.0
 47
1.0
 47
0.0
 47
0.0
 47
0.0
 47
0.0
 47
1.0
171
     0
 49
0.0208333333333333
 49
0.0
 49
0.0
 49
0.0
 49
0.0
 49
0.0208333333333333
 49
0.0
 49
0.0
 49
0.0
 49
0.0
 49
1.0
 49
0.0
 49
0.0
 49
0.0
 49
0.0
 49
1.0
175
     0
142
0.0208333333333333
142
0.0
142
0.0
142
0.0
142
0.0
142
0.0208333333333333
142
0.0
142
0.0
142
0.0
142
0.0
142
1.0
142
0.0
142
0.0
142
0.0
142
0.0
142
1.0
179
     0
144
0.0208333333333333
144
0.0
144
0.0
144
0.0
144
0.0
144
0.0208333333333333
144
0.0
144
0.0
144
0.0
144
0.0
144
1.0
144
0.0
144
0.0
144
0.0
144
0.0
144
1.0
147
0.0208333333333333
147
0.0
147
0.0
147
0.0
147
0.0
147
0.0208333333333333
147
0.0
147
0.0
147
0.0
147
0.0
147
1.0
147
0.0
147
0.0
147
0.0
147
0.0
147
1.0
  0
MATERIAL
  5
CED7F
102
{ACAD_XDICTIONARY
360
CED80
102
}
102
{ACAD_REACTORS
330
6B
102
}
330
6B
100
AcDbMaterial
  1
Global
 72
     0
 43
0.0208333333333333
 43
0.0
 43
0.0
 43
0.0
 43
0.0
 43
0.0208333333333333
 43
0.0
 43
0.0
 43
0.0
 43
0.0
 43
1.0
 43
0.0
 43
0.0
 43
0.0
 43
0.0
 43
1.0
 77
     0
 47
0.0208333333333333
 47
0.0
 47
0.0
 47
0.0
 47
0.0
 47
0.0208333333333333
 47
0.0
 47
0.0
 47
0.0
 47
0.0
 47
1.0
 47
0.0
 47
0.0
 47
0.0
 47
0.0
 47
1.0
171
     0
 49
0.0208333333333333
 49
0.0
 49
0.0
 49
0.0
 49
0.0
 49
0.0208333333333333
 49
0.0
 49
0.0
 49
0.0
 49
0.0
 49
1.0
 49
0.0
 49
0.0
 49
0.0
 49
0.0
 49
1.0
175
     0
142
0.0208333333333333
142
0.0
142
0.0
142
0.0
142
0.0
142
0.0208333333333333
142
0.0
142
0.0
142
0.0
142
0.0
142
1.0
142
0.0
142
0.0
142
0.0
142
0.0
142
1.0
179
     0
144
0.0208333333333333
144
0.0
144
0.0
144
0.0
144
0.0
144
0.0208333333333333
144
0.0
144
0.0
144
0.0
144
0.0
144
1.0
144
0.0
144
0.0
144
0.0
144
0.0
144
1.0
147
0.0208333333333333
147
0.0
147
0.0
147
0.0
147
0.0
147
0.0208333333333333
147
0.0
147
0.0
147
0.0
147
0.0
147
1.0
147
0.0
147
0.0
147
0.0
147
0.0
147
1.0
  0
MLEADERSTYLE
  5
CEDBB
102
{ACAD_REACTORS
330
CEDBA
102
}
330
CEDBA
100
AcDbMLeaderStyle
170
     2
171
     1
172
     0
 90
        2
 40
0.0
 41
0.0
173
     1
 91
-1056964608
340
14
 92
       -2
290
     1
 42
0.09
291
     1
 43
0.36
  3
Standard
 44
0.18
300

342
11
174
     1
178
     6
175
     1
176
     0
 93
-1056964608
 45
0.18
292
     0
297
     0
 46
0.18
 94
-1056964608
 47
1.0
 49
1.0
140
1.0
293
     1
141
0.0
294
     1
177
     0
142
1.0
295
     0
296
     0
143
0.125
1001
ACAD_MLEADERVER
1070
     2
  0
MLINESTYLE
  5
18
102
{ACAD_REACTORS
330
17
102
}
330
17
100
AcDbMlineStyle
  2
STANDARD
 70
     0
  3

 62
   256
 51
90.0
 52
90.0
 71
     2
 49
0.5
 62
   256
  6
BYLAYER
 49
-0.5
 62
   256
  6
BYLAYER
  0
ACDBPLACEHOLDER
  5
F
102
{ACAD_REACTORS
330
E
102
}
330
E
  0
SCALE
  5
CED99
102
{ACAD_REACTORS
330
CED98
102
}
330
CED98
100
AcDbScale
 70
     0
300
1:1
140
1.0
141
1.0
290
     1
  0
SCALE
  5
CED9A
102
{ACAD_REACTORS
330
CED98
102
}
330
CED98
100
AcDbScale
 70
     0
300
1:2
140
1.0
141
2.0
290
     0
  0
SCALE
  5
CED9B
102
{ACAD_REACTORS
330
CED98
102
}
330
CED98
100
AcDbScale
 70
     0
300
1:4
140
1.0
141
4.0
290
     0
  0
SCALE
  5
CED9C
102
{ACAD_REACTORS
330
CED98
102
}
330
CED98
100
AcDbScale
 70
     0
300
1:5
140
1.0
141
5.0
290
     0
  0
SCALE
  5
CED9D
102
{ACAD_REACTORS
330
CED98
102
}
330
CED98
100
AcDbScale
 70
     0
300
1:8
140
1.0
141
8.0
290
     0
  0
SCALE
  5
CED9E
102
{ACAD_REACTORS
330
CED98
102
}
330
CED98
100
AcDbScale
 70
     0
300
1:10
140
1.0
141
10.0
290
     0
  0
SCALE
  5
CED9F
102
{ACAD_REACTORS
330
CED98
102
}
330
CED98
100
AcDbScale
 70
     0
300
1:16
140
1.0
141
16.0
290
     0
  0
SCALE
  5
CEDA0
102
{ACAD_REACTORS
330
CED98
102
}
330
CED98
100
AcDbScale
 70
     0
300
1:20
140
1.0
141
20.0
290
     0
  0
SCALE
  5
CEDA1
102
{ACAD_REACTORS
330
CED98
102
}
330
CED98
100
AcDbScale
 70
     0
300
1:30
140
1.0
141
30.0
290
     0
  0
SCALE
  5
CEDA2
102
{ACAD_REACTORS
330
CED98
102
}
330
CED98
100
AcDbScale
 70
     0
300
1:40
140
1.0
141
40.0
290
     0
  0
SCALE
  5
CEDA3
102
{ACAD_REACTORS
330
CED98
102
}
330
CED98
100
AcDbScale
 70
     0
300
1:50
140
1.0
141
50.0
290
     0
  0
SCALE
  5
CEDA4
102
{ACAD_REACTORS
330
CED98
102
}
330
CED98
100
AcDbScale
 70
     0
300
1:100
140
1.0
141
100.0
290
     0
  0
SCALE
  5
CEDA5
102
{ACAD_REACTORS
330
CED98
102
}
330
CED98
100
AcDbScale
 70
     0
300
2:1
140
2.0
141
1.0
290
     0
  0
SCALE
  5
CEDA6
102
{ACAD_REACTORS
330
CED98
102
}
330
CED98
100
AcDbScale
 70
     0
300
4:1
140
4.0
141
1.0
290
     0
  0
SCALE
  5
CEDA7
102
{ACAD_REACTORS
330
CED98
102
}
330
CED98
100
AcDbScale
 70
     0
300
8:1
140
8.0
141
1.0
290
     0
  0
SCALE
  5
CEDA8
102
{ACAD_REACTORS
330
CED98
102
}
330
CED98
100
AcDbScale
 70
     0
300
10:1
140
10.0
141
1.0
290
     0
  0
SCALE
  5
CEDA9
102
{ACAD_REACTORS
330
CED98
102
}
330
CED98
100
AcDbScale
 70
     0
300
100:1
140
100.0
141
1.0
290
     0
  0
SCALE
  5
CEDAA
102
{ACAD_REACTORS
330
CED98
102
}
330
CED98
100
AcDbScale
 70
     0
300
1/128" = 1'-0"
140
0.0078125
141
12.0
290
     0
  0
SCALE
  5
CEDAB
102
{ACAD_REACTORS
330
CED98
102
}
330
CED98
100
AcDbScale
 70
     0
300
1/64" = 1'-0"
140
0.015625
141
12.0
290
     0
  0
SCALE
  5
CEDAC
102
{ACAD_REACTORS
330
CED98
102
}
330
CED98
100
AcDbScale
 70
     0
300
1/32" = 1'-0"
140
0.03125
141
12.0
290
     0
  0
SCALE
  5
CEDAD
102
{ACAD_REACTORS
330
CED98
102
}
330
CED98
100
AcDbScale
 70
     0
300
1/16" = 1'-0"
140
0.0625
141
12.0
290
     0
  0
SCALE
  5
CEDAE
102
{ACAD_REACTORS
330
CED98
102
}
330
CED98
100
AcDbScale
 70
     0
300
3/32" = 1'-0"
140
0.09375
141
12.0
290
     0
  0
SCALE
  5
CEDAF
102
{ACAD_REACTORS
330
CED98
102
}
330
CED98
100
AcDbScale
 70
     0
300
1/8" = 1'-0"
140
0.125
141
12.0
290
     0
  0
SCALE
  5
CEDB0
102
{ACAD_REACTORS
330
CED98
102
}
330
CED98
100
AcDbScale
 70
     0
300
3/16" = 1'-0"
140
0.1875
141
12.0
290
     0
  0
SCALE
  5
CEDB1
102
{ACAD_REACTORS
330
CED98
102
}
330
CED98
100
AcDbScale
 70
     0
300
1/4" = 1'-0"
140
0.25
141
12.0
290
     0
  0
SCALE
  5
CEDB2
102
{ACAD_REACTORS
330
CED98
102
}
330
CED98
100
AcDbScale
 70
     0
300
3/8" = 1'-0"
140
0.375
141
12.0
290
     0
  0
SCALE
  5
CEDB3
102
{ACAD_REACTORS
330
CED98
102
}
330
CED98
100
AcDbScale
 70
     0
300
1/2" = 1'-0"
140
0.5
141
12.0
290
     0
  0
SCALE
  5
CEDB4
102
{ACAD_REACTORS
330
CED98
102
}
330
CED98
100
AcDbScale
 70
     0
300
3/4" = 1'-0"
140
0.75
141
12.0
290
     0
  0
SCALE
  5
CEDB5
102
{ACAD_REACTORS
330
CED98
102
}
330
CED98
100
AcDbScale
 70
     0
300
1" = 1'-0"
140
1.0
141
12.0
290
     0
  0
SCALE
  5
CEDB6
102
{ACAD_REACTORS
330
CED98
102
}
330
CED98
100
AcDbScale
 70
     0
300
1-1/2" = 1'-0"
140
1.5
141
12.0
290
     0
  0
SCALE
  5
CEDB7
102
{ACAD_REACTORS
330
CED98
102
}
330
CED98
100
AcDbScale
 70
     0
300
3" = 1'-0"
140
3.0
141
12.0
290
     0
  0
SCALE
  5
CEDB8
102
{ACAD_REACTORS
330
CED98
102
}
330
CED98
100
AcDbScale
 70
     0
300
6" = 1'-0"
140
6.0
141
12.0
290
     0
  0
SCALE
  5
CEDB9
102
{ACAD_REACTORS
330
CED98
102
}
330
CED98
100
AcDbScale
 70
     0
300
1'-0" = 1'-0"
140
12.0
141
12.0
290
     0
  0
TABLESTYLE
  5
FB0
102
{ACAD_XDICTIONARY
360
D0C45
102
}
102
{ACAD_REACTORS
330
FAF
102
}
330
FAF
100
AcDbTableStyle
  3
Standard
 70
     0
 71
     0
 40
0.06
 41
0.06
280
     0
281
     0
  7
Standard
140
0.18
170
     2
 62
     0
 63
     7
283
     0
274
    -2
284
     1
 64
     0
275
    -2
285
     1
 65
     0
276
    -2
286
     1
 66
     0
277
    -2
287
     1
 67
     0
278
    -2
288
     1
 68
     0
279
    -2
289
     1
 69
     0
  7
Standard
140
0.25
170
     5
 62
     0
 63
     7
283
     0
274
    -2
284
     1
 64
     0
275
    -2
285
     1
 65
     0
276
    -2
286
     1
 66
     0
277
    -2
287
     1
 67
     0
278
    -2
288
     1
 68
     0
279
    -2
289
     1
 69
     0
  7
Standard
140
0.18
170
     5
 62
     0
 63
     7
283
     0
274
    -2
284
     1
 64
     0
275
    -2
285
     1
 65
     0
276
    -2
286
     1
 66
     0
277
    -2
287
     1
 67
     0
278
    -2
288
     1
 68
     0
279
    -2
289
     1
 69
     0
  0
VISUALSTYLE
  5
CED8D
102
{ACAD_REACTORS
330
CED87
102
}
330
CED87
100
AcDbVisualStyle
  2
2dWireframe
 70
     4
 71
     0
 72
     2
 73
     0
 90
        0
 40
-0.6
 41
-30.0
 62
     5
 63
     7
 74
     1
 91
        4
 64
     7
 65
   257
 75
     1
175
     1
 42
1.0
 92
        0
 66
   257
 43
1.0
 76
     1
 77
     6
 78
     2
 67
     7
 79
     5
170
     0
171
     0
290
     0
174
     0
 93
        1
 44
0.0
173
     0
291
     0
 45
0.0
1001
ACAD
1000
AcDbSavedByObjectVersion
1070
     0
1000
AcDbSavedByObjectVersion
1070
     0
  0
VISUALSTYLE
  5
CED8F
102
{ACAD_REACTORS
330
CED87
102
}
330
CED87
100
AcDbVisualStyle
  2
3D Hidden
 70
     6
 71
     1
 72
     2
 73
     2
 90
        0
 40
-0.6
 41
-30.0
 62
     5
 63
     7
 74
     2
 91
        2
 64
     7
 65
   257
 75
     2
175
     1
 42
40.0
 92
        0
 66
   257
 43
1.0
 76
     1
 77
     6
 78
     2
 67
     7
 79
     3
170
     0
171
     0
290
     0
174
     0
 93
        1
 44
0.0
173
     0
291
     0
 45
0.0
1001
ACAD
1000
AcDbSavedByObjectVersion
1070
     0
1000
AcDbSavedByObjectVersion
1070
     0
  0
VISUALSTYLE
  5
CED8E
102
{ACAD_REACTORS
330
CED87
102
}
330
CED87
100
AcDbVisualStyle
  2
3dWireframe
 70
     5
 71
     0
 72
     2
 73
     0
 90
        0
 40
-0.6
 41
-30.0
 62
     5
 63
     7
 74
     1
 91
        4
 64
     7
 65
   257
 75
     1
175
     1
 42
1.0
 92
        0
 66
   257
 43
1.0
 76
     1
 77
     6
 78
     2
 67
     7
 79
     5
170
     0
171
     0
290
     0
174
     0
 93
        1
 44
0.0
173
     0
291
     0
 45
0.0
1001
ACAD
1000
AcDbSavedByObjectVersion
1070
     0
1000
AcDbSavedByObjectVersion
1070
     0
  0
VISUALSTYLE
  5
CED8C
102
{ACAD_REACTORS
330
CED87
102
}
330
CED87
100
AcDbVisualStyle
  2
Basic
 70
     7
 71
     1
 72
     0
 73
     1
 90
        0
 40
-0.6
 41
-30.0
 62
     5
 63
     7
 74
     0
 91
        4
 64
     7
 65
   257
 75
     1
175
     1
 42
1.0
 92
        8
 66
     7
 43
1.0
 76
     1
 77
     6
 78
     2
 67
     7
 79
     5
170
     0
171
     0
290
     0
174
     0
 93
        1
 44
0.0
173
     0
291
     1
 45
0.0
1001
ACAD
1000
AcDbSavedByObjectVersion
1070
     0
1000
AcDbSavedByObjectVersion
1070
     0
  0
VISUALSTYLE
  5
CED93
102
{ACAD_REACTORS
330
CED87
102
}
330
CED87
100
AcDbVisualStyle
  2
Brighten
 70
    12
 71
     2
 72
     2
 73
     0
 90
        0
 40
-0.6
 41
-30.0
 62
     5
 63
     7
 74
     1
 91
        4
 64
     7
 65
   257
 75
     1
175
     1
 42
1.0
 92
        8
 66
     7
 43
1.0
 76
     1
 77
     6
 78
     2
 67
     7
 79
     5
170
     0
171
     0
290
     0
174
     0
 93
        1
 44
50.0
173
     0
291
     1
 45
0.0
1001
ACAD
1000
AcDbSavedByObjectVersion
1070
     0
1000
AcDbSavedByObjectVersion
1070
     0
  0
VISUALSTYLE
  5
CED97
102
{ACAD_REACTORS
330
CED87
102
}
330
CED87
100
AcDbVisualStyle
  2
ColorChange
 70
    16
 71
     2
 72
     2
 73
     3
 90
        0
 40
-0.6
 41
-30.0
 62
     5
 63
     8
 74
     1
 91
        4
 64
     7
 65
   257
 75
     1
175
     1
 42
1.0
 92
        8
 66
     8
 43
1.0
 76
     1
 77
     6
 78
     2
 67
     7
 79
     5
170
     0
171
     0
290
     0
174
     0
 93
        1
 44
0.0
173
     0
291
     1
 45
0.0
1001
ACAD
1000
AcDbSavedByObjectVersion
1070
     0
1000
AcDbSavedByObjectVersion
1070
     0
  0
VISUALSTYLE
  5
CED90
102
{ACAD_REACTORS
330
CED87
102
}
330
CED87
100
AcDbVisualStyle
  2
Conceptual
 70
     9
 71
     3
 72
     2
 73
     0
 90
        0
 40
-0.6
 41
-30.0
 62
     5
 63
     7
 74
     2
 91
        2
 64
     7
 65
   257
 75
     1
175
     1
 42
40.0
 92
        8
 66
     7
 43
1.0
 76
     1
 77
     6
 78
     2
 67
     7
 79
     3
170
     0
171
     0
290
     0
174
     0
 93
        1
 44
0.0
173
     0
291
     0
 45
0.0
1001
ACAD
1000
AcDbSavedByObjectVersion
1070
     0
1000
AcDbSavedByObjectVersion
1070
     0
  0
VISUALSTYLE
  5
CED92
102
{ACAD_REACTORS
330
CED87
102
}
330
CED87
100
AcDbVisualStyle
  2
Dim
 70
    11
 71
     2
 72
     2
 73
     0
 90
        0
 40
-0.6
 41
-30.0
 62
     5
 63
     7
 74
     1
 91
        4
 64
     7
 65
   257
 75
     1
175
     1
 42
1.0
 92
        8
 66
     7
 43
1.0
 76
     1
 77
     6
 78
     2
 67
     7
 79
     5
170
     0
171
     0
290
     0
174
     0
 93
        1
 44
-50.0
173
     0
291
     1
 45
0.0
1001
ACAD
1000
AcDbSavedByObjectVersion
1070
     0
1000
AcDbSavedByObjectVersion
1070
     0
  0
VISUALSTYLE
  5
CED96
102
{ACAD_REACTORS
330
CED87
102
}
330
CED87
100
AcDbVisualStyle
  2
Facepattern
 70
    15
 71
     2
 72
     2
 73
     0
 90
        0
 40
-0.6
 41
-30.0
 62
     5
 63
     7
 74
     1
 91
        4
 64
     7
 65
   257
 75
     1
175
     1
 42
1.0
 92
        8
 66
     7
 43
1.0
 76
     1
 77
     6
 78
     2
 67
     7
 79
     5
170
     0
171
     0
290
     0
174
     0
 93
        1
 44
0.0
173
     0
291
     1
 45
0.0
1001
ACAD
1000
AcDbSavedByObjectVersion
1070
     0
1000
AcDbSavedByObjectVersion
1070
     0
  0
VISUALSTYLE
  5
CED88
102
{ACAD_REACTORS
330
CED87
102
}
330
CED87
100
AcDbVisualStyle
  2
Flat
 70
     0
 71
     2
 72
     1
 73
     1
 90
        2
 40
-0.6
 41
30.0
 62
     5
 63
     7
 74
     0
 91
        4
 64
     7
 65
   257
 75
     1
175
     1
 42
1.0
 92
        8
 66
     7
 43
1.0
 76
     1
 77
     6
 78
     2
 67
     7
 79
     5
170
     0
171
     0
290
     0
174
     0
 93
       13
 44
0.0
173
     0
291
     1
 45
0.0
1001
ACAD
1000
AcDbSavedByObjectVersion
1070
     0
1000
AcDbSavedByObjectVersion
1070
     0
  0
VISUALSTYLE
  5
CED89
102
{ACAD_REACTORS
330
CED87
102
}
330
CED87
100
AcDbVisualStyle
  2
FlatWithEdges
 70
     1
 71
     2
 72
     1
 73
     1
 90
        2
 40
-0.6
 41
30.0
 62
     5
 63
     7
 74
     1
 91
        4
 64
     7
 65
   257
 75
     1
175
     1
 42
1.0
 92
        0
 66
   257
 43
1.0
 76
     1
 77
     6
 78
     2
 67
     7
 79
     5
170
     0
171
     0
290
     0
174
     0
 93
       13
 44
0.0
173
     0
291
     1
 45
0.0
1001
ACAD
1000
AcDbSavedByObjectVersion
1070
     0
1000
AcDbSavedByObjectVersion
1070
     0
  0
VISUALSTYLE
  5
CED8A
102
{ACAD_REACTORS
330
CED87
102
}
330
CED87
100
AcDbVisualStyle
  2
Gouraud
 70
     2
 71
     2
 72
     2
 73
     1
 90
        2
 40
-0.6
 41
30.0
 62
     5
 63
     7
 74
     0
 91
        4
 64
     7
 65
   257
 75
     1
175
     1
 42
1.0
 92
        0
 66
     7
 43
1.0
 76
     1
 77
     6
 78
     2
 67
     7
 79
     5
170
     0
171
     0
290
     0
174
     0
 93
       13
 44
0.0
173
     0
291
     1
 45
0.0
1001
ACAD
1000
AcDbSavedByObjectVersion
1070
     0
1000
AcDbSavedByObjectVersion
1070
     0
  0
VISUALSTYLE
  5
CED8B
102
{ACAD_REACTORS
330
CED87
102
}
330
CED87
100
AcDbVisualStyle
  2
GouraudWithEdges
 70
     3
 71
     2
 72
     2
 73
     1
 90
        2
 40
-0.6
 41
30.0
 62
     5
 63
     7
 74
     1
 91
        4
 64
     7
 65
   257
 75
     1
175
     1
 42
1.0
 92
        0
 66
   257
 43
1.0
 76
     1
 77
     6
 78
     2
 67
     7
 79
     5
170
     0
171
     0
290
     0
174
     0
 93
       13
 44
0.0
173
     0
291
     1
 45
0.0
1001
ACAD
1000
AcDbSavedByObjectVersion
1070
     0
1000
AcDbSavedByObjectVersion
1070
     0
  0
VISUALSTYLE
  5
CED95
102
{ACAD_REACTORS
330
CED87
102
}
330
CED87
100
AcDbVisualStyle
  2
Linepattern
 70
    14
 71
     2
 72
     2
 73
     0
 90
        0
 40
-0.6
 41
-30.0
 62
     5
 63
     7
 74
     1
 91
        4
 64
     7
 65
   257
 75
     7
175
     7
 42
1.0
 92
        8
 66
     7
 43
1.0
 76
     1
 77
     6
 78
     2
 67
     7
 79
     5
170
     0
171
     0
290
     0
174
     0
 93
        1
 44
0.0
173
     0
291
     1
 45
0.0
1001
ACAD
1000
AcDbSavedByObjectVersion
1070
     0
1000
AcDbSavedByObjectVersion
1070
     0
  0
VISUALSTYLE
  5
CED91
102
{ACAD_REACTORS
330
CED87
102
}
330
CED87
100
AcDbVisualStyle
  2
Realistic
 70
     8
 71
     2
 72
     2
 73
     0
 90
        0
 40
-0.6
 41
-30.0
 62
     5
 63
     7
 74
     1
 91
        0
 64
     7
 65
   257
 75
     1
175
     1
 42
1.0
 92
        8
 66
     8
 43
1.0
 76
     1
 77
     6
 78
     2
 67
     7
 79
     5
170
     0
171
     0
290
     0
174
     0
 93
       13
 44
0.0
173
     0
291
     0
 45
0.0
1001
ACAD
1000
AcDbSavedByObjectVersion
1070
     0
1000
AcDbSavedByObjectVersion
1070
     0
  0
VISUALSTYLE
  5
CED94
102
{ACAD_REACTORS
330
CED87
102
}
330
CED87
100
AcDbVisualStyle
  2
Thicken
 70
    13
 71
     2
 72
     2
 73
     0
 90
        0
 40
-0.6
 41
-30.0
 62
     5
 63
     7
 74
     1
 91
        4
 64
     7
 65
   257
 75
     1
175
     1
 42
1.0
 92
       12
 66
     7
 43
1.0
 76
     1
 77
     6
 78
     2
 67
     7
 79
     5
170
     0
171
     0
290
     0
174
     0
 93
        1
 44
0.0
173
     0
291
     1
 45
0.0
1001
ACAD
1000
AcDbSavedByObjectVersion
1070
     0
1000
AcDbSavedByObjectVersion
1070
     0
  0
DICTIONARYVAR
  5
D0C4F
102
{ACAD_REACTORS
330
59
102
}
330
59
100
DictionaryVariables
280
     0
  1
1:1
  0
DICTIONARYVAR
  5
D0C4D
102
{ACAD_REACTORS
330
59
102
}
330
59
100
DictionaryVariables
280
     0
  1
STANDARD
  0
DICTIONARYVAR
  5
100D
102
{ACAD_REACTORS
330
59
102
}
330
59
100
DictionaryVariables
280
     0
  1
STANDARD
  0
DICTIONARYVAR
  5
5A
102
{ACAD_REACTORS
330
59
102
}
330
59
100
DictionaryVariables
280
     0
  1
2
  0
DICTIONARYVAR
  5
5E
102
{ACAD_REACTORS
330
59
102
}
330
59
100
DictionaryVariables
280
     0
  1
1
  0
DICTIONARYVAR
  5
D67C7
102
{ACAD_REACTORS
330
59
102
}
330
59
100
DictionaryVariables
280
     0
  1
0
  0
DICTIONARYVAR
  5
D0C50
102
{ACAD_REACTORS
330
59
102
}
330
59
100
DictionaryVariables
280
     0
  1
0
  0
DICTIONARYVAR
  5
D0C4E
102
{ACAD_REACTORS
330
59
102
}
330
59
100
DictionaryVariables
280
     0
  1
0
  0
DICTIONARYVAR
  5
D67C6
102
{ACAD_REACTORS
330
59
102
}
330
59
100
DictionaryVariables
280
     0
  1
127
  0
XRECORD
  5
C2669
102
{ACAD_REACTORS
330
C2668
102
}
330
C2668
100
AcDbXrecord
280
     1
330
0
330
0
330
0
330
0
330
0
330
0
330
0
330
0
330
0
330
0
330
0
330
0
330
0
330
0
330
0
330
0
330
0
330
0
330
0
330
0
330
0
330
0
330
0
330
0
330
0
330
0
330
0
330
0
330
0
330
0
330
0
330
0
330
0
  0
VLO-VL
  5
A9D17
102
{ACAD_REACTORS
330
A9D16
102
}
330
A9D16
100
vlo_VL
 90
   -64512
 91
       12
 92
        1
 40
2.5
300
(&VLO-R . 0)
  0
DICTIONARY
  5
D67FE
330
22
100
AcDbDictionary
280
     1
281
     1
  3
ACAD_XREC_ROUNDTRIP
360
D67FF
  0
DICTIONARY
  5
D6800
330
74
100
AcDbDictionary
280
     1
281
     1
  3
ACAD_XREC_ROUNDTRIP
360
D6801
  0
DICTIONARY
  5
D6802
330
79
100
AcDbDictionary
280
     1
281
     1
  3
ACAD_XREC_ROUNDTRIP
360
D6803
  0
DICTIONARY
  5
CED78
330
CED77
100
AcDbDictionary
280
     1
281
     1
  3
ACAD_XREC_ROUNDTRIP
360
D67E8
  3
BUMPTILE
360
CED7A
  3
DIFFUSETILE
360
CED79
  3
OPACITYTILE
360
CED7D
  3
REFLECTIONTILE
360
CED7C
  3
REFRACTIONTILE
360
CED7E
  3
SPECULARTILE
360
CED7B
  0
DICTIONARY
  5
CED70
330
CED6F
100
AcDbDictionary
280
     1
281
     1
  3
ACAD_XREC_ROUNDTRIP
360
D67E7
  3
BUMPTILE
360
CED72
  3
DIFFUSETILE
360
CED71
  3
OPACITYTILE
360
CED75
  3
REFLECTIONTILE
360
CED74
  3
REFRACTIONTILE
360
CED76
  3
SPECULARTILE
360
CED73
  0
DICTIONARY
  5
CED80
330
CED7F
100
AcDbDictionary
280
     1
281
     1
  3
ACAD_XREC_ROUNDTRIP
360
D67E9
  3
BUMPTILE
360
CED82
  3
DIFFUSETILE
360
CED81
  3
OPACITYTILE
360
CED85
  3
REFLECTIONTILE
360
CED84
  3
REFRACTIONTILE
360
CED86
  3
SPECULARTILE
360
CED83
  0
DICTIONARY
  5
D0C45
330
FB0
100
AcDbDictionary
280
     1
281
     1
  3
ACAD_ROUNDTRIP_2008_TABLESTYLE_CELLSTYLEMAP
360
D67F9
  3
ACAD_XREC_ROUNDTRIP
360
D6804
  0
XRECORD
  5
D67FF
102
{ACAD_REACTORS
330
D67FE
102
}
330
D67FE
100
AcDbXrecord
280
     1
102
SHADEPLOT
 70
     0
102
SHADEPLOTRESLEVEL
 70
     2
102
SHADEPLOTCUSTOMDPI
 70
   300
  0
XRECORD
  5
D6801
102
{ACAD_REACTORS
330
D6800
102
}
330
D6800
100
AcDbXrecord
280
     1
102
SHADEPLOT
 70
     0
102
SHADEPLOTRESLEVEL
 70
     2
102
SHADEPLOTCUSTOMDPI
 70
   300
  0
XRECORD
  5
D6803
102
{ACAD_REACTORS
330
D6802
102
}
330
D6802
100
AcDbXrecord
280
     1
102
SHADEPLOT
 70
     0
102
SHADEPLOTRESLEVEL
 70
     2
102
SHADEPLOTCUSTOMDPI
 70
   300
  0
XRECORD
  5
D67E8
102
{ACAD_REACTORS
330
CED78
102
}
330
CED78
100
AcDbXrecord
280
     1
102
MATERIAL
148
0.0
149
0.0
149
0.0
 93
        0
 94
      127
282
     0
 72
     0
 77
     0
171
     0
175
     0
179
     0
273
     0
  0
XRECORD
  5
CED7A
102
{ACAD_REACTORS
330
CED78
102
}
330
CED78
100
AcDbXrecord
280
     1
270
     1
271
     1
  0
XRECORD
  5
CED79
102
{ACAD_REACTORS
330
CED78
102
}
330
CED78
100
AcDbXrecord
280
     1
270
     1
271
     1
  0
XRECORD
  5
CED7D
102
{ACAD_REACTORS
330
CED78
102
}
330
CED78
100
AcDbXrecord
280
     1
270
     1
271
     1
  0
XRECORD
  5
CED7C
102
{ACAD_REACTORS
330
CED78
102
}
330
CED78
100
AcDbXrecord
280
     1
270
     1
271
     1
  0
XRECORD
  5
CED7E
102
{ACAD_REACTORS
330
CED78
102
}
330
CED78
100
AcDbXrecord
280
     1
270
     1
271
     1
  0
XRECORD
  5
CED7B
102
{ACAD_REACTORS
330
CED78
102
}
330
CED78
100
AcDbXrecord
280
     1
270
     1
271
     1
  0
XRECORD
  5
D67E7
102
{ACAD_REACTORS
330
CED70
102
}
330
CED70
100
AcDbXrecord
280
     1
102
MATERIAL
148
0.0
149
0.0
149
0.0
 93
        0
 94
      127
282
     0
 72
     0
 77
     0
171
     0
175
     0
179
     0
273
     0
  0
XRECORD
  5
CED72
102
{ACAD_REACTORS
330
CED70
102
}
330
CED70
100
AcDbXrecord
280
     1
270
     1
271
     1
  0
XRECORD
  5
CED71
102
{ACAD_REACTORS
330
CED70
102
}
330
CED70
100
AcDbXrecord
280
     1
270
     1
271
     1
  0
XRECORD
  5
CED75
102
{ACAD_REACTORS
330
CED70
102
}
330
CED70
100
AcDbXrecord
280
     1
270
     1
271
     1
  0
XRECORD
  5
CED74
102
{ACAD_REACTORS
330
CED70
102
}
330
CED70
100
AcDbXrecord
280
     1
270
     1
271
     1
  0
XRECORD
  5
CED76
102
{ACAD_REACTORS
330
CED70
102
}
330
CED70
100
AcDbXrecord
280
     1
270
     1
271
     1
  0
XRECORD
  5
CED73
102
{ACAD_REACTORS
330
CED70
102
}
330
CED70
100
AcDbXrecord
280
     1
270
     1
271
     1
  0
XRECORD
  5
D67E9
102
{ACAD_REACTORS
330
CED80
102
}
330
CED80
100
AcDbXrecord
280
     1
102
MATERIAL
148
0.0
149
0.0
149
0.0
 93
        0
 94
      127
282
     0
 72
     0
 77
     0
171
     0
175
     0
179
     0
273
     0
  0
XRECORD
  5
CED82
102
{ACAD_REACTORS
330
CED80
102
}
330
CED80
100
AcDbXrecord
280
     1
270
     1
271
     1
  0
XRECORD
  5
CED81
102
{ACAD_REACTORS
330
CED80
102
}
330
CED80
100
AcDbXrecord
280
     1
270
     1
271
     1
  0
XRECORD
  5
CED85
102
{ACAD_REACTORS
330
CED80
102
}
330
CED80
100
AcDbXrecord
280
     1
270
     1
271
     1
  0
XRECORD
  5
CED84
102
{ACAD_REACTORS
330
CED80
102
}
330
CED80
100
AcDbXrecord
280
     1
270
     1
271
     1
  0
XRECORD
  5
CED86
102
{ACAD_REACTORS
330
CED80
102
}
330
CED80
100
AcDbXrecord
280
     1
270
     1
271
     1
  0
XRECORD
  5
CED83
102
{ACAD_REACTORS
330
CED80
102
}
330
CED80
100
AcDbXrecord
280
     1
270
     1
271
     1
  0
CELLSTYLEMAP
  5
D67F9
102
{ACAD_REACTORS
330
D0C45
102
}
330
D0C45
100
AcDbCellStyleMap
 90
        3
300
CELLSTYLE
  1
TABLEFORMAT_BEGIN
 90
        5
170
     1
 91
        0
 92
    32768
 62
   257
 93
        1
300
CONTENTFORMAT
  1
CONTENTFORMAT_BEGIN
 90
        0
 91
        0
 92
        4
 93
        0
300

 40
0.0
140
1.0
 94
        5
 62
     0
340
11
144
0.25
309
CONTENTFORMAT_END
171
     1
301
MARGIN
  1
CELLMARGIN_BEGIN
 40
0.06
 40
0.06
 40
0.06
 40
0.06
 40
0.18
 40
0.18
309
CELLMARGIN_END
 94
        6
 95
        1
302
GRIDFORMAT
  1
GRIDFORMAT_BEGIN
 90
        0
 91
        1
 62
     0
 92
       -2
340
0
 93
        0
 40
0.045
309
GRIDFORMAT_END
 95
        2
302
GRIDFORMAT
  1
GRIDFORMAT_BEGIN
 90
        0
 91
        1
 62
     0
 92
       -2
340
0
 93
        0
 40
0.045
309
GRIDFORMAT_END
 95
        4
302
GRIDFORMAT
  1
GRIDFORMAT_BEGIN
 90
        0
 91
        1
 62
     0
 92
       -2
340
0
 93
        0
 40
0.045
309
GRIDFORMAT_END
 95
        8
302
GRIDFORMAT
  1
GRIDFORMAT_BEGIN
 90
        0
 91
        1
 62
     0
 92
       -2
340
0
 93
        0
 40
0.045
309
GRIDFORMAT_END
 95
       16
302
GRIDFORMAT
  1
GRIDFORMAT_BEGIN
 90
        0
 91
        1
 62
     0
 92
       -2
340
0
 93
        0
 40
0.045
309
GRIDFORMAT_END
 95
       32
302
GRIDFORMAT
  1
GRIDFORMAT_BEGIN
 90
        0
 91
        1
 62
     0
 92
       -2
340
0
 93
        0
 40
0.045
309
GRIDFORMAT_END
309
TABLEFORMAT_END
  1
CELLSTYLE_BEGIN
 90
        1
 91
        1
300
_TITLE
309
CELLSTYLE_END
300
CELLSTYLE
  1
TABLEFORMAT_BEGIN
 90
        5
170
     1
 91
        0
 92
        0
 62
   257
 93
        1
300
CONTENTFORMAT
  1
CONTENTFORMAT_BEGIN
 90
        0
 91
        0
 92
        4
 93
        0
300

 40
0.0
140
1.0
 94
        5
 62
     0
340
11
144
0.18
309
CONTENTFORMAT_END
171
     1
301
MARGIN
  1
CELLMARGIN_BEGIN
 40
0.06
 40
0.06
 40
0.06
 40
0.06
 40
0.18
 40
0.18
309
CELLMARGIN_END
 94
        6
 95
        1
302
GRIDFORMAT
  1
GRIDFORMAT_BEGIN
 90
        0
 91
        1
 62
     0
 92
       -2
340
0
 93
        0
 40
0.045
309
GRIDFORMAT_END
 95
        2
302
GRIDFORMAT
  1
GRIDFORMAT_BEGIN
 90
        0
 91
        1
 62
     0
 92
       -2
340
0
 93
        0
 40
0.045
309
GRIDFORMAT_END
 95
        4
302
GRIDFORMAT
  1
GRIDFORMAT_BEGIN
 90
        0
 91
        1
 62
     0
 92
       -2
340
0
 93
        0
 40
0.045
309
GRIDFORMAT_END
 95
        8
302
GRIDFORMAT
  1
GRIDFORMAT_BEGIN
 90
        0
 91
        1
 62
     0
 92
       -2
340
0
 93
        0
 40
0.045
309
GRIDFORMAT_END
 95
       16
302
GRIDFORMAT
  1
GRIDFORMAT_BEGIN
 90
        0
 91
        1
 62
     0
 92
       -2
340
0
 93
        0
 40
0.045
309
GRIDFORMAT_END
 95
       32
302
GRIDFORMAT
  1
GRIDFORMAT_BEGIN
 90
        0
 91
        1
 62
     0
 92
       -2
340
0
 93
        0
 40
0.045
309
GRIDFORMAT_END
309
TABLEFORMAT_END
  1
CELLSTYLE_BEGIN
 90
        2
 91
        1
300
_HEADER
309
CELLSTYLE_END
300
CELLSTYLE
  1
TABLEFORMAT_BEGIN
 90
        5
170
     1
 91
        0
 92
        0
 62
   257
 93
        1
300
CONTENTFORMAT
  1
CONTENTFORMAT_BEGIN
 90
        0
 91
        0
 92
        4
 93
        0
300

 40
0.0
140
1.0
 94
        2
 62
     0
340
11
144
0.18
309
CONTENTFORMAT_END
171
     1
301
MARGIN
  1
CELLMARGIN_BEGIN
 40
0.06
 40
0.06
 40
0.06
 40
0.06
 40
0.18
 40
0.18
309
CELLMARGIN_END
 94
        6
 95
        1
302
GRIDFORMAT
  1
GRIDFORMAT_BEGIN
 90
        0
 91
        1
 62
     0
 92
       -2
340
0
 93
        0
 40
0.045
309
GRIDFORMAT_END
 95
        2
302
GRIDFORMAT
  1
GRIDFORMAT_BEGIN
 90
        0
 91
        1
 62
     0
 92
       -2
340
0
 93
        0
 40
0.045
309
GRIDFORMAT_END
 95
        4
302
GRIDFORMAT
  1
GRIDFORMAT_BEGIN
 90
        0
 91
        1
 62
     0
 92
       -2
340
0
 93
        0
 40
0.045
309
GRIDFORMAT_END
 95
        8
302
GRIDFORMAT
  1
GRIDFORMAT_BEGIN
 90
        0
 91
        1
 62
     0
 92
       -2
340
0
 93
        0
 40
0.045
309
GRIDFORMAT_END
 95
       16
302
GRIDFORMAT
  1
GRIDFORMAT_BEGIN
 90
        0
 91
        1
 62
     0
 92
       -2
340
0
 93
        0
 40
0.045
309
GRIDFORMAT_END
 95
       32
302
GRIDFORMAT
  1
GRIDFORMAT_BEGIN
 90
        0
 91
        1
 62
     0
 92
       -2
340
0
 93
        0
 40
0.045
309
GRIDFORMAT_END
309
TABLEFORMAT_END
  1
CELLSTYLE_BEGIN
 90
        3
 91
        2
300
_DATA
309
CELLSTYLE_END
  0
XRECORD
  5
D6804
102
{ACAD_REACTORS
330
D0C45
102
}
330
D0C45
100
AcDbXrecord
280
     1
102
ACAD_ROUNDTRIP_PRE2007_TABLESTYLE
 90
        4
 91
        0
  1

 92
        4
 93
        0
  2

 94
        4
 95
        0
  3

  0
ENDSEC
  0
EOF
