  0
SECTION
  2
HEADER
  9
$ACADVER
  1
AC1015
  9
$ACADMAINTVER
 70
    20
  9
$DWGCODEPAGE
  3
ANSI_936
  9
$INSBASE
 10
0.0
 20
0.0
 30
0.0
  9
$EXTMIN
 10
101209.0882676351
 20
-169557.1347207139
 30
0.0
  9
$EXTMAX
 10
103754.4708629222
 20
-168169.1347207118
 30
0.0
  9
$LIMMIN
 10
0.0
 20
0.0
  9
$LIMMAX
 10
12.0
 20
9.0
  9
$ORTHOMODE
 70
     0
  9
$REGENMODE
 70
     1
  9
$FILLMODE
 70
     1
  9
$QTEXTMODE
 70
     0
  9
$MIRRTEXT
 70
     0
  9
$LTSCALE
 40
1.0
  9
$ATTMODE
 70
     1
  9
$TEXTSIZE
 40
0.2
  9
$TRACEWID
 40
0.05
  9
$TEXTSTYLE
  7
Standard
  9
$CLAYER
  8
标注
  9
$CELTYPE
  6
ByLayer
  9
$CECOLOR
 62
   256
  9
$CELTSCALE
 40
5.0
  9
$DISPSILH
 70
     0
  9
$DIMSCALE
 40
1.0
  9
$DIMASZ
 40
10.0
  9
$DIMEXO
 40
7.0
  9
$DIMDLI
 40
0.38
  9
$DIMRND
 40
0.0
  9
$DIMDLE
 40
0.0
  9
$DIMEXE
 40
7.0
  9
$DIMTP
 40
0.0
  9
$DIMTM
 40
0.0
  9
$DIMTXT
 40
12.0
  9
$DIMCEN
 40
2.5
  9
$DIMTSZ
 40
0.0
  9
$DIMTOL
 70
     0
  9
$DIMLIM
 70
     0
  9
$DIMTIH
 70
     0
  9
$DIMTOH
 70
     0
  9
$DIMSE1
 70
     0
  9
$DIMSE2
 70
     0
  9
$DIMTAD
 70
     0
  9
$DIMZIN
 70
     8
  9
$DIMBLK
  1

  9
$DIMASO
 70
     1
  9
$DIMSHO
 70
     1
  9
$DIMPOST
  1

  9
$DIMAPOST
  1
"
  9
$DIMALT
 70
     0
  9
$DIMALTD
 70
     3
  9
$DIMALTF
 40
0.03937
  9
$DIMLFAC
 40
1.0
  9
$DIMTOFL
 70
     1
  9
$DIMTVP
 40
0.0
  9
$DIMTIX
 70
     0
  9
$DIMSOXD
 70
     0
  9
$DIMSAH
 70
     0
  9
$DIMBLK1
  1

  9
$DIMBLK2
  1

  9
$DIMSTYLE
  2
副本Standard
  9
$DIMCLRD
 70
   256
  9
$DIMCLRE
 70
   256
  9
$DIMCLRT
 70
   256
  9
$DIMTFAC
 40
1.0
  9
$DIMGAP
 40
0.5
  9
$DIMJUST
 70
     0
  9
$DIMSD1
 70
     0
  9
$DIMSD2
 70
     0
  9
$DIMTOLJ
 70
     1
  9
$DIMTZIN
 70
     0
  9
$DIMALTZ
 70
     0
  9
$DIMALTTZ
 70
     0
  9
$DIMUPT
 70
     0
  9
$DIMDEC
 70
     1
  9
$DIMTDEC
 70
     1
  9
$DIMALTU
 70
     7
  9
$DIMALTTD
 70
     3
  9
$DIMTXSTY
  7
Standard
  9
$DIMAUNIT
 70
     0
  9
$DIMADEC
 70
     0
  9
$DIMALTRND
 40
0.0
  9
$DIMAZIN
 70
     2
  9
$DIMDSEP
 70
    44
  9
$DIMATFIT
 70
     3
  9
$DIMFRAC
 70
     0
  9
$DIMLDRBLK
  1

  9
$DIMLUNIT
 70
     2
  9
$DIMLWD
 70
    -2
  9
$DIMLWE
 70
    -2
  9
$DIMTMOVE
 70
     0
  9
$LUNITS
 70
     2
  9
$LUPREC
 70
     4
  9
$SKETCHINC
 40
0.1
  9
$FILLETRAD
 40
30.0
  9
$AUNITS
 70
     0
  9
$AUPREC
 70
     0
  9
$MENU
  1
.
  9
$ELEVATION
 40
0.0
  9
$PELEVATION
 40
0.0
  9
$THICKNESS
 40
0.0
  9
$LIMCHECK
 70
     0
  9
$CHAMFERA
 40
26.6
  9
$CHAMFERB
 40
26.6
  9
$CHAMFERC
 40
0.0
  9
$CHAMFERD
 40
0.0
  9
$SKPOLY
 70
     0
  9
$TDCREATE
 40
2454355.343801713
  9
$TDUCREATE
 40
2454355.010468380
  9
$TDUPDATE
 40
2457938.594802465
  9
$TDUUPDATE
 40
2457938.261469132
  9
$TDINDWG
 40
8.9791534028
  9
$TDUSRTIMER
 40
8.9791533218
  9
$USRTIMER
 70
     1
  9
$ANGBASE
 50
0.0
  9
$ANGDIR
 70
     0
  9
$PDMODE
 70
     0
  9
$PDSIZE
 40
0.0
  9
$PLINEWID
 40
0.0
  9
$SPLFRAME
 70
     0
  9
$SPLINETYPE
 70
     6
  9
$SPLINESEGS
 70
     8
  9
$HANDSEED
  5
D6806
  9
$SURFTAB1
 70
     6
  9
$SURFTAB2
 70
     6
  9
$SURFTYPE
 70
     6
  9
$SURFU
 70
     6
  9
$SURFV
 70
     6
  9
$UCSBASE
  2

  9
$UCSNAME
  2

  9
$UCSORG
 10
0.0
 20
0.0
 30
0.0
  9
$UCSXDIR
 10
1.0
 20
0.0
 30
0.0
  9
$UCSYDIR
 10
0.0
 20
1.0
 30
0.0
  9
$UCSORTHOREF
  2

  9
$UCSORTHOVIEW
 70
     0
  9
$UCSORGTOP
 10
0.0
 20
0.0
 30
0.0
  9
$UCSORGBOTTOM
 10
0.0
 20
0.0
 30
0.0
  9
$UCSORGLEFT
 10
0.0
 20
0.0
 30
0.0
  9
$UCSORGRIGHT
 10
0.0
 20
0.0
 30
0.0
  9
$UCSORGFRONT
 10
0.0
 20
0.0
 30
0.0
  9
$UCSORGBACK
 10
0.0
 20
0.0
 30
0.0
  9
$PUCSBASE
  2

  9
$PUCSNAME
  2

  9
$PUCSORG
 10
0.0
 20
0.0
 30
0.0
  9
$PUCSXDIR
 10
1.0
 20
0.0
 30
0.0
  9
$PUCSYDIR
 10
0.0
 20
1.0
 30
0.0
  9
$PUCSORTHOREF
  2

  9
$PUCSORTHOVIEW
 70
     0
  9
$PUCSORGTOP
 10
0.0
 20
0.0
 30
0.0
  9
$PUCSORGBOTTOM
 10
0.0
 20
0.0
 30
0.0
  9
$PUCSORGLEFT
 10
0.0
 20
0.0
 30
0.0
  9
$PUCSORGRIGHT
 10
0.0
 20
0.0
 30
0.0
  9
$PUCSORGFRONT
 10
0.0
 20
0.0
 30
0.0
  9
$PUCSORGBACK
 10
0.0
 20
0.0
 30
0.0
  9
$USERI1
 70
     0
  9
$USERI2
 70
     0
  9
$USERI3
 70
     0
  9
$USERI4
 70
     0
  9
$USERI5
 70
     0
  9
$USERR1
 40
0.0
  9
$USERR2
 40
0.0
  9
$USERR3
 40
0.0
  9
$USERR4
 40
0.0
  9
$USERR5
 40
2.5
  9
$WORLDVIEW
 70
     1
  9
$SHADEDGE
 70
     3
  9
$SHADEDIF
 70
    70
  9
$TILEMODE
 70
     1
  9
$MAXACTVP
 70
    64
  9
$PINSBASE
 10
0.0
 20
0.0
 30
0.0
  9
$PLIMCHECK
 70
     0
  9
$PEXTMIN
 10
0.0
 20
0.0
 30
0.0
  9
$PEXTMAX
 10
0.0
 20
0.0
 30
0.0
  9
$PLIMMIN
 10
0.0
 20
0.0
  9
$PLIMMAX
 10
12.0
 20
9.0
  9
$UNITMODE
 70
     0
  9
$VISRETAIN
 70
     1
  9
$PLINEGEN
 70
     0
  9
$PSLTSCALE
 70
     1
  9
$TREEDEPTH
 70
  3020
  9
$CMLSTYLE
  2
Standard
  9
$CMLJUST
 70
     0
  9
$CMLSCALE
 40
1.0
  9
$PROXYGRAPHICS
 70
     1
  9
$MEASUREMENT
 70
     0
  9
$CELWEIGHT
370
    -1
  9
$ENDCAPS
280
     0
  9
$JOINSTYLE
280
     0
  9
$LWDISPLAY
290
     0
  9
$INSUNITS
 70
     4
  9
$HYPERLINKBASE
  1

  9
$STYLESHEET
  1
MONOCHROME.CTB
  9
$XEDIT
290
     1
  9
$CEPSNTYPE
380
     0
  9
$PSTYLEMODE
290
     1
  9
$FINGERPRINTGUID
  2
{35BD88C0-9548-11D2-9A29-0060089B3A3F}
  9
$VERSIONGUID
  2
{8B3BAAE2-189B-4D3B-B35E-6D72770038D3}
  9
$EXTNAMES
290
     1
  9
$PSVPSCALE
 40
0.0
  9
$OLESTARTUP
290
     0
  0
ENDSEC
  0
SECTION
  2
CLASSES
  0
CLASS
  1
ACDBDICTIONARYWDFLT
  2
AcDbDictionaryWithDefault
  3
ObjectDBX Classes
 90
        0
280
     0
281
     0
  0
CLASS
  1
ACDBPLACEHOLDER
  2
AcDbPlaceHolder
  3
ObjectDBX Classes
 90
        0
280
     0
281
     0
  0
CLASS
  1
LAYOUT
  2
AcDbLayout
  3
ObjectDBX Classes
 90
        0
280
     0
281
     0
  0
CLASS
  1
DICTIONARYVAR
  2
AcDbDictionaryVar
  3
ObjectDBX Classes
 90
        0
280
     0
281
     0
  0
CLASS
  1
SORTENTSTABLE
  2
AcDbSortentsTable
  3
ObjectDBX Classes
 90
        0
280
     0
281
     0
  0
CLASS
  1
DIMASSOC
  2
AcDbDimAssoc
  3
"AcDbDimAssoc|Product Desc:     AcDim ARX App For Dimension|Company:          Autodesk, Inc.|WEB Address:      www.autodesk.com"
 90
        0
280
     0
281
     0
  0
CLASS
  1
TABLESTYLE
  2
AcDbTableStyle
  3
ObjectDBX Classes
 90
     4095
280
     0
281
     0
  0
CLASS
  1
VLO-VL
  2
vlo_VL
  3
VL|AutoLISP based application
 90
      129
280
     0
281
     0
  0
CLASS
  1
MATERIAL
  2
AcDbMaterial
  3
ObjectDBX Classes
 90
     1153
280
     0
281
     0
  0
CLASS
  1
VISUALSTYLE
  2
AcDbVisualStyle
  3
ObjectDBX Classes
 90
     4095
280
     0
281
     0
  0
CLASS
  1
SCALE
  2
AcDbScale
  3
ObjectDBX Classes
 90
     1153
280
     0
281
     0
  0
CLASS
  1
MLEADERSTYLE
  2
AcDbMLeaderStyle
  3
ACDB_MLEADERSTYLE_CLASS
 90
     4095
280
     0
281
     0
  0
CLASS
  1
CELLSTYLEMAP
  2
AcDbCellStyleMap
  3
ObjectDBX Classes
 90
     1152
280
     0
281
     0
  0
ENDSEC
  0
SECTION
  2
TABLES
  0
TABLE
  2
VPORT
  5
8
330
0
100
AcDbSymbolTable
 70
     1
  0
VPORT
  5
CED6D
330
8
100
AcDbSymbolTableRecord
100
AcDbViewportTableRecord
  2
*Active
 70
     0
 10
0.0
 20
0.0
 11
1.0
 21
1.0
 12
103041.1787210559
 22
-168994.8257188716
 13
0.0
 23
0.0
 14
0.5
 24
0.5
 15
0.5
 25
0.5
 16
0.0
 26
0.0
 36
1.0
 17
0.0
 27
0.0
 37
0.0
 40
1279.021516051376
 41
2.241676942046855
 42
50.0
 43
0.0
 44
0.0
 50
0.0
 51
0.0
 71
     0
 72
  1000
 73
     1
 74
     3
 75
     0
 76
     0
 77
     0
 78
     0
281
     0
 65
     1
110
0.0
120
0.0
130
0.0
111
1.0
121
0.0
131
0.0
112
0.0
122
1.0
132
0.0
 79
     0
146
0.0
  0
ENDTAB
  0
TABLE
  2
LTYPE
  5
5
330
0
100
AcDbSymbolTable
 70
     3
  0
LTYPE
  5
14
330
5
100
AcDbSymbolTableRecord
100
AcDbLinetypeTableRecord
  2
ByBlock
 70
     0
  3

 72
    65
 73
     0
 40
0.0
  0
LTYPE
  5
15
330
5
100
AcDbSymbolTableRecord
100
AcDbLinetypeTableRecord
  2
ByLayer
 70
     0
  3

 72
    65
 73
     0
 40
0.0
  0
LTYPE
  5
16
330
5
100
AcDbSymbolTableRecord
100
AcDbLinetypeTableRecord
  2
Continuous
 70
     0
  3
Solid line
 72
    65
 73
     0
 40
0.0
  0
LTYPE
  5
98
330
5
100
AcDbSymbolTableRecord
100
AcDbLinetypeTableRecord
  2
HIDDEN2
 70
     0
  3
Hidden (.5x) _ _ _ _ _ _ _ _ _ _ _ _ _ _ _ _ _
 72
    65
 73
     2
 40
4.762499999999998
 49
3.174999999999998
 74
     0
 49
-1.587499999999999
 74
     0
  0
ENDTAB
  0
TABLE
  2
LAYER
  5
2
102
{ACAD_XDICTIONARY
360
AB
102
}
330
0
100
AcDbSymbolTable
 70
     5
  0
LAYER
  5
10
102
{ACAD_XDICTIONARY
360
CF251
102
}
330
2
100
AcDbSymbolTableRecord
100
AcDbLayerTableRecord
  2
0
 70
     0
 62
     7
  6
Continuous
370
    18
390
F
  0
LAYER
  5
9D
102
{ACAD_XDICTIONARY
360
CF259
102
}
330
2
100
AcDbSymbolTableRecord
100
AcDbLayerTableRecord
  2
虚线
 70
     0
 62
     4
  6
HIDDEN2
370
     9
390
F
  0
LAYER
  5
9E
102
{ACAD_XDICTIONARY
360
CF25B
102
}
330
2
100
AcDbSymbolTableRecord
100
AcDbLayerTableRecord
  2
细实线
 70
     0
 62
     7
  6
Continuous
370
     9
390
F
  0
LAYER
  5
582
330
2
100
AcDbSymbolTableRecord
100
AcDbLayerTableRecord
  2
Defpoints
 70
     0
 62
     7
  6
Continuous
290
     0
370
     9
390
F
  0
LAYER
  5
16DF9
102
{ACAD_XDICTIONARY
360
CF25D
102
}
330
2
100
AcDbSymbolTableRecord
100
AcDbLayerTableRecord
  2
标注
 70
     0
 62
    80
  6
Continuous
370
     5
390
F
1001
AcAecLayerStandard
1000

1000

  0
ENDTAB
  0
TABLE
  2
STYLE
  5
3
330
0
100
AcDbSymbolTable
 70
     2
  0
STYLE
  5
11
330
3
100
AcDbSymbolTableRecord
100
AcDbTextStyleTableRecord
  2
Standard
 70
     0
 40
0.0
 41
1.0
 50
0.0
 71
     0
 42
0.2
  3
SimSun.ttf
  4

1001
ACAD
1000
SimSun
1071
    34306
  0
ENDTAB
  0
TABLE
  2
VIEW
  5
6
330
0
100
AcDbSymbolTable
 70
     0
  0
ENDTAB
  0
TABLE
  2
UCS
  5
7
330
0
100
AcDbSymbolTable
 70
     0
  0
ENDTAB
  0
TABLE
  2
APPID
  5
9
330
0
100
AcDbSymbolTable
 70
    18
  0
APPID
  5
12
330
9
100
AcDbSymbolTableRecord
100
AcDbRegAppTableRecord
  2
ACAD
 70
     0
  0
APPID
  5
A5
330
9
100
AcDbSymbolTableRecord
100
AcDbRegAppTableRecord
  2
AcAecLayerStandard
 70
     0
  0
APPID
  5
A6
330
9
100
AcDbSymbolTableRecord
100
AcDbRegAppTableRecord
  2
ACAD_DSTYLE_DIMEXT_LENGTH
 70
     0
  0
APPID
  5
A7
330
9
100
AcDbSymbolTableRecord
100
AcDbRegAppTableRecord
  2
ACAD_DSTYLE_DIMEXT_ENABLED
 70
     0
  0
APPID
  5
A8
330
9
100
AcDbSymbolTableRecord
100
AcDbRegAppTableRecord
  2
ACAD_DSTYLE_DIMJOGGED_JOGANGLE_SYMBOL
 70
     0
  0
APPID
  5
A9
330
9
100
AcDbSymbolTableRecord
100
AcDbRegAppTableRecord
  2
ACAD_DSTYLE_DIMARC_LENGTH_SYMBOL
 70
     0
  0
APPID
  5
AA
330
9
100
AcDbSymbolTableRecord
100
AcDbRegAppTableRecord
  2
ACAD_PSEXT
 70
     0
  0
APPID
  5
173
330
9
100
AcDbSymbolTableRecord
100
AcDbRegAppTableRecord
  2
DCO15
 70
     0
  0
APPID
  5
11D5
330
9
100
AcDbSymbolTableRecord
100
AcDbRegAppTableRecord
  2
ACAD_EXEMPT_FROM_CAD_STANDARDS
 70
     0
  0
APPID
  5
B456
330
9
100
AcDbSymbolTableRecord
100
AcDbRegAppTableRecord
  2
ACAD_DSTYLE_DIMTEXT_FILL
 70
     0
  0
APPID
  5
B459
330
9
100
AcDbSymbolTableRecord
100
AcDbRegAppTableRecord
  2
ACAD_DSTYLE_DIM_LINETYPE
 70
     0
  0
APPID
  5
B45A
330
9
100
AcDbSymbolTableRecord
100
AcDbRegAppTableRecord
  2
ACAD_DSTYLE_DIM_EXT1_LINETYPE
 70
     0
  0
APPID
  5
B45B
330
9
100
AcDbSymbolTableRecord
100
AcDbRegAppTableRecord
  2
ACAD_DSTYLE_DIM_EXT2_LINETYPE
 70
     0
  0
APPID
  5
CEDBC
330
9
100
AcDbSymbolTableRecord
100
AcDbRegAppTableRecord
  2
ACAD_MLEADERVER
 70
     0
  0
APPID
  5
CF35C
330
9
100
AcDbSymbolTableRecord
100
AcDbRegAppTableRecord
  2
ACAD_DSTYLE_DIMRADIAL_EXTENSION
 70
     0
  0
APPID
  5
CF43A
330
9
100
AcDbSymbolTableRecord
100
AcDbRegAppTableRecord
  2
ACAD_DSTYLE_DIMJAG
 70
     0
  0
APPID
  5
CF43B
330
9
100
AcDbSymbolTableRecord
100
AcDbRegAppTableRecord
  2
ACAD_DSTYLE_DIMTALN
 70
     0
  0
APPID
  5
D5B2B
330
9
100
AcDbSymbolTableRecord
100
AcDbRegAppTableRecord
  2
ACAD_DSTYLE_DIMBREAK
 70
     0
  0
ENDTAB
  0
TABLE
  2
DIMSTYLE
  5
A
330
0
100
AcDbSymbolTable
 70
     3
100
AcDbDimStyleTable
 71
     2
340
3BDB5
340
27
  0
DIMSTYLE
105
27
330
A
100
AcDbSymbolTableRecord
100
AcDbDimStyleTableRecord
  2
Standard
 70
     0
 41
20.0
 42
25.0
 44
8.0
 73
     0
 74
     0
 78
     8
 79
     2
140
20.0
147
5.0
172
     1
176
     3
177
     3
178
     3
179
     1
271
     1
272
     1
278
    44
340
11
1001
ACAD_DSTYLE_DIMJOGGED_JOGANGLE_SYMBOL
1070
   384
1040
0.7853981633974483
1001
ACAD_DSTYLE_DIMEXT_LENGTH
1070
   378
1040
8.0
  0
DIMSTYLE
105
3BDB5
102
{ACAD_REACTORS
330
D5C9F
330
D5CB9
330
D5CED
330
D5CFB
330
D5D1F
330
D5D50
330
D5D5E
330
D5DC4
330
D5DDE
330
D5DF8
330
D5E05
330
D5E1F
330
D5E39
330
D5E46
330
D5E60
330
D5E7A
330
D5E87
330
D5E97
330
D5EA7
330
D5EC7
330
D5EDA
330
D5EEA
330
D5EFA
330
D5F1C
330
D5EB7
102
}
330
A
100
AcDbSymbolTableRecord
100
AcDbDimStyleTableRecord
  2
副本Standard
 70
     0
  4
"
 41
16.0
 42
7.0
 44
7.0
 73
     0
 74
     0
 78
     8
 79
     2
140
20.0
141
2.5
143
0.03937
147
1.0
171
     3
172
     1
176
   256
177
   256
178
   256
179
     1
271
     1
272
     1
273
     7
274
     3
278
    44
340
11
1001
ACAD_DSTYLE_DIMJAG
1070
   388
1040
1.5
1001
ACAD_DSTYLE_DIMTALN
1070
   392
1070
     0
  0
ENDTAB
  0
TABLE
  2
BLOCK_RECORD
  5
1
330
0
100
AcDbSymbolTable
 70
    49
  0
BLOCK_RECORD
  5
1F
102
{ACAD_XDICTIONARY
360
118B
102
}
330
1
100
AcDbSymbolTableRecord
100
AcDbBlockTableRecord
  2
*Model_Space
340
22
  0
BLOCK_RECORD
  5
73
330
1
100
AcDbSymbolTableRecord
100
AcDbBlockTableRecord
  2
*Paper_Space
340
74
  0
BLOCK_RECORD
  5
78
330
1
100
AcDbSymbolTableRecord
100
AcDbBlockTableRecord
  2
*Paper_Space0
340
79
  0
BLOCK_RECORD
  5
D5CA2
330
1
100
AcDbSymbolTableRecord
100
AcDbBlockTableRecord
  2
*D1
340
0
  0
BLOCK_RECORD
  5
D5CBA
330
1
100
AcDbSymbolTableRecord
100
AcDbBlockTableRecord
  2
*D2
340
0
  0
BLOCK_RECORD
  5
D5CEE
330
1
100
AcDbSymbolTableRecord
100
AcDbBlockTableRecord
  2
*D3
340
0
  0
BLOCK_RECORD
  5
D5CFC
330
1
100
AcDbSymbolTableRecord
100
AcDbBlockTableRecord
  2
*D4
340
0
  0
BLOCK_RECORD
  5
D5D20
330
1
100
AcDbSymbolTableRecord
100
AcDbBlockTableRecord
  2
*D5
340
0
  0
BLOCK_RECORD
  5
D5D51
330
1
100
AcDbSymbolTableRecord
100
AcDbBlockTableRecord
  2
*D6
340
0
  0
BLOCK_RECORD
  5
D5D5F
330
1
100
AcDbSymbolTableRecord
100
AcDbBlockTableRecord
  2
*D7
340
0
  0
BLOCK_RECORD
  5
D5DC5
330
1
100
AcDbSymbolTableRecord
100
AcDbBlockTableRecord
  2
*D8
340
0
  0
BLOCK_RECORD
  5
D5DDF
330
1
100
AcDbSymbolTableRecord
100
AcDbBlockTableRecord
  2
*D9
340
0
  0
BLOCK_RECORD
  5
D5DF9
330
1
100
AcDbSymbolTableRecord
100
AcDbBlockTableRecord
  2
*D10
340
0
  0
BLOCK_RECORD
  5
D5E06
330
1
100
AcDbSymbolTableRecord
100
AcDbBlockTableRecord
  2
*D11
340
0
  0
BLOCK_RECORD
  5
D5E20
330
1
100
AcDbSymbolTableRecord
100
AcDbBlockTableRecord
  2
*D12
340
0
  0
BLOCK_RECORD
  5
D5E3A
330
1
100
AcDbSymbolTableRecord
100
AcDbBlockTableRecord
  2
*D13
340
0
  0
BLOCK_RECORD
  5
D5E47
330
1
100
AcDbSymbolTableRecord
100
AcDbBlockTableRecord
  2
*D14
340
0
  0
BLOCK_RECORD
  5
D5E61
330
1
100
AcDbSymbolTableRecord
100
AcDbBlockTableRecord
  2
*D15
340
0
  0
BLOCK_RECORD
  5
D5E7B
330
1
100
AcDbSymbolTableRecord
100
AcDbBlockTableRecord
  2
*D16
340
0
  0
BLOCK_RECORD
  5
D5E88
330
1
100
AcDbSymbolTableRecord
100
AcDbBlockTableRecord
  2
*D17
340
0
  0
BLOCK_RECORD
  5
D5E98
330
1
100
AcDbSymbolTableRecord
100
AcDbBlockTableRecord
  2
*D18
340
0
  0
BLOCK_RECORD
  5
D5EA8
330
1
100
AcDbSymbolTableRecord
100
AcDbBlockTableRecord
  2
*D19
340
0
  0
BLOCK_RECORD
  5
D5EB8
330
1
100
AcDbSymbolTableRecord
100
AcDbBlockTableRecord
  2
*D20
340
0
  0
BLOCK_RECORD
  5
D5EC8
330
1
100
AcDbSymbolTableRecord
100
AcDbBlockTableRecord
  2
*D21
340
0
  0
BLOCK_RECORD
  5
D5EDB
330
1
100
AcDbSymbolTableRecord
100
AcDbBlockTableRecord
  2
*D22
340
0
  0
BLOCK_RECORD
  5
D5EEB
330
1
100
AcDbSymbolTableRecord
100
AcDbBlockTableRecord
  2
*D23
340
0
  0
BLOCK_RECORD
  5
D5EFB
330
1
100
AcDbSymbolTableRecord
100
AcDbBlockTableRecord
  2
*D24
340
0
  0
BLOCK_RECORD
  5
D5F1D
330
1
100
AcDbSymbolTableRecord
100
AcDbBlockTableRecord
  2
*D25
340
0
  0
ENDTAB
  0
ENDSEC
  0
SECTION
  2
BLOCKS
  0
BLOCK
  5
20
330
1F
100
AcDbEntity
  8
0
100
AcDbBlockBegin
  2
*Model_Space
 70
     0
 10
0.0
 20
0.0
 30
0.0
  3
*Model_Space
  1

  0
ENDBLK
  5
21
330
1F
100
AcDbEntity
  8
0
100
AcDbBlockEnd
  0
BLOCK
  5
75
330
73
100
AcDbEntity
 67
     1
  8
0
100
AcDbBlockBegin
  2
*Paper_Space
 70
     0
 10
0.0
 20
0.0
 30
0.0
  3
*Paper_Space
  1

  0
ENDBLK
  5
76
330
73
100
AcDbEntity
 67
     1
  8
0
100
AcDbBlockEnd
  0
BLOCK
  5
7A
330
78
100
AcDbEntity
 67
     1
  8
0
100
AcDbBlockBegin
  2
*Paper_Space0
 70
     0
 10
0.0
 20
0.0
 30
0.0
  3
*Paper_Space0
  1

  0
ENDBLK
  5
7B
330
78
100
AcDbEntity
 67
     1
  8
0
100
AcDbBlockEnd
  0
BLOCK
  5
D5CA3
330
D5CA2
100
AcDbEntity
  8
0
 48
5.0
100
AcDbBlockBegin
  2
*D1
 70
     1
 10
0.0
 20
0.0
 30
0.0
  3
*D1
  1

  0
LINE
  5
D5DBA
330
D5CA2
100
AcDbEntity
  8
标注
 48
5.0
370
    -2
100
AcDbLine
 10
102915.082522136
 20
-168821.1817985333
 30
0.0
 11
102923.3458897444
 21
-168826.813561647
 31
0.0
  0
LINE
  5
D5DBB
330
D5CA2
100
AcDbEntity
  8
标注
 48
5.0
370
    -2
100
AcDbLine
 10
102944.830645526
 20
-168841.4561457428
 30
0.0
 11
102953.0940131343
 21
-168847.0879088566
 31
0.0
  0
MTEXT
  5
D5DBC
102
{ACAD_XDICTIONARY
360
D6802
102
}
330
D5CA2
100
AcDbEntity
  8
标注
 48
5.0
100
AcDbMText
 10
102898.1052078201
 20
-168809.6111874861
 30
0.0
 40
12.0
 41
0.0
 71
     5
 72
     1
  1
\A1;{\fGulim|b0|i0|c129|p34;5-\U+22056}
 11
0.8263367608332837
 21
-0.5631763113764256
 31
0.0
 73
     1
 44
1.0
1001
ACAD
1000
MTEXTBEGIN
1070
    73
1070
     1
1070
    44
1040
1.0
1070
    74
1070
     0
1000
MTEXTEND
  0
LINE
  5
D5DBD
330
D5CA2
100
AcDbEntity
  8
标注
 48
5.0
370
    -2
100
AcDbLine
 10
102936.5672779177
 20
-168835.8243826291
 30
0.0
 11
102931.6092573527
 21
-168832.4453247608
 31
0.0
  0
SOLID
  5
D5DBE
330
D5CA2
100
AcDbEntity
  8
标注
 48
5.0
100
AcDbTrace
 10
102945.7692727117
 20
-168840.078917808
 30
0.0
 11
102943.8920183404
 21
-168842.8333736775
 31
0.0
 12
102936.5672779177
 22
-168835.8243826291
 32
0.0
 13
102936.5672779177
 23
-168835.8243826291
 33
0.0
  0
SOLID
  5
D5DBF
330
D5CA2
100
AcDbEntity
  8
标注
 48
5.0
100
AcDbTrace
 10
102924.28451693
 20
-168825.4363337123
 30
0.0
 11
102922.4072625587
 21
-168828.1907895817
 31
0.0
 12
102931.6092573527
 22
-168832.4453247608
 32
0.0
 13
102931.6092573527
 23
-168832.4453247608
 33
0.0
  0
POINT
  5
D5DC0
330
D5CA2
100
AcDbEntity
  8
Defpoints
 62
     0
 48
5.0
100
AcDbPoint
 10
102931.6092573527
 20
-168832.4453247608
 30
0.0
  0
POINT
  5
D5DC1
330
D5CA2
100
AcDbEntity
  8
Defpoints
 62
     0
 48
5.0
100
AcDbPoint
 10
102936.5672779177
 20
-168835.8243826291
 30
0.0
  0
ENDBLK
  5
D5CA4
330
D5CA2
100
AcDbEntity
  8
0
 48
5.0
100
AcDbBlockEnd
  0
BLOCK
  5
D5CBB
330
D5CBA
100
AcDbEntity
  8
0
 48
5.0
100
AcDbBlockBegin
  2
*D2
 70
     1
 10
0.0
 20
0.0
 30
0.0
  3
*D2
  1

  0
LINE
  5
D5CE2
330
D5CBA
100
AcDbEntity
  8
标注
 48
5.0
370
    -2
100
AcDbLine
 10
102573.0882676252
 20
-168841.1348536949
 30
0.0
 11
102573.0882676252
 21
-168868.7760619445
 31
0.0
  0
LINE
  5
D5CE3
330
D5CBA
100
AcDbEntity
  8
标注
 48
5.0
370
    -2
100
AcDbLine
 10
102555.0882676352
 20
-168841.1348536949
 30
0.0
 11
102555.0882676352
 21
-168868.7760619445
 31
0.0
  0
LINE
  5
D5CE4
330
D5CBA
100
AcDbEntity
  8
标注
 48
5.0
370
    -2
100
AcDbLine
 10
102583.0882676252
 20
-168861.7760619445
 30
0.0
 11
102593.0882676252
 21
-168861.7760619445
 31
0.0
  0
LINE
  5
D5CE5
330
D5CBA
100
AcDbEntity
  8
标注
 48
5.0
370
    -2
100
AcDbLine
 10
102545.0882676352
 20
-168861.7760619445
 30
0.0
 11
102535.0882676352
 21
-168861.7760619445
 31
0.0
  0
LINE
  5
D5CE6
330
D5CBA
100
AcDbEntity
  8
标注
 48
5.0
370
    -2
100
AcDbLine
 10
102573.0882676252
 20
-168861.7760619445
 30
0.0
 11
102555.0882676352
 21
-168861.7760619445
 31
0.0
  0
SOLID
  5
D5CE7
330
D5CBA
100
AcDbEntity
  8
标注
 48
5.0
100
AcDbTrace
 10
102583.0882676252
 20
-168860.1093952778
 30
0.0
 11
102583.0882676252
 21
-168863.4427286112
 31
0.0
 12
102573.0882676252
 22
-168861.7760619445
 32
0.0
 13
102573.0882676252
 23
-168861.7760619445
 33
0.0
  0
SOLID
  5
D5CE8
330
D5CBA
100
AcDbEntity
  8
标注
 48
5.0
100
AcDbTrace
 10
102545.0882676352
 20
-168860.1093952778
 30
0.0
 11
102545.0882676352
 21
-168863.4427286112
 31
0.0
 12
102555.0882676352
 22
-168861.7760619445
 32
0.0
 13
102555.0882676352
 23
-168861.7760619445
 33
0.0
  0
MTEXT
  5
D5CE9
330
D5CBA
100
AcDbEntity
  8
标注
 48
5.0
100
AcDbMText
 10
102527.5216009685
 20
-168861.7760619445
 30
0.0
 40
12.0
 41
0.0
 71
     5
 72
     1
  1
\A1;18
 73
     1
 44
1.0
1001
ACAD
1000
MTEXTBEGIN
1070
    73
1070
     1
1070
    44
1040
1.0
1070
    74
1070
     0
1000
MTEXTEND
  0
POINT
  5
D5CEA
330
D5CBA
100
AcDbEntity
  8
Defpoints
 62
     0
 48
5.0
100
AcDbPoint
 10
102573.0882676252
 20
-168834.1348536949
 30
0.0
  0
POINT
  5
D5CEB
330
D5CBA
100
AcDbEntity
  8
Defpoints
 62
     0
 48
5.0
100
AcDbPoint
 10
102555.0882676352
 20
-168834.1348536949
 30
0.0
  0
POINT
  5
D5CEC
330
D5CBA
100
AcDbEntity
  8
Defpoints
 62
     0
 48
5.0
100
AcDbPoint
 10
102555.0882676352
 20
-168861.7760619445
 30
0.0
  0
ENDBLK
  5
D5CBC
330
D5CBA
100
AcDbEntity
  8
0
 48
5.0
100
AcDbBlockEnd
  0
BLOCK
  5
D5CEF
330
D5CEE
100
AcDbEntity
  8
0
 48
5.0
100
AcDbBlockBegin
  2
*D3
 70
     1
 10
0.0
 20
0.0
 30
0.0
  3
*D3
  1

  0
LINE
  5
D5CF1
330
D5CEE
100
AcDbEntity
  8
标注
 48
5.0
370
    -2
100
AcDbLine
 10
102573.0882676252
 20
-168841.1348536949
 30
0.0
 11
102573.0882676252
 21
-168868.7760619445
 31
0.0
  0
LINE
  5
D5CF2
330
D5CEE
100
AcDbEntity
  8
标注
 48
5.0
370
    -2
100
AcDbLine
 10
102934.0882676352
 20
-168841.134853695
 30
0.0
 11
102934.0882676352
 21
-168868.7760619445
 31
0.0
  0
LINE
  5
D5CF3
330
D5CEE
100
AcDbEntity
  8
标注
 48
5.0
370
    -2
100
AcDbLine
 10
102583.0882676252
 20
-168861.7760619445
 30
0.0
 11
102741.6549342969
 21
-168861.7760619445
 31
0.0
  0
LINE
  5
D5CF4
330
D5CEE
100
AcDbEntity
  8
标注
 48
5.0
370
    -2
100
AcDbLine
 10
102924.0882676352
 20
-168861.7760619445
 30
0.0
 11
102765.5216009635
 21
-168861.7760619445
 31
0.0
  0
SOLID
  5
D5CF5
330
D5CEE
100
AcDbEntity
  8
标注
 48
5.0
100
AcDbTrace
 10
102583.0882676252
 20
-168860.1093952778
 30
0.0
 11
102583.0882676252
 21
-168863.4427286112
 31
0.0
 12
102573.0882676252
 22
-168861.7760619445
 32
0.0
 13
102573.0882676252
 23
-168861.7760619445
 33
0.0
  0
SOLID
  5
D5CF6
330
D5CEE
100
AcDbEntity
  8
标注
 48
5.0
100
AcDbTrace
 10
102924.0882676352
 20
-168860.1093952778
 30
0.0
 11
102924.0882676352
 21
-168863.4427286112
 31
0.0
 12
102934.0882676352
 22
-168861.7760619445
 32
0.0
 13
102934.0882676352
 23
-168861.7760619445
 33
0.0
  0
MTEXT
  5
D5CF7
330
D5CEE
100
AcDbEntity
  8
标注
 48
5.0
100
AcDbMText
 10
102753.5882676302
 20
-168861.7760619445
 30
0.0
 40
12.0
 41
0.0
 71
     5
 72
     1
  1
\A1;361
 73
     1
 44
1.0
1001
ACAD
1000
MTEXTBEGIN
1070
    73
1070
     1
1070
    44
1040
1.0
1070
    74
1070
     0
1000
MTEXTEND
  0
POINT
  5
D5CF8
330
D5CEE
100
AcDbEntity
  8
Defpoints
 62
     0
 48
5.0
100
AcDbPoint
 10
102573.0882676252
 20
-168834.1348536949
 30
0.0
  0
POINT
  5
D5CF9
330
D5CEE
100
AcDbEntity
  8
Defpoints
 62
     0
 48
5.0
100
AcDbPoint
 10
102934.0882676352
 20
-168834.134853695
 30
0.0
  0
POINT
  5
D5CFA
330
D5CEE
100
AcDbEntity
  8
Defpoints
 62
     0
 48
5.0
100
AcDbPoint
 10
102934.0882676352
 20
-168861.7760619445
 30
0.0
  0
ENDBLK
  5
D5CF0
330
D5CEE
100
AcDbEntity
  8
0
 48
5.0
100
AcDbBlockEnd
  0
BLOCK
  5
D5CFD
330
D5CFC
100
AcDbEntity
  8
0
 48
5.0
100
AcDbBlockBegin
  2
*D4
 70
     1
 10
0.0
 20
0.0
 30
0.0
  3
*D4
  1

  0
LINE
  5
D5D15
330
D5CFC
100
AcDbEntity
  8
标注
 48
5.0
370
    -2
100
AcDbLine
 10
102573.0882676252
 20
-168841.1348536949
 30
0.0
 11
102573.0882676252
 21
-168902.7568043149
 31
0.0
  0
LINE
  5
D5D16
330
D5CFC
100
AcDbEntity
  8
标注
 48
5.0
370
    -2
100
AcDbLine
 10
103295.0882676453
 20
-168841.1348536949
 30
0.0
 11
103295.0882676453
 21
-168902.7568043149
 31
0.0
  0
LINE
  5
D5D17
330
D5CFC
100
AcDbEntity
  8
标注
 48
5.0
370
    -2
100
AcDbLine
 10
102583.0882676252
 20
-168895.7568043149
 30
0.0
 11
102740.2382676302
 21
-168895.7568043149
 31
0.0
  0
LINE
  5
D5D18
330
D5CFC
100
AcDbEntity
  8
标注
 48
5.0
370
    -2
100
AcDbLine
 10
103285.0882676453
 20
-168895.7568043149
 30
0.0
 11
102764.7049342969
 21
-168895.7568043149
 31
0.0
  0
SOLID
  5
D5D19
330
D5CFC
100
AcDbEntity
  8
标注
 48
5.0
100
AcDbTrace
 10
102583.0882676252
 20
-168894.0901376483
 30
0.0
 11
102583.0882676252
 21
-168897.4234709816
 31
0.0
 12
102573.0882676252
 22
-168895.7568043149
 32
0.0
 13
102573.0882676252
 23
-168895.7568043149
 33
0.0
  0
SOLID
  5
D5D1A
330
D5CFC
100
AcDbEntity
  8
标注
 48
5.0
100
AcDbTrace
 10
103285.0882676453
 20
-168894.0901376483
 30
0.0
 11
103285.0882676453
 21
-168897.4234709816
 31
0.0
 12
103295.0882676453
 22
-168895.7568043149
 32
0.0
 13
103295.0882676453
 23
-168895.7568043149
 33
0.0
  0
MTEXT
  5
D5D1B
330
D5CFC
100
AcDbEntity
  8
标注
 48
5.0
100
AcDbMText
 10
102752.4716009636
 20
-168895.7568043149
 30
0.0
 40
12.0
 41
0.0
 71
     5
 72
     1
  1
\A1;722
 73
     1
 44
1.0
1001
ACAD
1000
MTEXTBEGIN
1070
    73
1070
     1
1070
    44
1040
1.0
1070
    74
1070
     0
1000
MTEXTEND
  0
POINT
  5
D5D1C
330
D5CFC
100
AcDbEntity
  8
Defpoints
 62
     0
 48
5.0
100
AcDbPoint
 10
102573.0882676252
 20
-168834.1348536949
 30
0.0
  0
POINT
  5
D5D1D
330
D5CFC
100
AcDbEntity
  8
Defpoints
 62
     0
 48
5.0
100
AcDbPoint
 10
103295.0882676453
 20
-168834.1348536949
 30
0.0
  0
POINT
  5
D5D1E
330
D5CFC
100
AcDbEntity
  8
Defpoints
 62
     0
 48
5.0
100
AcDbPoint
 10
103295.0882676453
 20
-168895.7568043149
 30
0.0
  0
ENDBLK
  5
D5CFE
330
D5CFC
100
AcDbEntity
  8
0
 48
5.0
100
AcDbBlockEnd
  0
BLOCK
  5
D5D21
330
D5D20
100
AcDbEntity
  8
0
 48
5.0
100
AcDbBlockBegin
  2
*D5
 70
     1
 10
0.0
 20
0.0
 30
0.0
  3
*D5
  1

  0
LINE
  5
D5D45
330
D5D20
100
AcDbEntity
  8
标注
 48
5.0
370
    -2
100
AcDbLine
 10
102941.0882676352
 20
-169055.1347207265
 30
0.0
 11
102965.8907578534
 21
-169055.1347207265
 31
0.0
  0
LINE
  5
D5D46
330
D5D20
100
AcDbEntity
  8
标注
 48
5.0
370
    -2
100
AcDbLine
 10
102941.0882676352
 20
-169073.1347207165
 30
0.0
 11
102965.8907578534
 21
-169073.1347207165
 31
0.0
  0
LINE
  5
D5D47
330
D5D20
100
AcDbEntity
  8
标注
 48
5.0
370
    -2
100
AcDbLine
 10
102958.8907578534
 20
-169045.1347207265
 30
0.0
 11
102958.8907578534
 21
-169035.1347207264
 31
0.0
  0
LINE
  5
D5D48
330
D5D20
100
AcDbEntity
  8
标注
 48
5.0
370
    -2
100
AcDbLine
 10
102958.8907578534
 20
-169083.1347207165
 30
0.0
 11
102958.8907578534
 21
-169093.1347207165
 31
0.0
  0
LINE
  5
D5D49
330
D5D20
100
AcDbEntity
  8
标注
 48
5.0
370
    -2
100
AcDbLine
 10
102958.8907578534
 20
-169055.1347207265
 30
0.0
 11
102958.8907578534
 21
-169073.1347207165
 31
0.0
  0
SOLID
  5
D5D4A
330
D5D20
100
AcDbEntity
  8
标注
 48
5.0
100
AcDbTrace
 10
102957.2240911867
 20
-169045.1347207265
 30
0.0
 11
102960.5574245201
 21
-169045.1347207265
 31
0.0
 12
102958.8907578534
 22
-169055.1347207265
 32
0.0
 13
102958.8907578534
 23
-169055.1347207265
 33
0.0
  0
SOLID
  5
D5D4B
330
D5D20
100
AcDbEntity
  8
标注
 48
5.0
100
AcDbTrace
 10
102957.2240911867
 20
-169083.1347207165
 30
0.0
 11
102960.5574245201
 21
-169083.1347207165
 31
0.0
 12
102958.8907578534
 22
-169073.1347207165
 32
0.0
 13
102958.8907578534
 23
-169073.1347207165
 33
0.0
  0
MTEXT
  5
D5D4C
330
D5D20
100
AcDbEntity
  8
标注
 48
5.0
100
AcDbMText
 10
102958.8907578534
 20
-169100.7013873831
 30
0.0
 40
12.0
 41
0.0
 71
     5
 72
     1
  1
\A1;18
 11
0.0000000000000001
 21
1.0
 31
0.0
 73
     1
 44
1.0
1001
ACAD
1000
MTEXTBEGIN
1070
    73
1070
     1
1070
    44
1040
1.0
1070
    74
1070
     0
1000
MTEXTEND
  0
POINT
  5
D5D4D
330
D5D20
100
AcDbEntity
  8
Defpoints
 62
     0
 48
5.0
100
AcDbPoint
 10
102934.0882676352
 20
-169055.1347207265
 30
0.0
  0
POINT
  5
D5D4E
330
D5D20
100
AcDbEntity
  8
Defpoints
 62
     0
 48
5.0
100
AcDbPoint
 10
102934.0882676352
 20
-169073.1347207165
 30
0.0
  0
POINT
  5
D5D4F
330
D5D20
100
AcDbEntity
  8
Defpoints
 62
     0
 48
5.0
100
AcDbPoint
 10
102958.8907578534
 20
-169073.1347207165
 30
0.0
  0
ENDBLK
  5
D5D22
330
D5D20
100
AcDbEntity
  8
0
 48
5.0
100
AcDbBlockEnd
  0
BLOCK
  5
D5D52
330
D5D51
100
AcDbEntity
  8
0
 48
5.0
100
AcDbBlockBegin
  2
*D6
 70
     1
 10
0.0
 20
0.0
 30
0.0
  3
*D6
  1

  0
LINE
  5
D5D54
330
D5D51
100
AcDbEntity
  8
标注
 48
5.0
370
    -2
100
AcDbLine
 10
102941.0882676352
 20
-169055.1347207265
 30
0.0
 11
102965.8907578534
 21
-169055.1347207265
 31
0.0
  0
LINE
  5
D5D55
330
D5D51
100
AcDbEntity
  8
标注
 48
5.0
370
    -2
100
AcDbLine
 10
102941.0882676353
 20
-168834.1348536949
 30
0.0
 11
102965.8907578534
 21
-168834.1348536949
 31
0.0
  0
LINE
  5
D5D56
330
D5D51
100
AcDbEntity
  8
标注
 48
5.0
370
    -2
100
AcDbLine
 10
102958.8907578534
 20
-169045.1347207265
 30
0.0
 11
102958.8907578534
 21
-168956.6347872107
 31
0.0
  0
LINE
  5
D5D57
330
D5D51
100
AcDbEntity
  8
标注
 48
5.0
370
    -2
100
AcDbLine
 10
102958.8907578534
 20
-168844.1348536949
 30
0.0
 11
102958.8907578534
 21
-168932.6347872107
 31
0.0
  0
SOLID
  5
D5D58
330
D5D51
100
AcDbEntity
  8
标注
 48
5.0
100
AcDbTrace
 10
102957.2240911867
 20
-169045.1347207265
 30
0.0
 11
102960.5574245201
 21
-169045.1347207265
 31
0.0
 12
102958.8907578534
 22
-169055.1347207265
 32
0.0
 13
102958.8907578534
 23
-169055.1347207265
 33
0.0
  0
SOLID
  5
D5D59
330
D5D51
100
AcDbEntity
  8
标注
 48
5.0
100
AcDbTrace
 10
102957.2240911867
 20
-168844.1348536949
 30
0.0
 11
102960.5574245201
 21
-168844.1348536949
 31
0.0
 12
102958.8907578534
 22
-168834.1348536949
 32
0.0
 13
102958.8907578534
 23
-168834.1348536949
 33
0.0
  0
MTEXT
  5
D5D5A
330
D5D51
100
AcDbEntity
  8
标注
 48
5.0
100
AcDbMText
 10
102958.8907578534
 20
-168944.6347872107
 30
0.0
 40
12.0
 41
0.0
 71
     5
 72
     1
  1
\A1;221
 11
0.0000000000000001
 21
1.0
 31
0.0
 73
     1
 44
1.0
1001
ACAD
1000
MTEXTBEGIN
1070
    73
1070
     1
1070
    44
1040
1.0
1070
    74
1070
     0
1000
MTEXTEND
  0
POINT
  5
D5D5B
330
D5D51
100
AcDbEntity
  8
Defpoints
 62
     0
 48
5.0
100
AcDbPoint
 10
102934.0882676352
 20
-169055.1347207265
 30
0.0
  0
POINT
  5
D5D5C
330
D5D51
100
AcDbEntity
  8
Defpoints
 62
     0
 48
5.0
100
AcDbPoint
 10
102934.0882676353
 20
-168834.1348536949
 30
0.0
  0
POINT
  5
D5D5D
330
D5D51
100
AcDbEntity
  8
Defpoints
 62
     0
 48
5.0
100
AcDbPoint
 10
102958.8907578534
 20
-168834.1348536949
 30
0.0
  0
ENDBLK
  5
D5D53
330
D5D51
100
AcDbEntity
  8
0
 48
5.0
100
AcDbBlockEnd
  0
BLOCK
  5
D5D60
330
D5D5F
100
AcDbEntity
  8
0
 48
5.0
100
AcDbBlockBegin
  2
*D7
 70
     1
 10
0.0
 20
0.0
 30
0.0
  3
*D7
  1

  0
LINE
  5
D5DA0
330
D5D5F
100
AcDbEntity
  8
标注
 48
5.0
370
    -2
100
AcDbLine
 10
102941.0882676352
 20
-169055.1347207265
 30
0.0
 11
102988.8024193639
 21
-169055.1347207265
 31
0.0
  0
LINE
  5
D5DA1
330
D5D5F
100
AcDbEntity
  8
标注
 48
5.0
370
    -2
100
AcDbLine
 10
102941.0882676352
 20
-168643.2792141585
 30
0.0
 11
102988.8024193639
 21
-168643.2792141585
 31
0.0
  0
LINE
  5
D5DA2
330
D5D5F
100
AcDbEntity
  8
标注
 48
5.0
370
    -2
100
AcDbLine
 10
102981.8024193639
 20
-169045.1347207265
 30
0.0
 11
102981.8024193639
 21
-168958.5740540459
 31
0.0
  0
LINE
  5
D5DA3
330
D5D5F
100
AcDbEntity
  8
标注
 48
5.0
370
    -2
100
AcDbLine
 10
102981.8024193639
 20
-168653.2792141585
 30
0.0
 11
102981.8024193639
 21
-168916.4407207126
 31
0.0
  0
SOLID
  5
D5DA4
330
D5D5F
100
AcDbEntity
  8
标注
 48
5.0
100
AcDbTrace
 10
102980.1357526973
 20
-169045.1347207265
 30
0.0
 11
102983.4690860306
 21
-169045.1347207265
 31
0.0
 12
102981.8024193639
 22
-169055.1347207265
 32
0.0
 13
102981.8024193639
 23
-169055.1347207265
 33
0.0
  0
SOLID
  5
D5DA5
330
D5D5F
100
AcDbEntity
  8
标注
 48
5.0
100
AcDbTrace
 10
102980.1357526973
 20
-168653.2792141585
 30
0.0
 11
102983.4690860306
 21
-168653.2792141585
 31
0.0
 12
102981.8024193639
 22
-168643.2792141585
 32
0.0
 13
102981.8024193639
 23
-168643.2792141585
 33
0.0
  0
MTEXT
  5
D5DA6
330
D5D5F
100
AcDbEntity
  8
标注
 48
5.0
100
AcDbMText
 10
102981.802419364
 20
-168937.5073873792
 30
0.0
 40
12.0
 41
0.0
 71
     5
 72
     1
  1
\A1;411,9
 11
0.0000000000000001
 21
1.0
 31
0.0
 73
     1
 44
1.0
1001
ACAD
1000
MTEXTBEGIN
1070
    73
1070
     1
1070
    44
1040
1.0
1070
    74
1070
     0
1000
MTEXTEND
  0
POINT
  5
D5DA7
330
D5D5F
100
AcDbEntity
  8
Defpoints
 62
     0
 48
5.0
100
AcDbPoint
 10
102934.0882676352
 20
-169055.1347207265
 30
0.0
  0
POINT
  5
D5DA8
330
D5D5F
100
AcDbEntity
  8
Defpoints
 62
     0
 48
5.0
100
AcDbPoint
 10
102934.0882676352
 20
-168643.2792141585
 30
0.0
  0
POINT
  5
D5DA9
330
D5D5F
100
AcDbEntity
  8
Defpoints
 62
     0
 48
5.0
100
AcDbPoint
 10
102981.8024193639
 20
-168643.2792141585
 30
0.0
  0
ENDBLK
  5
D5D61
330
D5D5F
100
AcDbEntity
  8
0
 48
5.0
100
AcDbBlockEnd
  0
BLOCK
  5
D5DC6
330
D5DC5
100
AcDbEntity
  8
0
 48
5.0
100
AcDbBlockBegin
  2
*D8
 70
     1
 10
0.0
 20
0.0
 30
0.0
  3
*D8
  1

  0
LINE
  5
D5DD3
330
D5DC5
100
AcDbEntity
  8
标注
 48
5.0
370
    -2
100
AcDbLine
 10
102559.0882676352
 20
-168976.1347207165
 30
0.0
 11
102559.0882676352
 21
-169129.9579506566
 31
0.0
  0
LINE
  5
D5DD4
330
D5DC5
100
AcDbEntity
  8
标注
 48
5.0
370
    -2
100
AcDbLine
 10
103309.0882676352
 20
-168870.1347207165
 30
0.0
 11
103309.0882676352
 21
-169129.9579506566
 31
0.0
  0
LINE
  5
D5DD5
330
D5DC5
100
AcDbEntity
  8
标注
 48
5.0
370
    -2
100
AcDbLine
 10
102569.0882676352
 20
-169122.9579506566
 30
0.0
 11
102921.7549343019
 21
-169122.9579506566
 31
0.0
  0
LINE
  5
D5DD6
330
D5DC5
100
AcDbEntity
  8
标注
 48
5.0
370
    -2
100
AcDbLine
 10
103299.0882676352
 20
-169122.9579506566
 30
0.0
 11
102946.4216009685
 21
-169122.9579506566
 31
0.0
  0
SOLID
  5
D5DD7
330
D5DC5
100
AcDbEntity
  8
标注
 48
5.0
100
AcDbTrace
 10
102569.0882676352
 20
-169121.29128399
 30
0.0
 11
102569.0882676352
 21
-169124.6246173233
 31
0.0
 12
102559.0882676352
 22
-169122.9579506566
 32
0.0
 13
102559.0882676352
 23
-169122.9579506566
 33
0.0
  0
SOLID
  5
D5DD8
330
D5DC5
100
AcDbEntity
  8
标注
 48
5.0
100
AcDbTrace
 10
103299.0882676352
 20
-169121.29128399
 30
0.0
 11
103299.0882676352
 21
-169124.6246173233
 31
0.0
 12
103309.0882676352
 22
-169122.9579506566
 32
0.0
 13
103309.0882676352
 23
-169122.9579506566
 33
0.0
  0
MTEXT
  5
D5DD9
330
D5DC5
100
AcDbEntity
  8
标注
 48
5.0
100
AcDbMText
 10
102934.0882676352
 20
-169122.9579506566
 30
0.0
 40
12.0
 41
0.0
 71
     5
 72
     1
  1
\A1;750
 73
     1
 44
1.0
1001
ACAD
1000
MTEXTBEGIN
1070
    73
1070
     1
1070
    44
1040
1.0
1070
    74
1070
     0
1000
MTEXTEND
  0
POINT
  5
D5DDA
330
D5DC5
100
AcDbEntity
  8
Defpoints
 62
     0
 48
5.0
100
AcDbPoint
 10
102559.0882676352
 20
-168969.1347207165
 30
0.0
  0
POINT
  5
D5DDB
330
D5DC5
100
AcDbEntity
  8
Defpoints
 62
     0
 48
5.0
100
AcDbPoint
 10
103309.0882676352
 20
-168863.1347207165
 30
0.0
  0
POINT
  5
D5DDC
330
D5DC5
100
AcDbEntity
  8
Defpoints
 62
     0
 48
5.0
100
AcDbPoint
 10
103309.0882676352
 20
-169122.9579506566
 30
0.0
  0
ENDBLK
  5
D5DC7
330
D5DC5
100
AcDbEntity
  8
0
 48
5.0
100
AcDbBlockEnd
  0
BLOCK
  5
D5DE0
330
D5DDF
100
AcDbEntity
  8
0
 48
5.0
100
AcDbBlockBegin
  2
*D9
 70
     1
 10
0.0
 20
0.0
 30
0.0
  3
*D9
  1

  0
LINE
  5
D5DED
330
D5DDF
100
AcDbEntity
  8
标注
 48
5.0
370
    -2
100
AcDbLine
 10
102555.0882676352
 20
-168976.1347207165
 30
0.0
 11
102555.0882676352
 21
-169153.975612169
 31
0.0
  0
LINE
  5
D5DEE
330
D5DDF
100
AcDbEntity
  8
标注
 48
5.0
370
    -2
100
AcDbLine
 10
103313.0882676352
 20
-168870.1347207152
 30
0.0
 11
103313.0882676352
 21
-169153.975612169
 31
0.0
  0
LINE
  5
D5DEF
330
D5DDF
100
AcDbEntity
  8
标注
 48
5.0
370
    -2
100
AcDbLine
 10
102565.0882676352
 20
-169146.975612169
 30
0.0
 11
102921.8216009685
 21
-169146.975612169
 31
0.0
  0
LINE
  5
D5DF0
330
D5DDF
100
AcDbEntity
  8
标注
 48
5.0
370
    -2
100
AcDbLine
 10
103303.0882676352
 20
-169146.975612169
 30
0.0
 11
102946.3549343019
 21
-169146.975612169
 31
0.0
  0
SOLID
  5
D5DF1
330
D5DDF
100
AcDbEntity
  8
标注
 48
5.0
100
AcDbTrace
 10
102565.0882676352
 20
-169145.3089455024
 30
0.0
 11
102565.0882676352
 21
-169148.6422788357
 31
0.0
 12
102555.0882676352
 22
-169146.975612169
 32
0.0
 13
102555.0882676352
 23
-169146.975612169
 33
0.0
  0
SOLID
  5
D5DF2
330
D5DDF
100
AcDbEntity
  8
标注
 48
5.0
100
AcDbTrace
 10
103303.0882676352
 20
-169145.3089455024
 30
0.0
 11
103303.0882676352
 21
-169148.6422788357
 31
0.0
 12
103313.0882676352
 22
-169146.975612169
 32
0.0
 13
103313.0882676352
 23
-169146.975612169
 33
0.0
  0
MTEXT
  5
D5DF3
330
D5DDF
100
AcDbEntity
  8
标注
 48
5.0
100
AcDbMText
 10
102934.0882676352
 20
-169146.975612169
 30
0.0
 40
12.0
 41
0.0
 71
     5
 72
     1
  1
\A1;758
 73
     1
 44
1.0
1001
ACAD
1000
MTEXTBEGIN
1070
    73
1070
     1
1070
    44
1040
1.0
1070
    74
1070
     0
1000
MTEXTEND
  0
POINT
  5
D5DF4
330
D5DDF
100
AcDbEntity
  8
Defpoints
 62
     0
 48
5.0
100
AcDbPoint
 10
102555.0882676352
 20
-168969.1347207165
 30
0.0
  0
POINT
  5
D5DF5
330
D5DDF
100
AcDbEntity
  8
Defpoints
 62
     0
 48
5.0
100
AcDbPoint
 10
103313.0882676352
 20
-168863.1347207152
 30
0.0
  0
POINT
  5
D5DF6
330
D5DDF
100
AcDbEntity
  8
Defpoints
 62
     0
 48
5.0
100
AcDbPoint
 10
103313.0882676352
 20
-169146.975612169
 30
0.0
  0
ENDBLK
  5
D5DE1
330
D5DDF
100
AcDbEntity
  8
0
 48
5.0
100
AcDbBlockEnd
  0
BLOCK
  5
D5DFA
330
D5DF9
100
AcDbEntity
  8
0
 48
5.0
100
AcDbBlockBegin
  2
*D10
 70
     1
 10
0.0
 20
0.0
 30
0.0
  3
*D10
  1

  0
LINE
  5
D5DFC
330
D5DF9
100
AcDbEntity
  8
标注
 48
5.0
370
    -2
100
AcDbLine
 10
103299.0882676352
 20
-169122.9579506566
 30
0.0
 11
103289.0882676352
 21
-169122.9579506566
 31
0.0
  0
LINE
  5
D5DFD
330
D5DF9
100
AcDbEntity
  8
标注
 48
5.0
370
    -2
100
AcDbLine
 10
103323.0882676352
 20
-169122.9579506566
 30
0.0
 11
103333.0882676352
 21
-169122.9579506566
 31
0.0
  0
LINE
  5
D5DFE
330
D5DF9
100
AcDbEntity
  8
标注
 48
5.0
370
    -2
100
AcDbLine
 10
103309.0882676352
 20
-169122.9579506566
 30
0.0
 11
103313.0882676352
 21
-169122.9579506566
 31
0.0
  0
SOLID
  5
D5DFF
330
D5DF9
100
AcDbEntity
  8
标注
 48
5.0
100
AcDbTrace
 10
103299.0882676352
 20
-169121.29128399
 30
0.0
 11
103299.0882676352
 21
-169124.6246173233
 31
0.0
 12
103309.0882676352
 22
-169122.9579506566
 32
0.0
 13
103309.0882676352
 23
-169122.9579506566
 33
0.0
  0
SOLID
  5
D5E00
330
D5DF9
100
AcDbEntity
  8
标注
 48
5.0
100
AcDbTrace
 10
103323.0882676352
 20
-169121.29128399
 30
0.0
 11
103323.0882676352
 21
-169124.6246173233
 31
0.0
 12
103313.0882676352
 22
-169122.9579506566
 32
0.0
 13
103313.0882676352
 23
-169122.9579506566
 33
0.0
  0
MTEXT
  5
D5E01
330
D5DF9
100
AcDbEntity
  8
标注
 48
5.0
100
AcDbMText
 10
103337.2549343019
 20
-169122.9579506566
 30
0.0
 40
12.0
 41
0.0
 71
     5
 72
     1
  1
\A1;4
 73
     1
 44
1.0
1001
ACAD
1000
MTEXTBEGIN
1070
    73
1070
     1
1070
    44
1040
1.0
1070
    74
1070
     0
1000
MTEXTEND
  0
POINT
  5
D5E02
330
D5DF9
100
AcDbEntity
  8
Defpoints
 62
     0
 48
5.0
100
AcDbPoint
 10
103309.0882676352
 20
-169122.9579506566
 30
0.0
  0
POINT
  5
D5E03
330
D5DF9
100
AcDbEntity
  8
Defpoints
 62
     0
 48
5.0
100
AcDbPoint
 10
103313.0882676352
 20
-169122.9579506566
 30
0.0
  0
POINT
  5
D5E04
330
D5DF9
100
AcDbEntity
  8
Defpoints
 62
     0
 48
5.0
100
AcDbPoint
 10
103313.0882676352
 20
-169122.9579506566
 30
0.0
  0
ENDBLK
  5
D5DFB
330
D5DF9
100
AcDbEntity
  8
0
 48
5.0
100
AcDbBlockEnd
  0
BLOCK
  5
D5E07
330
D5E06
100
AcDbEntity
  8
0
 48
5.0
100
AcDbBlockBegin
  2
*D11
 70
     1
 10
0.0
 20
0.0
 30
0.0
  3
*D11
  1

  0
LINE
  5
D5E14
330
D5E06
100
AcDbEntity
  8
标注
 48
5.0
370
    -2
100
AcDbLine
 10
102777.5882676348
 20
-168599.1349866733
 30
0.0
 11
102500.0438305893
 21
-168599.1349866733
 31
0.0
  0
LINE
  5
D5E15
330
D5E06
100
AcDbEntity
  8
标注
 48
5.0
370
    -2
100
AcDbLine
 10
102652.0882676352
 20
-169069.1347207165
 30
0.0
 11
102500.0438305893
 21
-169069.1347207165
 31
0.0
  0
LINE
  5
D5E16
330
D5E06
100
AcDbEntity
  8
标注
 48
5.0
370
    -2
100
AcDbLine
 10
102507.0438305893
 20
-168609.1349866734
 30
0.0
 11
102507.0438305893
 21
-168821.5681870282
 31
0.0
  0
LINE
  5
D5E17
330
D5E06
100
AcDbEntity
  8
标注
 48
5.0
370
    -2
100
AcDbLine
 10
102507.0438305893
 20
-169059.1347207165
 30
0.0
 11
102507.0438305893
 21
-168846.7015203616
 31
0.0
  0
SOLID
  5
D5E18
330
D5E06
100
AcDbEntity
  8
标注
 48
5.0
100
AcDbTrace
 10
102505.3771639226
 20
-168609.1349866734
 30
0.0
 11
102508.710497256
 21
-168609.1349866734
 31
0.0
 12
102507.0438305893
 22
-168599.1349866733
 32
0.0
 13
102507.0438305893
 23
-168599.1349866733
 33
0.0
  0
SOLID
  5
D5E19
330
D5E06
100
AcDbEntity
  8
标注
 48
5.0
100
AcDbTrace
 10
102505.3771639226
 20
-169059.1347207165
 30
0.0
 11
102508.710497256
 21
-169059.1347207165
 31
0.0
 12
102507.0438305893
 22
-169069.1347207165
 32
0.0
 13
102507.0438305893
 23
-169069.1347207165
 33
0.0
  0
MTEXT
  5
D5E1A
330
D5E06
100
AcDbEntity
  8
标注
 48
5.0
100
AcDbMText
 10
102507.0438305893
 20
-168834.1348536949
 30
0.0
 40
12.0
 41
0.0
 71
     5
 72
     1
  1
\A1;470
 11
0.0000000000000001
 21
1.0
 31
0.0
 73
     1
 44
1.0
1001
ACAD
1000
MTEXTBEGIN
1070
    73
1070
     1
1070
    44
1040
1.0
1070
    74
1070
     0
1000
MTEXTEND
  0
POINT
  5
D5E1B
330
D5E06
100
AcDbEntity
  8
Defpoints
 62
     0
 48
5.0
100
AcDbPoint
 10
102784.5882676348
 20
-168599.1349866733
 30
0.0
  0
POINT
  5
D5E1C
330
D5E06
100
AcDbEntity
  8
Defpoints
 62
     0
 48
5.0
100
AcDbPoint
 10
102659.0882676352
 20
-169069.1347207165
 30
0.0
  0
POINT
  5
D5E1D
330
D5E06
100
AcDbEntity
  8
Defpoints
 62
     0
 48
5.0
100
AcDbPoint
 10
102507.0438305893
 20
-169069.1347207165
 30
0.0
  0
ENDBLK
  5
D5E08
330
D5E06
100
AcDbEntity
  8
0
 48
5.0
100
AcDbBlockEnd
  0
BLOCK
  5
D5E21
330
D5E20
100
AcDbEntity
  8
0
 48
5.0
100
AcDbBlockBegin
  2
*D12
 70
     1
 10
0.0
 20
0.0
 30
0.0
  3
*D12
  1

  0
LINE
  5
D5E2E
330
D5E20
100
AcDbEntity
  8
标注
 48
5.0
370
    -2
100
AcDbLine
 10
102652.0882676352
 20
-169073.1347207165
 30
0.0
 11
102472.7933680969
 21
-169073.1347207165
 31
0.0
  0
LINE
  5
D5E2F
330
D5E20
100
AcDbEntity
  8
标注
 48
5.0
370
    -2
100
AcDbLine
 10
102777.5882676348
 20
-168595.1349866734
 30
0.0
 11
102472.7933680969
 21
-168595.1349866734
 31
0.0
  0
LINE
  5
D5E30
330
D5E20
100
AcDbEntity
  8
标注
 48
5.0
370
    -2
100
AcDbLine
 10
102479.7933680969
 20
-169063.1347207165
 30
0.0
 11
102479.7933680969
 21
-168846.6348536949
 31
0.0
  0
LINE
  5
D5E31
330
D5E20
100
AcDbEntity
  8
标注
 48
5.0
370
    -2
100
AcDbLine
 10
102479.7933680969
 20
-168605.1349866733
 30
0.0
 11
102479.7933680969
 21
-168821.6348536949
 31
0.0
  0
SOLID
  5
D5E32
330
D5E20
100
AcDbEntity
  8
标注
 48
5.0
100
AcDbTrace
 10
102478.1267014302
 20
-169063.1347207165
 30
0.0
 11
102481.4600347635
 21
-169063.1347207165
 31
0.0
 12
102479.7933680969
 22
-169073.1347207165
 32
0.0
 13
102479.7933680969
 23
-169073.1347207165
 33
0.0
  0
SOLID
  5
D5E33
330
D5E20
100
AcDbEntity
  8
标注
 48
5.0
100
AcDbTrace
 10
102478.1267014302
 20
-168605.1349866733
 30
0.0
 11
102481.4600347635
 21
-168605.1349866733
 31
0.0
 12
102479.7933680969
 22
-168595.1349866734
 32
0.0
 13
102479.7933680969
 23
-168595.1349866734
 33
0.0
  0
MTEXT
  5
D5E34
330
D5E20
100
AcDbEntity
  8
标注
 48
5.0
100
AcDbMText
 10
102479.7933680969
 20
-168834.1348536949
 30
0.0
 40
12.0
 41
0.0
 71
     5
 72
     1
  1
\A1;478
 11
0.0000000000000001
 21
1.0
 31
0.0
 73
     1
 44
1.0
1001
ACAD
1000
MTEXTBEGIN
1070
    73
1070
     1
1070
    44
1040
1.0
1070
    74
1070
     0
1000
MTEXTEND
  0
POINT
  5
D5E35
330
D5E20
100
AcDbEntity
  8
Defpoints
 62
     0
 48
5.0
100
AcDbPoint
 10
102659.0882676352
 20
-169073.1347207165
 30
0.0
  0
POINT
  5
D5E36
330
D5E20
100
AcDbEntity
  8
Defpoints
 62
     0
 48
5.0
100
AcDbPoint
 10
102784.5882676348
 20
-168595.1349866734
 30
0.0
  0
POINT
  5
D5E37
330
D5E20
100
AcDbEntity
  8
Defpoints
 62
     0
 48
5.0
100
AcDbPoint
 10
102479.7933680969
 20
-168595.1349866734
 30
0.0
  0
ENDBLK
  5
D5E22
330
D5E20
100
AcDbEntity
  8
0
 48
5.0
100
AcDbBlockEnd
  0
BLOCK
  5
D5E3B
330
D5E3A
100
AcDbEntity
  8
0
 48
5.0
100
AcDbBlockBegin
  2
*D13
 70
     1
 10
0.0
 20
0.0
 30
0.0
  3
*D13
  1

  0
LINE
  5
D5E3D
330
D5E3A
100
AcDbEntity
  8
标注
 48
5.0
370
    -2
100
AcDbLine
 10
102507.0438305893
 20
-168609.1349866734
 30
0.0
 11
102507.0438305893
 21
-168619.1349866733
 31
0.0
  0
LINE
  5
D5E3E
330
D5E3A
100
AcDbEntity
  8
标注
 48
5.0
370
    -2
100
AcDbLine
 10
102507.0438305893
 20
-168585.1349866734
 30
0.0
 11
102507.0438305893
 21
-168575.1349866734
 31
0.0
  0
LINE
  5
D5E3F
330
D5E3A
100
AcDbEntity
  8
标注
 48
5.0
370
    -2
100
AcDbLine
 10
102507.0438305893
 20
-168599.1349866733
 30
0.0
 11
102507.0438305893
 21
-168595.1349866734
 31
0.0
  0
SOLID
  5
D5E40
330
D5E3A
100
AcDbEntity
  8
标注
 48
5.0
100
AcDbTrace
 10
102505.3771639226
 20
-168609.1349866734
 30
0.0
 11
102508.710497256
 21
-168609.1349866734
 31
0.0
 12
102507.0438305893
 22
-168599.1349866733
 32
0.0
 13
102507.0438305893
 23
-168599.1349866733
 33
0.0
  0
SOLID
  5
D5E41
330
D5E3A
100
AcDbEntity
  8
标注
 48
5.0
100
AcDbTrace
 10
102505.3771639226
 20
-168585.1349866734
 30
0.0
 11
102508.710497256
 21
-168585.1349866734
 31
0.0
 12
102507.0438305893
 22
-168595.1349866734
 32
0.0
 13
102507.0438305893
 23
-168595.1349866734
 33
0.0
  0
MTEXT
  5
D5E42
330
D5E3A
100
AcDbEntity
  8
标注
 48
5.0
100
AcDbMText
 10
102507.0438305893
 20
-168570.9683200067
 30
0.0
 40
12.0
 41
0.0
 71
     5
 72
     1
  1
\A1;4
 11
0.0000000000000001
 21
1.0
 31
0.0
 73
     1
 44
1.0
1001
ACAD
1000
MTEXTBEGIN
1070
    73
1070
     1
1070
    44
1040
1.0
1070
    74
1070
     0
1000
MTEXTEND
  0
POINT
  5
D5E43
330
D5E3A
100
AcDbEntity
  8
Defpoints
 62
     0
 48
5.0
100
AcDbPoint
 10
102507.0438305893
 20
-168599.1349866733
 30
0.0
  0
POINT
  5
D5E44
330
D5E3A
100
AcDbEntity
  8
Defpoints
 62
     0
 48
5.0
100
AcDbPoint
 10
102507.0438305893
 20
-168595.1349866734
 30
0.0
  0
POINT
  5
D5E45
330
D5E3A
100
AcDbEntity
  8
Defpoints
 62
     0
 48
5.0
100
AcDbPoint
 10
102507.0438305893
 20
-168595.1349866734
 30
0.0
  0
ENDBLK
  5
D5E3C
330
D5E3A
100
AcDbEntity
  8
0
 48
5.0
100
AcDbBlockEnd
  0
BLOCK
  5
D5E48
330
D5E47
100
AcDbEntity
  8
0
 48
5.0
100
AcDbBlockBegin
  2
*D14
 70
     1
 10
0.0
 20
0.0
 30
0.0
  3
*D14
  1

  0
LINE
  5
D5E55
330
D5E47
100
AcDbEntity
  8
标注
 48
5.0
370
    -2
100
AcDbLine
 10
103183.0882676352
 20
-169069.1347207165
 30
0.0
 11
103361.2849354579
 21
-169069.1347207165
 31
0.0
  0
LINE
  5
D5E56
330
D5E47
100
AcDbEntity
  8
标注
 48
5.0
370
    -2
100
AcDbLine
 10
103183.0882676345
 20
-168657.1347207165
 30
0.0
 11
103361.2849354579
 21
-168657.1347207165
 31
0.0
  0
LINE
  5
D5E57
330
D5E47
100
AcDbEntity
  8
标注
 48
5.0
370
    -2
100
AcDbLine
 10
103354.2849354579
 20
-169059.1347207165
 30
0.0
 11
103354.2849354579
 21
-168875.6013873832
 31
0.0
  0
LINE
  5
D5E58
330
D5E47
100
AcDbEntity
  8
标注
 48
5.0
370
    -2
100
AcDbLine
 10
103354.2849354579
 20
-168667.1347207165
 30
0.0
 11
103354.2849354579
 21
-168850.6680540498
 31
0.0
  0
SOLID
  5
D5E59
330
D5E47
100
AcDbEntity
  8
标注
 48
5.0
100
AcDbTrace
 10
103352.6182687912
 20
-169059.1347207165
 30
0.0
 11
103355.9516021245
 21
-169059.1347207165
 31
0.0
 12
103354.2849354579
 22
-169069.1347207165
 32
0.0
 13
103354.2849354579
 23
-169069.1347207165
 33
0.0
  0
SOLID
  5
D5E5A
330
D5E47
100
AcDbEntity
  8
标注
 48
5.0
100
AcDbTrace
 10
103352.6182687912
 20
-168667.1347207165
 30
0.0
 11
103355.9516021245
 21
-168667.1347207165
 31
0.0
 12
103354.2849354579
 22
-168657.1347207165
 32
0.0
 13
103354.2849354579
 23
-168657.1347207165
 33
0.0
  0
MTEXT
  5
D5E5B
330
D5E47
100
AcDbEntity
  8
标注
 48
5.0
100
AcDbMText
 10
103354.2849354579
 20
-168863.1347207165
 30
0.0
 40
12.0
 41
0.0
 71
     5
 72
     1
  1
\A1;412
 11
0.0000000000000001
 21
1.0
 31
0.0
 73
     1
 44
1.0
1001
ACAD
1000
MTEXTBEGIN
1070
    73
1070
     1
1070
    44
1040
1.0
1070
    74
1070
     0
1000
MTEXTEND
  0
POINT
  5
D5E5C
330
D5E47
100
AcDbEntity
  8
Defpoints
 62
     0
 48
5.0
100
AcDbPoint
 10
103176.0882676352
 20
-169069.1347207165
 30
0.0
  0
POINT
  5
D5E5D
330
D5E47
100
AcDbEntity
  8
Defpoints
 62
     0
 48
5.0
100
AcDbPoint
 10
103176.0882676345
 20
-168657.1347207165
 30
0.0
  0
POINT
  5
D5E5E
330
D5E47
100
AcDbEntity
  8
Defpoints
 62
     0
 48
5.0
100
AcDbPoint
 10
103354.2849354579
 20
-168657.1347207165
 30
0.0
  0
ENDBLK
  5
D5E49
330
D5E47
100
AcDbEntity
  8
0
 48
5.0
100
AcDbBlockEnd
  0
BLOCK
  5
D5E62
330
D5E61
100
AcDbEntity
  8
0
 48
5.0
100
AcDbBlockBegin
  2
*D15
 70
     1
 10
0.0
 20
0.0
 30
0.0
  3
*D15
  1

  0
LINE
  5
D5E6F
330
D5E61
100
AcDbEntity
  8
标注
 48
5.0
370
    -2
100
AcDbLine
 10
103183.0882676351
 20
-169073.1347207165
 30
0.0
 11
103389.058759765
 21
-169073.1347207165
 31
0.0
  0
LINE
  5
D5E70
330
D5E61
100
AcDbEntity
  8
标注
 48
5.0
370
    -2
100
AcDbLine
 10
103183.0882676352
 20
-168653.1347207165
 30
0.0
 11
103389.058759765
 21
-168653.1347207165
 31
0.0
  0
LINE
  5
D5E71
330
D5E61
100
AcDbEntity
  8
标注
 48
5.0
370
    -2
100
AcDbLine
 10
103382.058759765
 20
-169063.1347207165
 30
0.0
 11
103382.058759765
 21
-168875.7013873831
 31
0.0
  0
LINE
  5
D5E72
330
D5E61
100
AcDbEntity
  8
标注
 48
5.0
370
    -2
100
AcDbLine
 10
103382.058759765
 20
-168663.1347207165
 30
0.0
 11
103382.058759765
 21
-168850.5680540498
 31
0.0
  0
SOLID
  5
D5E73
330
D5E61
100
AcDbEntity
  8
标注
 48
5.0
100
AcDbTrace
 10
103380.3920930983
 20
-169063.1347207165
 30
0.0
 11
103383.7254264317
 21
-169063.1347207165
 31
0.0
 12
103382.058759765
 22
-169073.1347207165
 32
0.0
 13
103382.058759765
 23
-169073.1347207165
 33
0.0
  0
SOLID
  5
D5E74
330
D5E61
100
AcDbEntity
  8
标注
 48
5.0
100
AcDbTrace
 10
103380.3920930983
 20
-168663.1347207165
 30
0.0
 11
103383.7254264317
 21
-168663.1347207165
 31
0.0
 12
103382.058759765
 22
-168653.1347207165
 32
0.0
 13
103382.058759765
 23
-168653.1347207165
 33
0.0
  0
MTEXT
  5
D5E75
330
D5E61
100
AcDbEntity
  8
标注
 48
5.0
100
AcDbMText
 10
103382.058759765
 20
-168863.1347207164
 30
0.0
 40
12.0
 41
0.0
 71
     5
 72
     1
  1
\A1;420
 11
0.0000000000000001
 21
1.0
 31
0.0
 73
     1
 44
1.0
1001
ACAD
1000
MTEXTBEGIN
1070
    73
1070
     1
1070
    44
1040
1.0
1070
    74
1070
     0
1000
MTEXTEND
  0
POINT
  5
D5E76
330
D5E61
100
AcDbEntity
  8
Defpoints
 62
     0
 48
5.0
100
AcDbPoint
 10
103176.0882676351
 20
-169073.1347207165
 30
0.0
  0
POINT
  5
D5E77
330
D5E61
100
AcDbEntity
  8
Defpoints
 62
     0
 48
5.0
100
AcDbPoint
 10
103176.0882676352
 20
-168653.1347207165
 30
0.0
  0
POINT
  5
D5E78
330
D5E61
100
AcDbEntity
  8
Defpoints
 62
     0
 48
5.0
100
AcDbPoint
 10
103382.058759765
 20
-168653.1347207165
 30
0.0
  0
ENDBLK
  5
D5E63
330
D5E61
100
AcDbEntity
  8
0
 48
5.0
100
AcDbBlockEnd
  0
BLOCK
  5
D5E7C
330
D5E7B
100
AcDbEntity
  8
0
 48
5.0
100
AcDbBlockBegin
  2
*D16
 70
     1
 10
0.0
 20
0.0
 30
0.0
  3
*D16
  1

  0
LINE
  5
D5E7E
330
D5E7B
100
AcDbEntity
  8
标注
 48
5.0
370
    -2
100
AcDbLine
 10
103354.2849354579
 20
-168667.1347207165
 30
0.0
 11
103354.2849354579
 21
-168677.1347207165
 31
0.0
  0
LINE
  5
D5E7F
330
D5E7B
100
AcDbEntity
  8
标注
 48
5.0
370
    -2
100
AcDbLine
 10
103354.2849354579
 20
-168643.1347207165
 30
0.0
 11
103354.2849354579
 21
-168633.1347207165
 31
0.0
  0
LINE
  5
D5E80
330
D5E7B
100
AcDbEntity
  8
标注
 48
5.0
370
    -2
100
AcDbLine
 10
103354.2849354579
 20
-168657.1347207165
 30
0.0
 11
103354.2849354579
 21
-168653.1347207165
 31
0.0
  0
SOLID
  5
D5E81
330
D5E7B
100
AcDbEntity
  8
标注
 48
5.0
100
AcDbTrace
 10
103352.6182687912
 20
-168667.1347207165
 30
0.0
 11
103355.9516021245
 21
-168667.1347207165
 31
0.0
 12
103354.2849354579
 22
-168657.1347207165
 32
0.0
 13
103354.2849354579
 23
-168657.1347207165
 33
0.0
  0
SOLID
  5
D5E82
330
D5E7B
100
AcDbEntity
  8
标注
 48
5.0
100
AcDbTrace
 10
103352.6182687912
 20
-168643.1347207165
 30
0.0
 11
103355.9516021245
 21
-168643.1347207165
 31
0.0
 12
103354.2849354579
 22
-168653.1347207165
 32
0.0
 13
103354.2849354579
 23
-168653.1347207165
 33
0.0
  0
MTEXT
  5
D5E83
330
D5E7B
100
AcDbEntity
  8
标注
 48
5.0
100
AcDbMText
 10
103354.2849354579
 20
-168628.9680540498
 30
0.0
 40
12.0
 41
0.0
 71
     5
 72
     1
  1
\A1;4
 11
0.0000000000000001
 21
1.0
 31
0.0
 73
     1
 44
1.0
1001
ACAD
1000
MTEXTBEGIN
1070
    73
1070
     1
1070
    44
1040
1.0
1070
    74
1070
     0
1000
MTEXTEND
  0
POINT
  5
D5E84
330
D5E7B
100
AcDbEntity
  8
Defpoints
 62
     0
 48
5.0
100
AcDbPoint
 10
103354.2849354579
 20
-168657.1347207165
 30
0.0
  0
POINT
  5
D5E85
330
D5E7B
100
AcDbEntity
  8
Defpoints
 62
     0
 48
5.0
100
AcDbPoint
 10
103354.2849354579
 20
-168653.1347207165
 30
0.0
  0
POINT
  5
D5E86
330
D5E7B
100
AcDbEntity
  8
Defpoints
 62
     0
 48
5.0
100
AcDbPoint
 10
103354.2849354579
 20
-168653.1347207165
 30
0.0
  0
ENDBLK
  5
D5E7D
330
D5E7B
100
AcDbEntity
  8
0
 48
5.0
100
AcDbBlockEnd
  0
BLOCK
  5
D5E89
330
D5E88
100
AcDbEntity
  8
0
 48
5.0
100
AcDbBlockBegin
  2
*D17
 70
     1
 10
0.0
 20
0.0
 30
0.0
  3
*D17
  1

  0
LINE
  5
D5E91
330
D5E88
100
AcDbEntity
  8
标注
 48
5.0
370
    -2
100
AcDbLine
 10
103264.1115849141
 20
-168692.8985422396
 30
0.0
 11
103270.5891213889
 21
-168685.2800436199
 31
0.0
  0
MTEXT
  5
D5E92
330
D5E88
100
AcDbEntity
  8
标注
 48
5.0
100
AcDbMText
 10
103255.9498889558
 20
-168702.4978505003
 30
0.0
 40
12.0
 41
0.0
 71
     5
 72
     1
  1
\A1;R80
 11
0.6477536474828824
 21
0.761849861962724
 31
0.0
 73
     1
 44
1.0
1001
ACAD
1000
MTEXTBEGIN
1070
    73
1070
     1
1070
    44
1040
1.0
1070
    74
1070
     0
1000
MTEXTEND
  0
SOLID
  5
D5E93
330
D5E88
100
AcDbEntity
  8
标注
 48
5.0
100
AcDbTrace
 10
103269.319371619
 20
-168684.2004542074
 30
0.0
 11
103271.8588711588
 21
-168686.3596330324
 31
0.0
 12
103277.0666578637
 22
-168677.6615450003
 32
0.0
 13
103277.0666578637
 23
-168677.6615450003
 33
0.0
  0
POINT
  5
D5E94
330
D5E88
100
AcDbEntity
  8
Defpoints
 62
     0
 48
5.0
100
AcDbPoint
 10
103277.0666578637
 20
-168677.6615450003
 30
0.0
  0
POINT
  5
D5E95
330
D5E88
100
AcDbEntity
  8
Defpoints
 62
     0
 48
5.0
100
AcDbPoint
 10
103225.246366066
 20
-168738.6095339562
 30
0.0
  0
ENDBLK
  5
D5E8A
330
D5E88
100
AcDbEntity
  8
0
 48
5.0
100
AcDbBlockEnd
  0
BLOCK
  5
D5E99
330
D5E98
100
AcDbEntity
  8
0
 48
5.0
100
AcDbBlockBegin
  2
*D18
 70
     1
 10
0.0
 20
0.0
 30
0.0
  3
*D18
  1

  0
LINE
  5
D5EA1
330
D5E98
100
AcDbEntity
  8
标注
 48
5.0
370
    -2
100
AcDbLine
 10
103219.0566514499
 20
-168678.1843705872
 30
0.0
 11
103219.5449285387
 21
-168668.1962984266
 31
0.0
  0
MTEXT
  5
D5EA2
330
D5E98
100
AcDbEntity
  8
标注
 48
5.0
100
AcDbMText
 10
103218.2330907601
 20
-168695.0309189647
 30
0.0
 40
12.0
 41
0.0
 71
     5
 72
     1
  1
\A1;R900
 11
0.0488277088800693
 21
0.9988072160559932
 31
0.0
 73
     1
 44
1.0
1001
ACAD
1000
MTEXTBEGIN
1070
    73
1070
     1
1070
    44
1040
1.0
1070
    74
1070
     0
1000
MTEXTEND
  0
SOLID
  5
D5EA3
330
D5E98
100
AcDbEntity
  8
标注
 48
5.0
100
AcDbTrace
 10
103217.8802498452
 20
-168668.1149189118
 30
0.0
 11
103221.2096072321
 21
-168668.2776779414
 31
0.0
 12
103220.0332056275
 22
-168658.208226266
 32
0.0
 13
103220.0332056275
 23
-168658.208226266
 33
0.0
  0
POINT
  5
D5EA4
330
D5E98
100
AcDbEntity
  8
Defpoints
 62
     0
 48
5.0
100
AcDbPoint
 10
103220.0332056275
 20
-168658.208226266
 30
0.0
  0
POINT
  5
D5EA5
330
D5E98
100
AcDbEntity
  8
Defpoints
 62
     0
 48
5.0
100
AcDbPoint
 10
103176.0882676355
 20
-169557.1347207139
 30
0.0
  0
ENDBLK
  5
D5E9A
330
D5E98
100
AcDbEntity
  8
0
 48
5.0
100
AcDbBlockEnd
  0
BLOCK
  5
D5EA9
330
D5EA8
100
AcDbEntity
  8
0
 48
5.0
100
AcDbBlockBegin
  2
*D19
 70
     1
 10
0.0
 20
0.0
 30
0.0
  3
*D19
  1

  0
LINE
  5
D613E
330
D5EA8
100
AcDbEntity
  8
标注
 48
5.0
370
    -2
100
AcDbLine
 10
103288.4287971795
 20
-168810.7614241413
 30
0.0
 11
103298.4256266485
 21
-168810.5096294462
 31
0.0
  0
MTEXT
  5
D613F
330
D5EA8
100
AcDbEntity
  8
标注
 48
5.0
100
AcDbMText
 10
103267.3021642351
 20
-168811.2935502635
 30
0.0
 40
12.0
 41
0.0
 71
     5
 72
     1
  1
\A1;R2100
 11
0.9996829468963296
 21
0.0251794695073235
 31
0.0
 73
     1
 44
1.0
1001
ACAD
1000
MTEXTBEGIN
1070
    73
1070
     1
1070
    44
1040
1.0
1070
    74
1070
     0
1000
MTEXTEND
  0
SOLID
  5
D6140
330
D5EA8
100
AcDbEntity
  8
标注
 48
5.0
100
AcDbTrace
 10
103298.383660866
 20
-168808.8434912013
 30
0.0
 11
103298.467592431
 21
-168812.175767691
 31
0.0
 12
103308.4224561174
 22
-168810.2578347511
 32
0.0
 13
103308.4224561174
 23
-168810.2578347511
 33
0.0
  0
POINT
  5
D6141
330
D5EA8
100
AcDbEntity
  8
Defpoints
 62
     0
 48
5.0
100
AcDbPoint
 10
103308.4224561174
 20
-168810.2578347511
 30
0.0
  0
POINT
  5
D6142
330
D5EA8
100
AcDbEntity
  8
Defpoints
 62
     0
 48
5.0
100
AcDbPoint
 10
101209.0882676351
 20
-168863.1347207165
 30
0.0
  0
ENDBLK
  5
D5EAA
330
D5EA8
100
AcDbEntity
  8
0
 48
5.0
100
AcDbBlockEnd
  0
BLOCK
  5
D5EB9
330
D5EB8
100
AcDbEntity
  8
0
 48
5.0
100
AcDbBlockBegin
  2
*D20
 70
     1
 10
0.0
 20
0.0
 30
0.0
  3
*D20
  1

  0
LINE
  5
D5EC1
330
D5EB8
100
AcDbEntity
  8
标注
 48
5.0
370
    -2
100
AcDbLine
 10
103269.3925940675
 20
-169028.2937671636
 30
0.0
 11
103276.7502987345
 21
-169035.0660771115
 31
0.0
  0
MTEXT
  5
D5EC2
330
D5EB8
100
AcDbEntity
  8
标注
 48
5.0
100
AcDbMText
 10
103260.1218861869
 20
-169019.7606566291
 30
0.0
 40
12.0
 41
0.0
 71
     5
 72
     1
  1
\A1;R80
 11
0.7357704667111653
 21
-0.6772309947984029
 31
0.0
 73
     1
 44
1.0
1001
ACAD
1000
MTEXTBEGIN
1070
    73
1070
     1
1070
    44
1040
1.0
1070
    74
1070
     0
1000
MTEXTEND
  0
SOLID
  5
D5EC3
330
D5EB8
100
AcDbEntity
  8
标注
 48
5.0
100
AcDbTrace
 10
103277.8790170592
 20
-169033.8397930003
 30
0.0
 11
103275.6215804099
 21
-169036.2923612227
 31
0.0
 12
103284.1080034017
 22
-169041.8383870595
 32
0.0
 13
103284.1080034017
 23
-169041.8383870595
 33
0.0
  0
POINT
  5
D5EC4
330
D5EB8
100
AcDbEntity
  8
Defpoints
 62
     0
 48
5.0
100
AcDbPoint
 10
103284.1080034017
 20
-169041.8383870595
 30
0.0
  0
POINT
  5
D5EC5
330
D5EB8
100
AcDbEntity
  8
Defpoints
 62
     0
 48
5.0
100
AcDbPoint
 10
103225.2463660653
 20
-168987.6599074761
 30
0.0
  0
ENDBLK
  5
D5EBA
330
D5EB8
100
AcDbEntity
  8
0
 48
5.0
100
AcDbBlockEnd
  0
BLOCK
  5
D5EC9
330
D5EC8
100
AcDbEntity
  8
0
 48
5.0
100
AcDbBlockBegin
  2
*D21
 70
     1
 10
0.0
 20
0.0
 30
0.0
  3
*D21
  1

  0
LINE
  5
D6143
330
D5EC8
100
AcDbEntity
  8
标注
 48
5.0
370
    -2
100
AcDbLine
 10
103226.3822809404
 20
-169047.6963362141
 30
0.0
 11
103226.9538038188
 21
-169057.6799909356
 31
0.0
  0
MTEXT
  5
D6144
330
D5EC8
100
AcDbEntity
  8
标注
 48
5.0
100
AcDbMText
 10
103225.418312352
 20
-169030.8572385837
 30
0.0
 40
12.0
 41
0.0
 71
     5
 72
     1
  1
\A1;R900
 11
0.0571522878462309
 21
-0.9983654721563349
 31
0.0
 73
     1
 44
1.0
1001
ACAD
1000
MTEXTBEGIN
1070
    73
1070
     1
1070
    44
1040
1.0
1070
    74
1070
     0
1000
MTEXTEND
  0
SOLID
  5
D6145
330
D5EC8
100
AcDbEntity
  8
标注
 48
5.0
100
AcDbTrace
 10
103228.6177462724
 20
-169057.5847371226
 30
0.0
 11
103225.2898613652
 21
-169057.7752447486
 31
0.0
 12
103227.5253266973
 22
-169067.6636456572
 32
0.0
 13
103227.5253266973
 23
-169067.6636456572
 33
0.0
  0
POINT
  5
D6146
330
D5EC8
100
AcDbEntity
  8
Defpoints
 62
     0
 48
5.0
100
AcDbPoint
 10
103227.5253266973
 20
-169067.6636456572
 30
0.0
  0
POINT
  5
D6147
330
D5EC8
100
AcDbEntity
  8
Defpoints
 62
     0
 48
5.0
100
AcDbPoint
 10
103176.0882676354
 20
-168169.1347207118
 30
0.0
  0
ENDBLK
  5
D5ECA
330
D5EC8
100
AcDbEntity
  8
0
 48
5.0
100
AcDbBlockEnd
  0
BLOCK
  5
D5EDC
330
D5EDB
100
AcDbEntity
  8
0
 48
5.0
100
AcDbBlockBegin
  2
*D22
 70
     1
 10
0.0
 20
0.0
 30
0.0
  3
*D22
  1

  0
LINE
  5
D5EE4
330
D5EDB
100
AcDbEntity
  8
标注
 48
5.0
370
    -2
100
AcDbLine
 10
102602.7145752278
 20
-169025.8974444386
 30
0.0
 11
102595.6678636769
 21
-169032.992784904
 31
0.0
  0
MTEXT
  5
D5EE5
330
D5EDB
100
AcDbEntity
  8
标注
 48
5.0
100
AcDbMText
 10
102614.6000287104
 20
-169013.9299701872
 30
0.0
 40
12.0
 41
0.0
 71
     5
 72
     1
  1
\A1;R100
 11
0.7046711550907824
 21
0.7095340465284403
 31
0.0
 73
     1
 44
1.0
1001
ACAD
1000
MTEXTBEGIN
1070
    73
1070
     1
1070
    44
1040
1.0
1070
    74
1070
     0
1000
MTEXTEND
  0
SOLID
  5
D5EE6
330
D5EDB
100
AcDbEntity
  8
标注
 48
5.0
100
AcDbTrace
 10
102594.4853069327
 20
-169031.8183329788
 30
0.0
 11
102596.8504204211
 21
-169034.167236829
 31
0.0
 12
102588.621152126
 22
-169040.0881253692
 32
0.0
 13
102588.621152126
 23
-169040.0881253692
 33
0.0
  0
POINT
  5
D5EE7
330
D5EDB
100
AcDbEntity
  8
Defpoints
 62
     0
 48
5.0
100
AcDbPoint
 10
102588.621152126
 20
-169040.0881253692
 30
0.0
  0
POINT
  5
D5EE8
330
D5EDB
100
AcDbEntity
  8
Defpoints
 62
     0
 48
5.0
100
AcDbPoint
 10
102659.0882676351
 20
-168969.1347207163
 30
0.0
  0
ENDBLK
  5
D5EDD
330
D5EDB
100
AcDbEntity
  8
0
 48
5.0
100
AcDbBlockEnd
  0
BLOCK
  5
D5EEC
330
D5EEB
100
AcDbEntity
  8
0
 48
5.0
100
AcDbBlockBegin
  2
*D23
 70
     1
 10
0.0
 20
0.0
 30
0.0
  3
*D23
  1

  0
LINE
  5
D5EF4
330
D5EEB
100
AcDbEntity
  8
标注
 48
5.0
370
    -2
100
AcDbLine
 10
102596.3264600336
 20
-168698.8319021652
 30
0.0
 11
102587.5577594907
 21
-168694.0246273876
 31
0.0
  0
MTEXT
  5
D5EF5
330
D5EEB
100
AcDbEntity
  8
标注
 48
5.0
100
AcDbMText
 10
102611.1163349494
 20
-168706.9401722902
 30
0.0
 40
12.0
 41
0.0
 71
     5
 72
     1
  1
\A1;R160
 11
0.8768700542957045
 21
-0.4807274777661956
 31
0.0
 73
     1
 44
1.0
1001
ACAD
1000
MTEXTBEGIN
1070
    73
1070
     1
1070
    44
1040
1.0
1070
    74
1070
     0
1000
MTEXTEND
  0
SOLID
  5
D5EF6
330
D5EEB
100
AcDbEntity
  8
标注
 48
5.0
100
AcDbTrace
 10
102588.3589719536
 20
-168692.5631772971
 30
0.0
 11
102586.7565470277
 21
-168695.4860774781
 31
0.0
 12
102578.7890589477
 22
-168689.2173526099
 32
0.0
 13
102578.7890589477
 23
-168689.2173526099
 33
0.0
  0
POINT
  5
D5EF7
330
D5EEB
100
AcDbEntity
  8
Defpoints
 62
     0
 48
5.0
100
AcDbPoint
 10
102578.7890589477
 20
-168689.2173526099
 30
0.0
  0
POINT
  5
D5EF8
330
D5EEB
100
AcDbEntity
  8
Defpoints
 62
     0
 48
5.0
100
AcDbPoint
 10
102719.0882676342
 20
-168766.1337490521
 30
0.0
  0
ENDBLK
  5
D5EED
330
D5EEB
100
AcDbEntity
  8
0
 48
5.0
100
AcDbBlockEnd
  0
BLOCK
  5
D5EFC
330
D5EFB
100
AcDbEntity
  8
0
 48
5.0
100
AcDbBlockBegin
  2
*D24
 70
     1
 10
0.0
 20
0.0
 30
0.0
  3
*D24
  1

  0
LINE
  5
D5F04
330
D5EFB
100
AcDbEntity
  8
标注
 48
5.0
370
    -2
100
AcDbLine
 10
102778.9514811195
 20
-168626.0826593502
 30
0.0
 11
102778.7363359082
 21
-168609.1722111197
 31
0.0
  0
MTEXT
  5
D5F05
330
D5EFB
100
AcDbEntity
  8
标注
 48
5.0
100
AcDbMText
 10
102779.1660519496
 20
-168642.9479611205
 30
0.0
 40
12.0
 41
0.0
 71
     5
 72
     1
  1
\A1;R470
 11
0.0127215907164766
 21
-0.9999190772905787
 31
0.0
 73
     1
 44
1.0
1001
ACAD
1000
MTEXTBEGIN
1070
    73
1070
     1
1070
    44
1040
1.0
1070
    74
1070
     0
1000
MTEXTEND
  0
SOLID
  5
D5F06
330
D5EFB
100
AcDbEntity
  8
标注
 48
5.0
100
AcDbTrace
 10
102780.4028677037
 20
-168609.1510084685
 30
0.0
 11
102777.0698041127
 21
-168609.1934137709
 31
0.0
 12
102778.609120001
 22
-168599.1730203468
 32
0.0
 13
102778.609120001
 23
-168599.1730203468
 33
0.0
  0
POINT
  5
D5F07
330
D5EFB
100
AcDbEntity
  8
Defpoints
 62
     0
 48
5.0
100
AcDbPoint
 10
102778.609120001
 20
-168599.1730203468
 30
0.0
  0
POINT
  5
D5F08
330
D5EFB
100
AcDbEntity
  8
Defpoints
 62
     0
 48
5.0
100
AcDbPoint
 10
102784.5882676377
 20
-169069.1349866719
 30
0.0
  0
ENDBLK
  5
D5EFD
330
D5EFB
100
AcDbEntity
  8
0
 48
5.0
100
AcDbBlockEnd
  0
BLOCK
  5
D5F1E
330
D5F1D
100
AcDbEntity
  8
0
 48
5.0
100
AcDbBlockBegin
  2
*D25
 70
     1
 10
0.0
 20
0.0
 30
0.0
  3
*D25
  1

  0
LINE
  5
D5F26
330
D5F1D
100
AcDbEntity
  8
标注
 48
5.0
370
    -2
100
AcDbLine
 10
102973.2077186491
 20
-168634.8056407758
 30
0.0
 11
102966.7923476198
 21
-168642.4765608351
 31
0.0
  0
MTEXT
  5
D5F27
330
D5F1D
100
AcDbEntity
  8
标注
 48
5.0
100
AcDbMText
 10
102981.2910861461
 20
-168625.140281501
 30
0.0
 40
12.0
 41
0.0
 71
     5
 72
     1
  1
\A1;R30
 11
0.6415371029305828
 21
0.7670920059311235
 31
0.0
 73
     1
 44
1.0
1001
ACAD
1000
MTEXTBEGIN
1070
    73
1070
     1
1070
    44
1040
1.0
1070
    74
1070
     0
1000
MTEXTEND
  0
SOLID
  5
D5F28
330
D5F1D
100
AcDbEntity
  8
标注
 48
5.0
100
AcDbTrace
 10
102965.5138609433
 20
-168641.4073323302
 30
0.0
 11
102968.0708342964
 21
-168643.54578934
 31
0.0
 12
102960.3769765905
 22
-168650.1474808944
 32
0.0
 13
102960.3769765905
 23
-168650.1474808944
 33
0.0
  0
POINT
  5
D5F29
330
D5F1D
100
AcDbEntity
  8
Defpoints
 62
     0
 48
5.0
100
AcDbPoint
 10
102960.3769765905
 20
-168650.1474808944
 30
0.0
  0
POINT
  5
D5F2A
330
D5F1D
100
AcDbEntity
  8
Defpoints
 62
     0
 48
5.0
100
AcDbPoint
 10
102979.6230896784
 20
-168627.1347207165
 30
0.0
  0
ENDBLK
  5
D5F1F
330
D5F1D
100
AcDbEntity
  8
0
 48
5.0
100
AcDbBlockEnd
  0
ENDSEC
  0
SECTION
  2
ENTITIES
  0
LWPOLYLINE
  5
D5C95
102
{ACAD_REACTORS
330
D5DDD
330
D5E1E
330
D5E5F
330
D5E96
330
D5EA6
330
D5EB6
330
D5EC6
330
D5ED6
330
D5EE9
330
D5EF9
330
D5F09
330
D5F2B
102
}
330
1F
100
AcDbEntity
  8
虚线
 48
5.0
100
AcDbPolyline
 90
       14
 70
     0
 43
0.0
 10
103305.094211547
 20
-168992.5915980403
 42
-0.3790098975626591
 10
103230.0422781077
 20
-169067.5160232568
 42
-0.0149973409552557
 10
103176.0882676352
 20
-169069.1347207165
 10
102659.0882676352
 20
-169069.1347207165
 42
-0.4142135623730951
 10
102559.0882676352
 20
-168969.1347207165
 10
102559.0882676352
 20
-168766.1337490515
 42
-0.3531466961479098
 10
102685.281816022
 20
-168609.7460135063
 42
-0.1068513340272297
 10
102883.8947192477
 20
-168609.7460135051
 42
-0.1351321011353483
 10
102959.17022304
 20
-168649.0819357167
 42
0.1897723166472056
 10
102979.6230896785
 20
-168657.1347207165
 10
103176.0882676345
 20
-168657.1347207165
 42
-0.0149973409552556
 10
103230.0422781066
 20
-168658.7534181762
 42
-0.3790098975626591
 10
103305.0942115468
 20
-168733.6778433901
 42
-0.0308524056106652
 10
103305.0942115468
 20
-168992.5915980428
  0
LWPOLYLINE
  5
D5C96
102
{ACAD_REACTORS
330
D5CD6
330
D5D38
330
D5DF7
330
D5E38
330
D5E79
102
}
330
1F
100
AcDbEntity
  8
0
100
AcDbPolyline
 90
       13
 70
     1
 43
0.0
 10
103309.0866038211
 20
-168992.8381825685
 42
-0.3790098975625797
 10
103230.2820737099
 20
-169071.5088290458
 42
-0.0149973409552522
 10
103176.0882676352
 20
-169073.1347207165
 10
102659.0882676352
 20
-169073.1347207165
 42
-0.4142135623730951
 10
102555.0882676352
 20
-168969.1347207165
 10
102555.0882676352
 20
-168766.1337490515
 42
-0.3531466961478988
 10
102684.4366547317
 20
-168605.8363201176
 42
-0.1068513340272275
 10
102884.739880538
 20
-168605.8363201164
 42
-0.1351321011353351
 10
102961.8972719251
 20
-168646.1556403834
 42
0.1897723166471885
 10
102979.6230896785
 20
-168653.1347207165
 10
103176.0882676345
 20
-168653.1347207165
 42
-0.0149973409552564
 10
103230.2820737087
 20
-168654.7606123871
 42
-0.3790098975625802
 10
103309.086603821
 20
-168733.4312588619
 42
-0.0308524056106656
  0
LINE
  5
D5C9C
330
1F
100
AcDbEntity
  8
虚线
 48
5.0
100
AcDbLine
 10
102576.0882676252
 20
-168834.1348536949
 30
0.0
 11
102931.0882676352
 21
-168834.1348536949
 31
0.0
  0
LINE
  5
D5C9D
330
1F
100
AcDbEntity
  8
虚线
 48
5.0
100
AcDbLine
 10
102934.0882676352
 20
-169052.1347207264
 30
0.0
 11
102934.0882676352
 21
-168837.1348536948
 31
0.0
  0
CIRCLE
  5
D5C9E
102
{ACAD_REACTORS
330
D5CA1
102
}
330
1F
100
AcDbEntity
  8
细实线
 48
5.0
100
AcDbCircle
 10
102934.0882676352
 20
-168834.1348536949
 30
0.0
 40
3.0
  0
DIMENSION
  5
D5C9F
102
{ACAD_XDICTIONARY
360
D5CA0
102
}
102
{ACAD_REACTORS
330
D5CA1
102
}
330
1F
100
AcDbEntity
  8
标注
 48
5.0
100
AcDbDimension
  2
*D1
 10
102936.5672779177
 20
-168835.8243826291
 30
0.0
 11
102898.1052078201
 21
-168809.6111874861
 31
0.0
 70
    35
  1
{\fGulim|b0|i0|c129|p34;5-<>}
 71
     5
 42
6.0
  3
副本Standard
100
AcDbDiametricDimension
 15
102931.6092573527
 25
-168832.4453247608
 35
0.0
 40
0.0
1001
ACAD
1000
DSTYLE
1002
{
1070
    41
1040
10.0
1070
    49
1040
8.0
1070
   140
1040
12.0
1070
   147
1040
0.5
1070
   179
1070
     0
1070
   288
1070
     1
1070
   345
1005
15
1002
}
1001
ACAD_DSTYLE_DIMRADIAL_EXTENSION
1070
   387
1070
     1
1070
   388
1040
0.0
1070
   390
1040
0.0
  0
CIRCLE
  5
D5CAD
102
{ACAD_REACTORS
330
D5D77
102
}
330
1F
100
AcDbEntity
  8
细实线
 48
5.0
100
AcDbCircle
 10
102934.0882676352
 20
-168643.2792141585
 30
0.0
 40
3.0
  0
CIRCLE
  5
D5CAE
102
{ACAD_REACTORS
330
D5D14
102
}
330
1F
100
AcDbEntity
  8
细实线
 48
5.0
100
AcDbCircle
 10
103295.0882676453
 20
-168834.1348536949
 30
0.0
 40
3.0
  0
CIRCLE
  5
D5CAF
102
{ACAD_REACTORS
330
D5D38
102
}
330
1F
100
AcDbEntity
  8
细实线
 48
5.0
100
AcDbCircle
 10
102934.0882676352
 20
-169055.1347207265
 30
0.0
 40
3.0
  0
CIRCLE
  5
D5CB0
102
{ACAD_REACTORS
330
D5CD6
102
}
330
1F
100
AcDbEntity
  8
细实线
 48
5.0
100
AcDbCircle
 10
102573.0882676252
 20
-168834.1348536949
 30
0.0
 40
3.0
  0
DIMENSION
  5
D5CB9
102
{ACAD_XDICTIONARY
360
D5CC9
102
}
102
{ACAD_REACTORS
330
D5CD6
102
}
330
1F
100
AcDbEntity
  8
标注
 48
5.0
100
AcDbDimension
  2
*D2
 10
102555.0882676352
 20
-168861.7760619445
 30
0.0
 11
102527.5216009685
 21
-168861.7760619445
 31
0.0
 70
   160
 71
     5
 42
17.99999999004649
  3
副本Standard
100
AcDbAlignedDimension
 13
102573.0882676252
 23
-168834.1348536949
 33
0.0
 14
102555.0882676352
 24
-168834.1348536949
 34
0.0
100
AcDbRotatedDimension
1001
ACAD
1000
DSTYLE
1002
{
1070
    41
1040
10.0
1070
    49
1040
8.0
1070
   140
1040
12.0
1070
   147
1040
0.5
1070
   179
1070
     0
1070
   345
1005
15
1002
}
  0
DIMENSION
  5
D5CED
330
1F
100
AcDbEntity
  8
标注
 48
5.0
100
AcDbDimension
  2
*D3
 10
102934.0882676352
 20
-168861.7760619445
 30
0.0
 11
102753.5882676302
 21
-168861.7760619445
 31
0.0
 70
    32
 71
     5
 42
361.0000000099972
  3
副本Standard
100
AcDbAlignedDimension
 13
102573.0882676252
 23
-168834.1348536949
 33
0.0
 14
102934.0882676352
 24
-168834.134853695
 34
0.0
100
AcDbRotatedDimension
1001
ACAD
1000
DSTYLE
1002
{
1070
    41
1040
10.0
1070
    49
1040
8.0
1070
   140
1040
12.0
1070
   147
1040
0.5
1070
   179
1070
     0
1070
   345
1005
15
1002
}
  0
DIMENSION
  5
D5CFB
102
{ACAD_XDICTIONARY
360
D5D09
102
}
102
{ACAD_REACTORS
330
D5D14
102
}
330
1F
100
AcDbEntity
  8
标注
 48
5.0
100
AcDbDimension
  2
*D4
 10
103295.0882676453
 20
-168895.7568043149
 30
0.0
 11
102752.4716009636
 21
-168895.7568043149
 31
0.0
 70
   160
 71
     5
 42
722.0000000200525
  3
副本Standard
100
AcDbAlignedDimension
 13
102573.0882676252
 23
-168834.1348536949
 33
0.0
 14
103295.0882676453
 24
-168834.1348536949
 34
0.0
100
AcDbRotatedDimension
1001
ACAD
1000
DSTYLE
1002
{
1070
    41
1040
10.0
1070
    49
1040
8.0
1070
   140
1040
12.0
1070
   147
1040
0.5
1070
   179
1070
     0
1070
   345
1005
15
1002
}
  0
DIMENSION
  5
D5D1F
102
{ACAD_XDICTIONARY
360
D5D2D
102
}
102
{ACAD_REACTORS
330
D5D38
102
}
330
1F
100
AcDbEntity
  8
标注
 48
5.0
100
AcDbDimension
  2
*D5
 10
102958.8907578534
 20
-169073.1347207165
 30
0.0
 11
102958.8907578534
 21
-169100.7013873831
 31
0.0
 70
   160
 71
     5
 42
17.99999999004649
  3
副本Standard
100
AcDbAlignedDimension
 13
102934.0882676352
 23
-169055.1347207265
 33
0.0
 14
102934.0882676352
 24
-169073.1347207165
 34
0.0
 50
90.0
100
AcDbRotatedDimension
1001
ACAD
1000
DSTYLE
1002
{
1070
    41
1040
10.0
1070
    49
1040
8.0
1070
   140
1040
12.0
1070
   147
1040
0.5
1070
   179
1070
     0
1070
   345
1005
15
1002
}
  0
DIMENSION
  5
D5D50
330
1F
100
AcDbEntity
  8
标注
 48
5.0
100
AcDbDimension
  2
*D6
 10
102958.8907578534
 20
-168834.1348536949
 30
0.0
 11
102958.8907578534
 21
-168944.6347872107
 31
0.0
 70
    32
 71
     5
 42
220.9998670315254
  3
副本Standard
100
AcDbAlignedDimension
 13
102934.0882676352
 23
-169055.1347207265
 33
0.0
 14
102934.0882676353
 24
-168834.1348536949
 34
0.0
 50
90.0
100
AcDbRotatedDimension
1001
ACAD
1000
DSTYLE
1002
{
1070
    41
1040
10.0
1070
    49
1040
8.0
1070
   140
1040
12.0
1070
   147
1040
0.5
1070
   179
1070
     0
1070
   345
1005
15
1002
}
  0
DIMENSION
  5
D5D5E
102
{ACAD_XDICTIONARY
360
D5D6C
102
}
102
{ACAD_REACTORS
330
D5D77
102
}
330
1F
100
AcDbEntity
  8
标注
 48
5.0
100
AcDbDimension
  2
*D7
 10
102981.8024193639
 20
-168643.2792141585
 30
0.0
 11
102981.802419364
 21
-168937.5073873792
 31
0.0
 70
   160
 71
     5
 42
411.8555065679828
  3
副本Standard
100
AcDbAlignedDimension
 13
102934.0882676352
 23
-169055.1347207265
 33
0.0
 14
102934.0882676352
 24
-168643.2792141585
 34
0.0
 50
90.0
100
AcDbRotatedDimension
1001
ACAD
1000
DSTYLE
1002
{
1070
    41
1040
10.0
1070
    49
1040
8.0
1070
   140
1040
12.0
1070
   147
1040
0.5
1070
   179
1070
     0
1070
   345
1005
15
1002
}
  0
DIMENSION
  5
D5DC4
102
{ACAD_XDICTIONARY
360
D5DD2
102
}
102
{ACAD_REACTORS
330
D5DDD
102
}
330
1F
100
AcDbEntity
  8
标注
 48
5.0
100
AcDbDimension
  2
*D8
 10
103309.0882676352
 20
-169122.9579506566
 30
0.0
 11
102934.0882676352
 21
-169122.9579506566
 31
0.0
 70
    32
 71
     5
 42
750.0000000000291
  3
副本Standard
100
AcDbAlignedDimension
 13
102559.0882676352
 23
-168969.1347207165
 33
0.0
 14
103309.0882676352
 24
-168863.1347207165
 34
0.0
100
AcDbRotatedDimension
1001
ACAD
1000
DSTYLE
1002
{
1070
    41
1040
10.0
1070
    49
1040
8.0
1070
   140
1040
12.0
1070
   147
1040
0.5
1070
   179
1070
     0
1070
   345
1005
15
1002
}
  0
DIMENSION
  5
D5DDE
102
{ACAD_XDICTIONARY
360
D5DEC
102
}
102
{ACAD_REACTORS
330
D5DF7
102
}
330
1F
100
AcDbEntity
  8
标注
 48
5.0
100
AcDbDimension
  2
*D9
 10
103313.0882676352
 20
-169146.975612169
 30
0.0
 11
102934.0882676352
 21
-169146.975612169
 31
0.0
 70
    32
 71
     5
 42
758.0000000000437
  3
副本Standard
100
AcDbAlignedDimension
 13
102555.0882676352
 23
-168969.1347207165
 33
0.0
 14
103313.0882676352
 24
-168863.1347207152
 34
0.0
100
AcDbRotatedDimension
1001
ACAD
1000
DSTYLE
1002
{
1070
    41
1040
10.0
1070
    49
1040
8.0
1070
   140
1040
12.0
1070
   147
1040
0.5
1070
   179
1070
     0
1070
   345
1005
15
1002
}
  0
DIMENSION
  5
D5DF8
330
1F
100
AcDbEntity
  8
标注
 48
5.0
100
AcDbDimension
  2
*D10
 10
103313.0882676352
 20
-169122.9579506566
 30
0.0
 11
103337.2549343019
 21
-169122.9579506566
 31
0.0
 70
    32
 71
     5
 42
4.000000000029102
  3
副本Standard
100
AcDbAlignedDimension
 13
103309.0882676352
 23
-169122.9579506566
 33
0.0
 14
103313.0882676352
 24
-169122.9579506566
 34
0.0
100
AcDbRotatedDimension
1001
ACAD
1000
DSTYLE
1002
{
1070
    41
1040
10.0
1070
    49
1040
8.0
1070
   140
1040
12.0
1070
   147
1040
0.5
1070
   179
1070
     0
1070
   345
1005
15
1002
}
  0
DIMENSION
  5
D5E05
102
{ACAD_XDICTIONARY
360
D5E13
102
}
102
{ACAD_REACTORS
330
D5E1E
102
}
330
1F
100
AcDbEntity
  8
标注
 48
5.0
100
AcDbDimension
  2
*D11
 10
102507.0438305893
 20
-169069.1347207165
 30
0.0
 11
102507.0438305893
 21
-168834.1348536949
 31
0.0
 70
    32
 71
     5
 42
469.9997340431436
  3
副本Standard
100
AcDbAlignedDimension
 13
102784.5882676348
 23
-168599.1349866733
 33
0.0
 14
102659.0882676352
 24
-169069.1347207165
 34
0.0
 50
90.0
100
AcDbRotatedDimension
1001
ACAD
1000
DSTYLE
1002
{
1070
    41
1040
10.0
1070
    49
1040
8.0
1070
   140
1040
12.0
1070
   147
1040
0.5
1070
   179
1070
     0
1070
   345
1005
15
1002
}
  0
DIMENSION
  5
D5E1F
102
{ACAD_XDICTIONARY
360
D5E2D
102
}
102
{ACAD_REACTORS
330
D5E38
102
}
330
1F
100
AcDbEntity
  8
标注
 48
5.0
100
AcDbDimension
  2
*D12
 10
102479.7933680969
 20
-168595.1349866734
 30
0.0
 11
102479.7933680969
 21
-168834.1348536949
 31
0.0
 70
    32
 71
     5
 42
477.9997340431436
  3
副本Standard
100
AcDbAlignedDimension
 13
102659.0882676352
 23
-169073.1347207165
 33
0.0
 14
102784.5882676348
 24
-168595.1349866734
 34
0.0
 50
90.0
100
AcDbRotatedDimension
1001
ACAD
1000
DSTYLE
1002
{
1070
    41
1040
10.0
1070
    49
1040
8.0
1070
   140
1040
12.0
1070
   147
1040
0.5
1070
   179
1070
     0
1070
   345
1005
15
1002
}
  0
DIMENSION
  5
D5E39
330
1F
100
AcDbEntity
  8
标注
 48
5.0
100
AcDbDimension
  2
*D13
 10
102507.0438305893
 20
-168595.1349866734
 30
0.0
 11
102507.0438305893
 21
-168570.9683200067
 31
0.0
 70
    32
 71
     5
 42
4.0
  3
副本Standard
100
AcDbAlignedDimension
 13
102507.0438305893
 23
-168599.1349866733
 33
0.0
 14
102507.0438305893
 24
-168595.1349866734
 34
0.0
 50
90.0
100
AcDbRotatedDimension
1001
ACAD
1000
DSTYLE
1002
{
1070
    41
1040
10.0
1070
    49
1040
8.0
1070
   140
1040
12.0
1070
   147
1040
0.5
1070
   179
1070
     0
1070
   345
1005
15
1002
}
  0
DIMENSION
  5
D5E46
102
{ACAD_XDICTIONARY
360
D5E54
102
}
102
{ACAD_REACTORS
330
D5E5F
102
}
330
1F
100
AcDbEntity
  8
标注
 48
5.0
100
AcDbDimension
  2
*D14
 10
103354.2849354579
 20
-168657.1347207165
 30
0.0
 11
103354.2849354579
 21
-168863.1347207165
 31
0.0
 70
    32
 71
     5
 42
412.0
  3
副本Standard
100
AcDbAlignedDimension
 13
103176.0882676352
 23
-169069.1347207165
 33
0.0
 14
103176.0882676345
 24
-168657.1347207165
 34
0.0
 50
90.0
100
AcDbRotatedDimension
1001
ACAD
1000
DSTYLE
1002
{
1070
    41
1040
10.0
1070
    49
1040
8.0
1070
   140
1040
12.0
1070
   147
1040
0.5
1070
   179
1070
     0
1070
   345
1005
15
1002
}
  0
DIMENSION
  5
D5E60
102
{ACAD_XDICTIONARY
360
D5E6E
102
}
102
{ACAD_REACTORS
330
D5E79
102
}
330
1F
100
AcDbEntity
  8
标注
 48
5.0
100
AcDbDimension
  2
*D15
 10
103382.058759765
 20
-168653.1347207165
 30
0.0
 11
103382.058759765
 21
-168863.1347207164
 31
0.0
 70
    32
 71
     5
 42
419.9999999999707
  3
副本Standard
100
AcDbAlignedDimension
 13
103176.0882676351
 23
-169073.1347207165
 33
0.0
 14
103176.0882676352
 24
-168653.1347207165
 34
0.0
 50
90.0
100
AcDbRotatedDimension
1001
ACAD
1000
DSTYLE
1002
{
1070
    41
1040
10.0
1070
    49
1040
8.0
1070
   140
1040
12.0
1070
   147
1040
0.5
1070
   179
1070
     0
1070
   345
1005
15
1002
}
  0
DIMENSION
  5
D5E7A
330
1F
100
AcDbEntity
  8
标注
 48
5.0
100
AcDbDimension
  2
*D16
 10
103354.2849354579
 20
-168653.1347207165
 30
0.0
 11
103354.2849354579
 21
-168628.9680540498
 31
0.0
 70
    32
 71
     5
 42
4.0
  3
副本Standard
100
AcDbAlignedDimension
 13
103354.2849354579
 23
-168657.1347207165
 33
0.0
 14
103354.2849354579
 24
-168653.1347207165
 34
0.0
 50
90.0
100
AcDbRotatedDimension
1001
ACAD
1000
DSTYLE
1002
{
1070
    41
1040
10.0
1070
    49
1040
8.0
1070
   140
1040
12.0
1070
   147
1040
0.5
1070
   179
1070
     0
1070
   345
1005
15
1002
}
  0
DIMENSION
  5
D5E87
102
{ACAD_XDICTIONARY
360
D5E90
102
}
102
{ACAD_REACTORS
330
D5E96
102
}
330
1F
100
AcDbEntity
  8
标注
 48
5.0
100
AcDbDimension
  2
*D17
 10
103225.246366066
 20
-168738.6095339562
 30
0.0
 11
103255.9498889558
 21
-168702.4978505003
 31
0.0
 70
   164
 71
     5
 42
79.99999999858847
  3
副本Standard
100
AcDbRadialDimension
 15
103277.0666578637
 25
-168677.6615450003
 35
0.0
 40
0.0
1001
ACAD
1000
DSTYLE
1002
{
1070
    41
1040
10.0
1070
    49
1040
8.0
1070
   140
1040
12.0
1070
   147
1040
0.5
1070
   179
1070
     0
1070
   288
1070
     1
1070
   345
1005
15
1002
}
1001
ACAD_DSTYLE_DIMRADIAL_EXTENSION
1070
   387
1070
     1
1070
   388
1040
0.0616852440727262
1070
   390
1040
1.51081145999011
  0
DIMENSION
  5
D5E97
102
{ACAD_XDICTIONARY
360
D5EA0
102
}
102
{ACAD_REACTORS
330
D5EA6
102
}
330
1F
100
AcDbEntity
  8
标注
 48
5.0
100
AcDbDimension
  2
*D18
 10
103176.0882676355
 20
-169557.1347207139
 30
0.0
 11
103218.2330907601
 21
-168695.0309189647
 31
0.0
 70
   164
 71
     5
 42
899.9999999974678
  3
副本Standard
100
AcDbRadialDimension
 15
103220.0332056275
 25
-168658.208226266
 35
0.0
 40
0.0
1001
ACAD
1000
DSTYLE
1002
{
1070
    41
1040
10.0
1070
    49
1040
8.0
1070
   140
1040
12.0
1070
   147
1040
0.5
1070
   179
1070
     0
1070
   288
1070
     1
1070
   345
1005
15
1002
}
1001
ACAD_DSTYLE_DIMRADIAL_EXTENSION
1070
   387
1070
     1
1070
   388
1040
1.510811459975377
1070
   390
1040
1.570796326795979
  0
DIMENSION
  5
D5EA7
102
{ACAD_XDICTIONARY
360
D5EB0
102
}
102
{ACAD_REACTORS
330
D5EB6
102
}
330
1F
100
AcDbEntity
  8
标注
 48
5.0
100
AcDbDimension
  2
*D19
 10
101209.0882676351
 20
-168863.1347207165
 30
0.0
 11
103267.3021642351
 21
-168811.2935502635
 31
0.0
 70
   164
 71
     5
 42
2100.000000000058
  3
副本Standard
100
AcDbRadialDimension
 15
103308.4224561174
 25
-168810.2578347511
 35
0.0
 40
0.0
1001
ACAD
1000
DSTYLE
1002
{
1070
    41
1040
10.0
1070
    49
1040
8.0
1070
   140
1040
12.0
1070
   147
1040
0.5
1070
   179
1070
     0
1070
   288
1070
     1
1070
   345
1005
15
1002
}
1001
ACAD_DSTYLE_DIMRADIAL_EXTENSION
1070
   387
1070
     1
1070
   388
1040
6.221500063122942
1070
   390
1040
0.0616852440566433
  0
DIMENSION
  5
D5EB7
102
{ACAD_XDICTIONARY
360
D5EC0
102
}
102
{ACAD_REACTORS
330
D5EC6
102
}
330
1F
100
AcDbEntity
  8
标注
 48
5.0
100
AcDbDimension
  2
*D20
 10
103225.2463660653
 20
-168987.6599074761
 30
0.0
 11
103260.1218861869
 21
-169019.7606566291
 31
0.0
 70
   164
 71
     5
 42
79.99999999933061
  3
副本Standard
100
AcDbRadialDimension
 15
103284.1080034017
 25
-169041.8383870595
 35
0.0
 40
0.0
1001
ACAD
1000
DSTYLE
1002
{
1070
    41
1040
10.0
1070
    49
1040
8.0
1070
   140
1040
12.0
1070
   147
1040
0.5
1070
   179
1070
     0
1070
   288
1070
     1
1070
   345
1005
15
1002
}
1001
ACAD_DSTYLE_DIMRADIAL_EXTENSION
1070
   387
1070
     1
1070
   388
1040
4.772373847212556
1070
   390
1040
6.221500063130076
  0
DIMENSION
  5
D5EC7
102
{ACAD_XDICTIONARY
360
D5ED0
102
}
102
{ACAD_REACTORS
330
D5ED6
102
}
330
1F
100
AcDbEntity
  8
标注
 48
5.0
100
AcDbDimension
  2
*D21
 10
103176.0882676354
 20
-168169.1347207118
 30
0.0
 11
103225.418312352
 21
-169030.8572385837
 31
0.0
 70
   164
 71
     5
 42
900.0000000047148
  3
副本Standard
100
AcDbRadialDimension
 15
103227.5253266973
 25
-169067.6636456572
 35
0.0
 40
0.0
1001
ACAD
1000
DSTYLE
1002
{
1070
    41
1040
10.0
1070
    49
1040
8.0
1070
   140
1040
12.0
1070
   147
1040
0.5
1070
   179
1070
     0
1070
   288
1070
     1
1070
   345
1005
15
1002
}
1001
ACAD_DSTYLE_DIMRADIAL_EXTENSION
1070
   387
1070
     1
1070
   388
1040
4.712388980384463
1070
   390
1040
4.772373847205066
  0
DIMENSION
  5
D5EDA
102
{ACAD_XDICTIONARY
360
D5EE3
102
}
102
{ACAD_REACTORS
330
D5EE9
102
}
330
1F
100
AcDbEntity
  8
标注
 48
5.0
100
AcDbDimension
  2
*D22
 10
102659.0882676351
 20
-168969.1347207163
 30
0.0
 11
102614.6000287104
 21
-169013.9299701872
 31
0.0
 70
   164
 71
     5
 42
100.0000000000582
  3
副本Standard
100
AcDbRadialDimension
 15
102588.621152126
 25
-169040.0881253692
 35
0.0
 40
0.0
1001
ACAD
1000
DSTYLE
1002
{
1070
    41
1040
10.0
1070
    49
1040
8.0
1070
   140
1040
12.0
1070
   147
1040
0.5
1070
   179
1070
     0
1070
   288
1070
     1
1070
   345
1005
15
1002
}
1001
ACAD_DSTYLE_DIMRADIAL_EXTENSION
1070
   387
1070
     1
1070
   388
1040
3.141592653589792
1070
   390
1040
4.712388980384688
  0
DIMENSION
  5
D5EEA
102
{ACAD_XDICTIONARY
360
D5EF3
102
}
102
{ACAD_REACTORS
330
D5EF9
102
}
330
1F
100
AcDbEntity
  8
标注
 48
5.0
100
AcDbDimension
  2
*D23
 10
102719.0882676342
 20
-168766.1337490521
 30
0.0
 11
102611.1163349494
 21
-168706.9401722902
 31
0.0
 70
   164
 71
     5
 42
159.9999999990977
  3
副本Standard
100
AcDbRadialDimension
 15
102578.7890589477
 25
-168689.2173526099
 35
0.0
 40
0.0
1001
ACAD
1000
DSTYLE
1002
{
1070
    41
1040
10.0
1070
    49
1040
8.0
1070
   140
1040
12.0
1070
   147
1040
0.5
1070
   179
1070
     0
1070
   288
1070
     1
1070
   345
1005
15
1002
}
1001
ACAD_DSTYLE_DIMRADIAL_EXTENSION
1070
   387
1070
     1
1070
   388
1040
1.783691225244112
1070
   390
1040
3.141592653586517
  0
DIMENSION
  5
D5EFA
102
{ACAD_XDICTIONARY
360
D5F03
102
}
102
{ACAD_REACTORS
330
D5F09
102
}
330
1F
100
AcDbEntity
  8
标注
 48
5.0
100
AcDbDimension
  2
*D24
 10
102784.5882676377
 20
-169069.1349866719
 30
0.0
 11
102779.1660519496
 21
-168642.9479611205
 31
0.0
 70
   164
 71
     5
 42
469.9999999984575
  3
副本Standard
100
AcDbRadialDimension
 15
102778.609120001
 25
-168599.1730203468
 35
0.0
 40
0.0
1001
ACAD
1000
DSTYLE
1002
{
1070
    41
1040
10.0
1070
    49
1040
8.0
1070
   140
1040
12.0
1070
   147
1040
0.5
1070
   179
1070
     0
1070
   288
1070
     1
1070
   345
1005
15
1002
}
1001
ACAD_DSTYLE_DIMRADIAL_EXTENSION
1070
   387
1070
     1
1070
   388
1040
1.357901428348644
1070
   390
1040
1.783691225253755
  0
DIMENSION
  5
D5F1C
102
{ACAD_XDICTIONARY
360
D5F25
102
}
102
{ACAD_REACTORS
330
D5F2B
102
}
330
1F
100
AcDbEntity
  8
标注
 48
5.0
100
AcDbDimension
  2
*D25
 10
102979.6230896784
 20
-168627.1347207165
 30
0.0
 11
102981.2910861461
 21
-168625.140281501
 31
0.0
 70
   164
 71
     5
 42
29.99999999988359
  3
副本Standard
100
AcDbRadialDimension
 15
102960.3769765905
 25
-168650.1474808944
 35
0.0
 40
0.0
1001
ACAD
1000
DSTYLE
1002
{
1070
    41
1040
10.0
1070
    49
1040
8.0
1070
   140
1040
12.0
1070
   147
1040
0.5
1070
   179
1070
     0
1070
   288
1070
     1
1070
   345
1005
15
1002
}
1001
ACAD_DSTYLE_DIMRADIAL_EXTENSION
1070
   387
1070
     1
1070
   388
1040
3.96222023247613
1070
   390
1040
4.712388980384688
  0
LINE
  5
D5F2C
330
1F
100
AcDbEntity
  8
标注
100
AcDbLine
 10
102977.1230896785
 20
-168627.1347207165
 30
0.0
 11
102982.1230896785
 21
-168627.1347207165
 31
0.0
  0
LINE
  5
D5F2D
330
1F
100
AcDbEntity
  8
标注
100
AcDbLine
 10
102979.6230896785
 20
-168629.6347207165
 30
0.0
 11
102979.6230896785
 21
-168624.6347207165
 31
0.0
  0
LINE
  5
D661A
330
1F
100
AcDbEntity
  8
标注
100
AcDbLine
 10
102782.0882676378
 20
-169069.1349866719
 30
0.0
 11
102787.0882676378
 21
-169069.1349866719
 31
0.0
  0
LINE
  5
D661B
330
1F
100
AcDbEntity
  8
标注
100
AcDbLine
 10
102784.5882676378
 20
-169071.6349866718
 30
0.0
 11
102784.5882676378
 21
-169066.6349866719
 31
0.0
  0
LINE
  5
D676C
330
1F
100
AcDbEntity
  8
虚线
 48
5.0
100
AcDbLine
 10
102934.0882676352
 20
-168831.1348536949
 30
0.0
 11
102934.0882676352
 21
-168646.2792141585
 31
0.0
  0
LINE
  5
D676D
330
1F
100
AcDbEntity
  8
虚线
 48
5.0
100
AcDbLine
 10
102937.0882676352
 20
-168834.1348536949
 30
0.0
 11
103292.0882676453
 21
-168834.1348536949
 31
0.0
  0
ENDSEC
  0
SECTION
  2
OBJECTS
  0
DICTIONARY
  5
C
330
0
100
AcDbDictionary
281
     1
  3
ACAD_2007HEADERVARS_RT
350
D67F8
  3
ACAD_COLOR
350
6C
  3
ACAD_GROUP
350
D
  3
ACAD_LAYOUT
350
1A
  3
ACAD_MATERIAL
350
6B
  3
ACAD_MLEADERSTYLE
350
CEDBA
  3
ACAD_MLINESTYLE
350
17
  3
ACAD_PLOTSETTINGS
350
19
  3
ACAD_PLOTSTYLENAME
350
E
  3
ACAD_SCALELIST
350
CED98
  3
ACAD_TABLESTYLE
350
FAF
  3
ACAD_VISUALSTYLE
350
CED87
  3
AcadDim
350
100FD
  3
ACDB_RECOMPOSE_DATA
350
D0C4C
  3
AcDbVariableDictionary
350
59
  3
ASE_INDEX_DICTIONARY
350
C2668
  3
DWGPROPS
350
D67F7
  3
lxx_dict
350
A9D16
  0
DICTIONARY
  5
AB
330
2
100
AcDbDictionary
280
     1
281
     1
  3
ACAD_LAYERFILTERS
360
176
  3
ACAD_LAYERSTATES
360
AC
  0
DICTIONARY
  5
CF251
330
10
100
AcDbDictionary
280
     1
281
     1
  3
ADSK_XREC_LAYER_RECONCILED
360
CF252
  0
DICTIONARY
  5
CF259
330
9D
100
AcDbDictionary
280
     1
281
     1
  3
ADSK_XREC_LAYER_RECONCILED
360
CF25A
  0
DICTIONARY
  5
CF25B
330
9E
100
AcDbDictionary
280
     1
281
     1
  3
ADSK_XREC_LAYER_RECONCILED
360
CF25C
  0
DICTIONARY
  5
CF25D
330
16DF9
100
AcDbDictionary
280
     1
281
     1
  3
ADSK_XREC_LAYER_RECONCILED
360
CF25E
  0
DICTIONARY
  5
118B
330
1F
100
AcDbDictionary
280
     1
281
     1
  3
ACAD_SORTENTS
360
118C
  0
DICTIONARY
  5
D6802
330
D5DBC
100
AcDbDictionary
280
     1
281
     1
  3
ACAD_MTEXT_RT
360
D6803
  0
DICTIONARY
  5
D5CA0
330
D5C9F
100
AcDbDictionary
280
     1
281
     1
  3
ACAD_DIMASSOC
360
D5CA1
  0
DICTIONARY
  5
D5CC9
330
D5CB9
100
AcDbDictionary
280
     1
281
     1
  3
ACAD_DIMASSOC
360
D5CD6
  0
DICTIONARY
  5
D5D09
330
D5CFB
100
AcDbDictionary
280
     1
281
     1
  3
ACAD_DIMASSOC
360
D5D14
  0
DICTIONARY
  5
D5D2D
330
D5D1F
100
AcDbDictionary
280
     1
281
     1
  3
ACAD_DIMASSOC
360
D5D38
  0
DICTIONARY
  5
D5D6C
330
D5D5E
100
AcDbDictionary
280
     1
281
     1
  3
ACAD_DIMASSOC
360
D5D77
  0
DICTIONARY
  5
D5DD2
330
D5DC4
100
AcDbDictionary
280
     1
281
     1
  3
ACAD_DIMASSOC
360
D5DDD
  0
DICTIONARY
  5
D5DEC
330
D5DDE
100
AcDbDictionary
280
     1
281
     1
  3
ACAD_DIMASSOC
360
D5DF7
  0
DICTIONARY
  5
D5E13
330
D5E05
100
AcDbDictionary
280
     1
281
     1
  3
ACAD_DIMASSOC
360
D5E1E
  0
DICTIONARY
  5
D5E2D
330
D5E1F
100
AcDbDictionary
280
     1
281
     1
  3
ACAD_DIMASSOC
360
D5E38
  0
DICTIONARY
  5
D5E54
330
D5E46
100
AcDbDictionary
280
     1
281
     1
  3
ACAD_DIMASSOC
360
D5E5F
  0
DICTIONARY
  5
D5E6E
330
D5E60
100
AcDbDictionary
280
     1
281
     1
  3
ACAD_DIMASSOC
360
D5E79
  0
DICTIONARY
  5
D5E90
330
D5E87
100
AcDbDictionary
280
     1
281
     1
  3
ACAD_DIMASSOC
360
D5E96
  0
DICTIONARY
  5
D5EA0
330
D5E97
100
AcDbDictionary
280
     1
281
     1
  3
ACAD_DIMASSOC
360
D5EA6
  0
DICTIONARY
  5
D5EB0
330
D5EA7
100
AcDbDictionary
280
     1
281
     1
  3
ACAD_DIMASSOC
360
D5EB6
  0
DICTIONARY
  5
D5EC0
330
D5EB7
100
AcDbDictionary
280
     1
281
     1
  3
ACAD_DIMASSOC
360
D5EC6
  0
DICTIONARY
  5
D5ED0
330
D5EC7
100
AcDbDictionary
280
     1
281
     1
  3
ACAD_DIMASSOC
360
D5ED6
  0
DICTIONARY
  5
D5EE3
330
D5EDA
100
AcDbDictionary
280
     1
281
     1
  3
ACAD_DIMASSOC
360
D5EE9
  0
DICTIONARY
  5
D5EF3
330
D5EEA
100
AcDbDictionary
280
     1
281
     1
  3
ACAD_DIMASSOC
360
D5EF9
  0
DICTIONARY
  5
D5F03
330
D5EFA
100
AcDbDictionary
280
     1
281
     1
  3
ACAD_DIMASSOC
360
D5F09
  0
DICTIONARY
  5
D5F25
330
D5F1C
100
AcDbDictionary
280
     1
281
     1
  3
ACAD_DIMASSOC
360
D5F2B
  0
DICTIONARY
  5
D67F8
102
{ACAD_REACTORS
330
C
102
}
330
C
100
AcDbDictionary
281
     1
  3
DIMFXL
350
D67F9
  3
DIMLTYPE
350
D67FA
  0
DICTIONARY
  5
6C
102
{ACAD_REACTORS
330
C
102
}
330
C
100
AcDbDictionary
281
     1
  0
DICTIONARY
  5
D
102
{ACAD_REACTORS
330
C
102
}
330
C
100
AcDbDictionary
281
     1
  0
DICTIONARY
  5
1A
102
{ACAD_REACTORS
330
C
102
}
330
C
100
AcDbDictionary
281
     1
  3
Model
350
22
  3
布局1
350
74
  3
布局2
350
79
  0
DICTIONARY
  5
6B
102
{ACAD_REACTORS
330
C
102
}
330
C
100
AcDbDictionary
281
     1
  3
ByBlock
350
CED77
  3
ByLayer
350
CED6F
  3
Global
350
CED7F
  0
DICTIONARY
  5
CEDBA
102
{ACAD_REACTORS
330
C
102
}
330
C
100
AcDbDictionary
281
     1
  3
Standard
350
CEDBB
  0
DICTIONARY
  5
17
102
{ACAD_REACTORS
330
C
102
}
330
C
100
AcDbDictionary
281
     1
  3
Standard
350
18
  0
DICTIONARY
  5
19
102
{ACAD_REACTORS
330
C
102
}
330
C
100
AcDbDictionary
281
     1
  0
ACDBDICTIONARYWDFLT
  5
E
102
{ACAD_REACTORS
330
C
102
}
330
C
100
AcDbDictionary
281
     1
  3
Normal
350
F
100
AcDbDictionaryWithDefault
340
F
  0
DICTIONARY
  5
CED98
102
{ACAD_REACTORS
330
C
102
}
330
C
100
AcDbDictionary
281
     1
  3
A0
350
CED99
  3
A1
350
CED9A
  3
A2
350
CED9B
  3
A3
350
CED9C
  3
A4
350
CED9D
  3
A5
350
CED9E
  3
A6
350
CED9F
  3
A7
350
CEDA0
  3
A8
350
CEDA1
  3
A9
350
CEDA2
  3
B0
350
CEDA3
  3
B1
350
CEDA4
  3
B2
350
CEDA5
  3
B3
350
CEDA6
  3
B4
350
CEDA7
  3
B5
350
CEDA8
  3
B6
350
CEDA9
  3
B7
350
CEDAA
  3
B8
350
CEDAB
  3
B9
350
CEDAC
  3
C0
350
CEDAD
  3
C1
350
CEDAE
  3
C2
350
CEDAF
  3
C3
350
CEDB0
  3
C4
350
CEDB1
  3
C5
350
CEDB2
  3
C6
350
CEDB3
  3
C7
350
CEDB4
  3
C8
350
CEDB5
  3
C9
350
CEDB6
  3
D0
350
CEDB7
  3
D1
350
CEDB8
  3
D2
350
CEDB9
  0
DICTIONARY
  5
FAF
102
{ACAD_REACTORS
330
C
102
}
330
C
100
AcDbDictionary
281
     1
  3
Standard
350
FB0
  0
DICTIONARY
  5
CED87
102
{ACAD_REACTORS
330
C
102
}
330
C
100
AcDbDictionary
281
     1
  3
2dWireframe
350
CED8D
  3
3D Hidden
350
CED8F
  3
3dWireframe
350
CED8E
  3
Basic
350
CED8C
  3
Brighten
350
CED93
  3
ColorChange
350
CED97
  3
Conceptual
350
CED90
  3
Dim
350
CED92
  3
Facepattern
350
CED96
  3
Flat
350
CED88
  3
FlatWithEdges
350
CED89
  3
Gouraud
350
CED8A
  3
GouraudWithEdges
350
CED8B
  3
Linepattern
350
CED95
  3
Realistic
350
CED91
  3
Thicken
350
CED94
  0
XRECORD
  5
100FD
102
{ACAD_REACTORS
330
C
102
}
330
C
100
AcDbXrecord
280
     1
 90
   990106
  3

 60
     0
 61
     0
 62
     1
 63
     3
 64
     0
 65
     0
 66
     0
 67
     3
 68
     1
 69
     0
 70
     0
 71
     0
 72
     0
 40
0.0
170
     0
  0
XRECORD
  5
D0C4C
102
{ACAD_REACTORS
330
C
102
}
330
C
100
AcDbXrecord
280
     1
 90
        1
330
FB0
  0
DICTIONARY
  5
59
102
{ACAD_REACTORS
330
C
102
}
330
C
100
AcDbDictionary
281
     1
  3
CANNOSCALE
350
D0C4F
  3
CMLEADERSTYLE
350
D0C4D
  3
CTABLESTYLE
350
100D
  3
DIMASSOC
350
5A
  3
HIDETEXT
350
5E
  3
INDEXCTL
350
D67C3
  3
LIGHTINGUNITS
350
D0C50
  3
MSLTSCALE
350
D0C4E
  3
SORTENTS
350
D67C2
  0
DICTIONARY
  5
C2668
102
{ACAD_REACTORS
330
C
102
}
330
C
100
AcDbDictionary
281
     1
  3
ASEBlockHierarchyIndexRecord
350
C2669
1001
DCO15
1040
1779131318.625
  0
XRECORD
  5
D67F7
102
{ACAD_REACTORS
330
C
102
}
330
C
100
AcDbXrecord
280
     1
  1
DWGPROPS COOKIE
  2

  3

  4

  6

  7

  8
Administrator
  9

300
=
301
=
302
=
303
=
304
=
305
=
306
=
307
=
308
=
309
=
 40
8.979153344907407
 41
2454355.343801713
 42
2457938.594802465
  1

 90
        0
  0
DICTIONARY
  5
A9D16
102
{ACAD_REACTORS
330
C
102
}
330
C
100
AcDbDictionary
281
     1
  3
lxx_dimth
350
A9D17
  0
DICTIONARY
  5
176
102
{ACAD_REACTORS
330
AB
102
}
330
AB
100
AcDbDictionary
281
     1
  0
DICTIONARY
  5
AC
102
{ACAD_REACTORS
330
AB
102
}
330
AB
100
AcDbDictionary
281
     1
  0
XRECORD
  5
CF252
102
{ACAD_REACTORS
330
CF251
102
}
330
CF251
100
AcDbXrecord
280
     1
290
     1
  0
XRECORD
  5
CF25A
102
{ACAD_REACTORS
330
CF259
102
}
330
CF259
100
AcDbXrecord
280
     1
290
     1
  0
XRECORD
  5
CF25C
102
{ACAD_REACTORS
330
CF25B
102
}
330
CF25B
100
AcDbXrecord
280
     1
290
     1
  0
XRECORD
  5
CF25E
102
{ACAD_REACTORS
330
CF25D
102
}
330
CF25D
100
AcDbXrecord
280
     1
290
     1
  0
SORTENTSTABLE
  5
118C
102
{ACAD_REACTORS
330
118B
102
}
330
118B
100
AcDbSortentsTable
330
1F
331
D5CAE
  5
D5CB0
331
D676D
  5
D5C9D
331
D5D5E
  5
D5DDE
331
D5C9F
  5
D5CAE
331
D5DDE
  5
D5E05
331
D5D1F
  5
D5D5E
331
D5CAF
  5
D5CB9
331
D5F2C
  5
D5F2E
331
D5E1F
  5
D5E46
331
D5E7A
  5
D5E97
331
D5D50
  5
D5DC4
331
D5CB0
  5
D5CED
331
D5F2D
  5
D5F2F
331
D5EDA
  5
D5EFA
331
D5CB9
  5
D5CFB
331
D5DF8
  5
D5E1F
331
D5EEA
  5
D5F1C
331
D5EFA
  5
D5F2C
331
D5E39
  5
D5E60
331
D5EB7
  5
D5EDA
331
D5CFB
  5
D5D50
331
D5F1C
  5
D5F2D
331
D661A
  5
D675C
331
D5C9C
  5
D5C9C
331
D5E46
  5
D5E7A
331
D661B
  5
D675D
331
D5C95
  5
D5C95
331
D5DC4
  5
D5DF8
331
D5C9D
  5
D5C9E
331
D5CED
  5
D5D1F
331
D5E87
  5
D5EA7
331
D5CAD
  5
D5CAF
331
D676C
  5
D5C9F
331
D5E97
  5
D5EB7
331
D5EA7
  5
D5EC7
331
D5C96
  5
D5C96
331
D5EC7
  5
D5EEA
331
D5C9E
  5
D5CAD
331
D5E60
  5
D5E87
331
D5E05
  5
D5E39
  0
XRECORD
  5
D6803
102
{ACAD_REACTORS
330
D6802
102
}
330
D6802
100
AcDbXrecord
280
     1
 40
57865.0
  1
\A1;{\fGulim|b0|i0|c129|p34;5-\U+22056}
  0
DIMASSOC
  5
D5CA1
102
{ACAD_REACTORS
330
D5CA0
102
}
330
D5CA0
100
AcDbDimAssoc
330
D5C9F
 90
        2
 70
     0
 71
     0
  1
AcDbOsnapPointRef
 72
     3
331
D5C9E
 73
     2
 91
        0
 40
0.0
 10
0.0
 20
0.0
 30
0.0
 75
     0
  0
DIMASSOC
  5
D5CD6
102
{ACAD_REACTORS
330
D5CC9
102
}
330
D5CC9
100
AcDbDimAssoc
330
D5CB9
 90
        3
 70
     0
 71
     0
  1
AcDbOsnapPointRef
 72
     3
331
D5CB0
 73
     2
 91
        0
 40
0.0
 10
0.0
 20
0.0
 30
0.0
 75
     0
  1
AcDbOsnapPointRef
 72
     8
331
D5C96
 73
     2
 91
        5
 40
0.6650207923359872
 10
0.0
 20
0.0
 30
0.0
 75
     1
  1
AcDbOsnapPointRef
 72
     3
331
D5CB0
 73
     2
 91
        0
 40
0.0
 10
0.0
 20
0.0
 30
0.0
 75
     0
  0
DIMASSOC
  5
D5D14
102
{ACAD_REACTORS
330
D5D09
102
}
330
D5D09
100
AcDbDimAssoc
330
D5CFB
 90
        2
 70
     0
 71
     0
  1
AcDbOsnapPointRef
 72
     3
331
D5CAE
 73
     2
 91
        0
 40
0.0
 10
0.0
 20
0.0
 30
0.0
 75
     0
  0
DIMASSOC
  5
D5D38
102
{ACAD_REACTORS
330
D5D2D
102
}
330
D5D2D
100
AcDbDimAssoc
330
D5D1F
 90
        3
 70
     0
 71
     0
  1
AcDbOsnapPointRef
 72
     3
331
D5CAF
 73
     2
 91
        0
 40
0.0
 10
0.0
 20
0.0
 30
0.0
 75
     0
  1
AcDbOsnapPointRef
 72
     8
331
D5C96
 73
     2
 91
        3
 40
0.4680851063828812
 10
0.0
 20
0.0
 30
0.0
 75
     1
  1
AcDbOsnapPointRef
 72
     3
331
D5CAF
 73
     2
 91
        0
 40
0.0
 10
0.0
 20
0.0
 30
0.0
 75
     0
  0
DIMASSOC
  5
D5D77
102
{ACAD_REACTORS
330
D5D6C
102
}
330
D5D6C
100
AcDbDimAssoc
330
D5D5E
 90
        2
 70
     0
 71
     0
  1
AcDbOsnapPointRef
 72
     3
331
D5CAD
 73
     2
 91
        0
 40
0.0
 10
0.0
 20
0.0
 30
0.0
 75
     0
  0
DIMASSOC
  5
D5DDD
102
{ACAD_REACTORS
330
D5DD2
102
}
330
D5DD2
100
AcDbDimAssoc
330
D5DC4
 90
        3
 70
     0
 71
     0
  1
AcDbOsnapPointRef
 72
     1
331
D5C95
 73
     2
 91
        4
 40
3.141592653589792
 10
0.0
 20
0.0
 30
2.000000000000000E+50
 75
     0
  1
AcDbOsnapPointRef
 72
     2
331
D5C95
 73
     2
 91
       13
 40
6.283185307179585
 10
0.0
 20
0.0
 30
0.0
 75
     0
  0
DIMASSOC
  5
D5DF7
102
{ACAD_REACTORS
330
D5DEC
102
}
330
D5DEC
100
AcDbDimAssoc
330
D5DDE
 90
        3
 70
     0
 71
     0
  1
AcDbOsnapPointRef
 72
     1
331
D5C96
 73
     2
 91
        4
 40
3.141592653589792
 10
0.0
 20
0.0
 30
2.000000000000000E+50
 75
     0
  1
AcDbOsnapPointRef
 72
     2
331
D5C96
 73
     2
 91
       13
 40
6.283185307180124
 10
0.0
 20
0.0
 30
0.0
 75
     0
  0
DIMASSOC
  5
D5E1E
102
{ACAD_REACTORS
330
D5E13
102
}
330
D5E13
100
AcDbDimAssoc
330
D5E05
 90
        3
 70
     0
 71
     0
  1
AcDbOsnapPointRef
 72
     2
331
D5C95
 73
     2
 91
        7
 40
1.570796326801211
 10
0.0
 20
0.0
 30
0.0
 75
     0
  1
AcDbOsnapPointRef
 72
     1
331
D5C95
 73
     2
 91
        3
 40
1.0
 10
0.0
 20
0.0
 30
2.000000000000000E+50
 75
     0
  0
DIMASSOC
  5
D5E38
102
{ACAD_REACTORS
330
D5E2D
102
}
330
D5E2D
100
AcDbDimAssoc
330
D5E1F
 90
        3
 70
     0
 71
     0
  1
AcDbOsnapPointRef
 72
     1
331
D5C96
 73
     2
 91
        3
 40
1.0
 10
0.0
 20
0.0
 30
2.000000000000000E+50
 75
     0
  1
AcDbOsnapPointRef
 72
     2
331
D5C96
 73
     2
 91
        7
 40
1.570796326801159
 10
0.0
 20
0.0
 30
0.0
 75
     0
  0
DIMASSOC
  5
D5E5F
102
{ACAD_REACTORS
330
D5E54
102
}
330
D5E54
100
AcDbDimAssoc
330
D5E46
 90
        3
 70
     0
 71
     0
  1
AcDbOsnapPointRef
 72
     1
331
D5C95
 73
     2
 91
        2
 40
4.712388980384463
 10
0.0
 20
0.0
 30
2.000000000000000E+50
 75
     0
  1
AcDbOsnapPointRef
 72
     1
331
D5C95
 73
     2
 91
       10
 40
1.0
 10
0.0
 20
0.0
 30
2.000000000000000E+50
 75
     0
  0
DIMASSOC
  5
D5E79
102
{ACAD_REACTORS
330
D5E6E
102
}
330
D5E6E
100
AcDbDimAssoc
330
D5E60
 90
        3
 70
     0
 71
     0
  1
AcDbOsnapPointRef
 72
     6
331
D5C96
 73
     2
 91
        3
 40
0.0000000000001407
 10
0.0
 20
0.0
 30
0.0
332
D5C96
 74
     2
 92
        2
 75
     0
  1
AcDbOsnapPointRef
 72
     6
331
D5C96
 73
     2
 91
       10
 40
1.000000000003407
 10
0.0
 20
0.0
 30
0.0
332
D5C96
 74
     2
 92
       11
 75
     0
  0
DIMASSOC
  5
D5E96
102
{ACAD_REACTORS
330
D5E90
102
}
330
D5E90
100
AcDbDimAssoc
330
D5E87
 90
        2
 70
     0
 71
     0
  1
AcDbOsnapPointRef
 72
     3
331
D5C95
 73
     2
 91
       12
 40
0.0
 10
0.0
 20
0.0
 30
0.0
 75
     0
  0
DIMASSOC
  5
D5EA6
102
{ACAD_REACTORS
330
D5EA0
102
}
330
D5EA0
100
AcDbDimAssoc
330
D5E97
 90
        2
 70
     0
 71
     0
  1
AcDbOsnapPointRef
 72
     3
331
D5C95
 73
     2
 91
       11
 40
0.0
 10
0.0
 20
0.0
 30
0.0
 75
     0
  0
DIMASSOC
  5
D5EB6
102
{ACAD_REACTORS
330
D5EB0
102
}
330
D5EB0
100
AcDbDimAssoc
330
D5EA7
 90
        2
 70
     0
 71
     0
  1
AcDbOsnapPointRef
 72
     3
331
D5C95
 73
     2
 91
       13
 40
0.0
 10
0.0
 20
0.0
 30
0.0
 75
     0
  0
DIMASSOC
  5
D5EC6
102
{ACAD_REACTORS
330
D5EC0
102
}
330
D5EC0
100
AcDbDimAssoc
330
D5EB7
 90
        2
 70
     0
 71
     0
  1
AcDbOsnapPointRef
 72
     3
331
D5C95
 73
     2
 91
        1
 40
0.0
 10
0.0
 20
0.0
 30
0.0
 75
     0
  0
DIMASSOC
  5
D5ED6
102
{ACAD_REACTORS
330
D5ED0
102
}
330
D5ED0
100
AcDbDimAssoc
330
D5EC7
 90
        2
 70
     0
 71
     0
  1
AcDbOsnapPointRef
 72
     3
331
D5C95
 73
     2
 91
        2
 40
0.0
 10
0.0
 20
0.0
 30
0.0
 75
     0
  0
DIMASSOC
  5
D5EE9
102
{ACAD_REACTORS
330
D5EE3
102
}
330
D5EE3
100
AcDbDimAssoc
330
D5EDA
 90
        2
 70
     0
 71
     0
  1
AcDbOsnapPointRef
 72
     3
331
D5C95
 73
     2
 91
        4
 40
0.0
 10
0.0
 20
0.0
 30
0.0
 75
     0
  0
DIMASSOC
  5
D5EF9
102
{ACAD_REACTORS
330
D5EF3
102
}
330
D5EF3
100
AcDbDimAssoc
330
D5EEA
 90
        2
 70
     0
 71
     0
  1
AcDbOsnapPointRef
 72
     3
331
D5C95
 73
     2
 91
        6
 40
0.0
 10
0.0
 20
0.0
 30
0.0
 75
     0
  0
DIMASSOC
  5
D5F09
102
{ACAD_REACTORS
330
D5F03
102
}
330
D5F03
100
AcDbDimAssoc
330
D5EFA
 90
        2
 70
     0
 71
     0
  1
AcDbOsnapPointRef
 72
     3
331
D5C95
 73
     2
 91
        7
 40
0.0
 10
0.0
 20
0.0
 30
0.0
 75
     0
  0
DIMASSOC
  5
D5F2B
102
{ACAD_REACTORS
330
D5F25
102
}
330
D5F25
100
AcDbDimAssoc
330
D5F1C
 90
        2
 70
     0
 71
     0
  1
AcDbOsnapPointRef
 72
     3
331
D5C95
 73
     2
 91
        9
 40
0.0
 10
0.0
 20
0.0
 30
0.0
 75
     0
  0
XRECORD
  5
D67F9
102
{ACAD_REACTORS
330
D67F8
102
}
330
D67F8
100
AcDbXrecord
280
     1
 40
8.0
  0
XRECORD
  5
D67FA
102
{ACAD_REACTORS
330
D67F8
102
}
330
D67F8
100
AcDbXrecord
280
     1
340
15
  0
LAYOUT
  5
22
102
{ACAD_XDICTIONARY
360
D67FB
102
}
102
{ACAD_REACTORS
330
1A
102
}
330
1A
100
AcDbPlotSettings
  1

  2
\\PC-201204061032\Canon LBP2900
  4
A4
  6

 40
5.873749732971191
 41
6.805091857910156
 42
5.873748779296875
 43
4.857757568359375
 44
209.9733276367186
 45
296.9259948730469
 46
-5.889999999999998
 47
-5.87
 48
85766.02374884076
 49
-163980.7810393121
140
88736.02374884079
141
-161880.7810393122
142
1.0
143
10.0
 70
 11940
 72
     1
 73
     1
 74
     4
  7
monochrome.ctb
 75
     0
147
0.1
148
-85766.02374884076
149
163980.7810393121
100
AcDbLayout
  1
Model
 70
     1
 71
     0
 10
0.0
 20
0.0
 11
12.0
 21
9.0
 12
0.0
 22
0.0
 32
0.0
 14
0.0
 24
0.0
 34
0.0
 15
0.0
 25
0.0
 35
0.0
146
0.0
 13
0.0
 23
0.0
 33
0.0
 16
1.0
 26
0.0
 36
0.0
 17
0.0
 27
1.0
 37
0.0
 76
     0
330
1F
331
CED6D
  0
LAYOUT
  5
74
102
{ACAD_XDICTIONARY
360
D67FD
102
}
102
{ACAD_REACTORS
330
1A
102
}
330
1A
100
AcDbPlotSettings
  1

  2
\\ADSCCNDC1\hq601xrx1
  4

  6

 40
0.0
 41
0.0
 42
0.0
 43
0.0
 44
0.0
 45
0.0
 46
0.0
 47
0.0
 48
0.0
 49
0.0
140
0.0
141
0.0
142
1.0
143
1.0
 70
   688
 72
     0
 73
     0
 74
     5
  7
monochrome.ctb
 75
    16
147
1.0
148
0.0
149
0.0
100
AcDbLayout
  1
布局1
 70
     1
 71
     1
 10
0.0
 20
0.0
 11
12.0
 21
9.0
 12
0.0
 22
0.0
 32
0.0
 14
0.0
 24
0.0
 34
0.0
 15
0.0
 25
0.0
 35
0.0
146
0.0
 13
0.0
 23
0.0
 33
0.0
 16
1.0
 26
0.0
 36
0.0
 17
0.0
 27
1.0
 37
0.0
 76
     0
330
73
  0
LAYOUT
  5
79
102
{ACAD_XDICTIONARY
360
D67FF
102
}
102
{ACAD_REACTORS
330
1A
102
}
330
1A
100
AcDbPlotSettings
  1

  2
\\ADSCCNDC1\hq601xrx1
  4

  6

 40
0.0
 41
0.0
 42
0.0
 43
0.0
 44
0.0
 45
0.0
 46
0.0
 47
0.0
 48
0.0
 49
0.0
140
0.0
141
0.0
142
1.0
143
1.0
 70
   688
 72
     0
 73
     0
 74
     5
  7
monochrome.ctb
 75
    16
147
1.0
148
0.0
149
0.0
100
AcDbLayout
  1
布局2
 70
     1
 71
     2
 10
0.0
 20
0.0
 11
12.0
 21
9.0
 12
0.0
 22
0.0
 32
0.0
 14
0.0
 24
0.0
 34
0.0
 15
0.0
 25
0.0
 35
0.0
146
0.0
 13
0.0
 23
0.0
 33
0.0
 16
1.0
 26
0.0
 36
0.0
 17
0.0
 27
1.0
 37
0.0
 76
     0
330
78
  0
MATERIAL
  5
CED77
102
{ACAD_XDICTIONARY
360
CED78
102
}
102
{ACAD_REACTORS
330
6B
102
}
330
6B
100
AcDbMaterial
  1
ByBlock
 72
     0
 43
0.0208333333333333
 43
0.0
 43
0.0
 43
0.0
 43
0.0
 43
0.0208333333333333
 43
0.0
 43
0.0
 43
0.0
 43
0.0
 43
1.0
 43
0.0
 43
0.0
 43
0.0
 43
0.0
 43
1.0
 77
     0
 47
0.0208333333333333
 47
0.0
 47
0.0
 47
0.0
 47
0.0
 47
0.0208333333333333
 47
0.0
 47
0.0
 47
0.0
 47
0.0
 47
1.0
 47
0.0
 47
0.0
 47
0.0
 47
0.0
 47
1.0
171
     0
 49
0.0208333333333333
 49
0.0
 49
0.0
 49
0.0
 49
0.0
 49
0.0208333333333333
 49
0.0
 49
0.0
 49
0.0
 49
0.0
 49
1.0
 49
0.0
 49
0.0
 49
0.0
 49
0.0
 49
1.0
175
     0
142
0.0208333333333333
142
0.0
142
0.0
142
0.0
142
0.0
142
0.0208333333333333
142
0.0
142
0.0
142
0.0
142
0.0
142
1.0
142
0.0
142
0.0
142
0.0
142
0.0
142
1.0
179
     0
144
0.0208333333333333
144
0.0
144
0.0
144
0.0
144
0.0
144
0.0208333333333333
144
0.0
144
0.0
144
0.0
144
0.0
144
1.0
144
0.0
144
0.0
144
0.0
144
0.0
144
1.0
147
0.0208333333333333
147
0.0
147
0.0
147
0.0
147
0.0
147
0.0208333333333333
147
0.0
147
0.0
147
0.0
147
0.0
147
1.0
147
0.0
147
0.0
147
0.0
147
0.0
147
1.0
  0
MATERIAL
  5
CED6F
102
{ACAD_XDICTIONARY
360
CED70
102
}
102
{ACAD_REACTORS
330
6B
102
}
330
6B
100
AcDbMaterial
  1
ByLayer
 72
     0
 43
0.0208333333333333
 43
0.0
 43
0.0
 43
0.0
 43
0.0
 43
0.0208333333333333
 43
0.0
 43
0.0
 43
0.0
 43
0.0
 43
1.0
 43
0.0
 43
0.0
 43
0.0
 43
0.0
 43
1.0
 77
     0
 47
0.0208333333333333
 47
0.0
 47
0.0
 47
0.0
 47
0.0
 47
0.0208333333333333
 47
0.0
 47
0.0
 47
0.0
 47
0.0
 47
1.0
 47
0.0
 47
0.0
 47
0.0
 47
0.0
 47
1.0
171
     0
 49
0.0208333333333333
 49
0.0
 49
0.0
 49
0.0
 49
0.0
 49
0.0208333333333333
 49
0.0
 49
0.0
 49
0.0
 49
0.0
 49
1.0
 49
0.0
 49
0.0
 49
0.0
 49
0.0
 49
1.0
175
     0
142
0.0208333333333333
142
0.0
142
0.0
142
0.0
142
0.0
142
0.0208333333333333
142
0.0
142
0.0
142
0.0
142
0.0
142
1.0
142
0.0
142
0.0
142
0.0
142
0.0
142
1.0
179
     0
144
0.0208333333333333
144
0.0
144
0.0
144
0.0
144
0.0
144
0.0208333333333333
144
0.0
144
0.0
144
0.0
144
0.0
144
1.0
144
0.0
144
0.0
144
0.0
144
0.0
144
1.0
147
0.0208333333333333
147
0.0
147
0.0
147
0.0
147
0.0
147
0.0208333333333333
147
0.0
147
0.0
147
0.0
147
0.0
147
1.0
147
0.0
147
0.0
147
0.0
147
0.0
147
1.0
  0
MATERIAL
  5
CED7F
102
{ACAD_XDICTIONARY
360
CED80
102
}
102
{ACAD_REACTORS
330
6B
102
}
330
6B
100
AcDbMaterial
  1
Global
 72
     0
 43
0.0208333333333333
 43
0.0
 43
0.0
 43
0.0
 43
0.0
 43
0.0208333333333333
 43
0.0
 43
0.0
 43
0.0
 43
0.0
 43
1.0
 43
0.0
 43
0.0
 43
0.0
 43
0.0
 43
1.0
 77
     0
 47
0.0208333333333333
 47
0.0
 47
0.0
 47
0.0
 47
0.0
 47
0.0208333333333333
 47
0.0
 47
0.0
 47
0.0
 47
0.0
 47
1.0
 47
0.0
 47
0.0
 47
0.0
 47
0.0
 47
1.0
171
     0
 49
0.0208333333333333
 49
0.0
 49
0.0
 49
0.0
 49
0.0
 49
0.0208333333333333
 49
0.0
 49
0.0
 49
0.0
 49
0.0
 49
1.0
 49
0.0
 49
0.0
 49
0.0
 49
0.0
 49
1.0
175
     0
142
0.0208333333333333
142
0.0
142
0.0
142
0.0
142
0.0
142
0.0208333333333333
142
0.0
142
0.0
142
0.0
142
0.0
142
1.0
142
0.0
142
0.0
142
0.0
142
0.0
142
1.0
179
     0
144
0.0208333333333333
144
0.0
144
0.0
144
0.0
144
0.0
144
0.0208333333333333
144
0.0
144
0.0
144
0.0
144
0.0
144
1.0
144
0.0
144
0.0
144
0.0
144
0.0
144
1.0
147
0.0208333333333333
147
0.0
147
0.0
147
0.0
147
0.0
147
0.0208333333333333
147
0.0
147
0.0
147
0.0
147
0.0
147
1.0
147
0.0
147
0.0
147
0.0
147
0.0
147
1.0
  0
MLEADERSTYLE
  5
CEDBB
102
{ACAD_REACTORS
330
CEDBA
102
}
330
CEDBA
100
AcDbMLeaderStyle
170
     2
171
     1
172
     0
 90
        2
 40
0.0
 41
0.0
173
     1
 91
-1056964608
340
14
 92
       -2
290
     1
 42
0.09
291
     1
 43
0.36
  3
Standard
 44
0.18
300

342
11
174
     1
178
     6
175
     1
176
     0
 93
-1056964608
 45
0.18
292
     0
297
     0
 46
0.18
 94
-1056964608
 47
1.0
 49
1.0
140
1.0
293
     1
141
0.0
294
     1
177
     0
142
1.0
295
     0
296
     0
143
0.125
1001
ACAD_MLEADERVER
1070
     2
  0
MLINESTYLE
  5
18
102
{ACAD_REACTORS
330
17
102
}
330
17
100
AcDbMlineStyle
  2
STANDARD
 70
     0
  3

 62
   256
 51
90.0
 52
90.0
 71
     2
 49
0.5
 62
   256
  6
BYLAYER
 49
-0.5
 62
   256
  6
BYLAYER
  0
ACDBPLACEHOLDER
  5
F
102
{ACAD_REACTORS
330
E
102
}
330
E
  0
SCALE
  5
CED99
102
{ACAD_REACTORS
330
CED98
102
}
330
CED98
100
AcDbScale
 70
     0
300
1:1
140
1.0
141
1.0
290
     1
  0
SCALE
  5
CED9A
102
{ACAD_REACTORS
330
CED98
102
}
330
CED98
100
AcDbScale
 70
     0
300
1:2
140
1.0
141
2.0
290
     0
  0
SCALE
  5
CED9B
102
{ACAD_REACTORS
330
CED98
102
}
330
CED98
100
AcDbScale
 70
     0
300
1:4
140
1.0
141
4.0
290
     0
  0
SCALE
  5
CED9C
102
{ACAD_REACTORS
330
CED98
102
}
330
CED98
100
AcDbScale
 70
     0
300
1:5
140
1.0
141
5.0
290
     0
  0
SCALE
  5
CED9D
102
{ACAD_REACTORS
330
CED98
102
}
330
CED98
100
AcDbScale
 70
     0
300
1:8
140
1.0
141
8.0
290
     0
  0
SCALE
  5
CED9E
102
{ACAD_REACTORS
330
CED98
102
}
330
CED98
100
AcDbScale
 70
     0
300
1:10
140
1.0
141
10.0
290
     0
  0
SCALE
  5
CED9F
102
{ACAD_REACTORS
330
CED98
102
}
330
CED98
100
AcDbScale
 70
     0
300
1:16
140
1.0
141
16.0
290
     0
  0
SCALE
  5
CEDA0
102
{ACAD_REACTORS
330
CED98
102
}
330
CED98
100
AcDbScale
 70
     0
300
1:20
140
1.0
141
20.0
290
     0
  0
SCALE
  5
CEDA1
102
{ACAD_REACTORS
330
CED98
102
}
330
CED98
100
AcDbScale
 70
     0
300
1:30
140
1.0
141
30.0
290
     0
  0
SCALE
  5
CEDA2
102
{ACAD_REACTORS
330
CED98
102
}
330
CED98
100
AcDbScale
 70
     0
300
1:40
140
1.0
141
40.0
290
     0
  0
SCALE
  5
CEDA3
102
{ACAD_REACTORS
330
CED98
102
}
330
CED98
100
AcDbScale
 70
     0
300
1:50
140
1.0
141
50.0
290
     0
  0
SCALE
  5
CEDA4
102
{ACAD_REACTORS
330
CED98
102
}
330
CED98
100
AcDbScale
 70
     0
300
1:100
140
1.0
141
100.0
290
     0
  0
SCALE
  5
CEDA5
102
{ACAD_REACTORS
330
CED98
102
}
330
CED98
100
AcDbScale
 70
     0
300
2:1
140
2.0
141
1.0
290
     0
  0
SCALE
  5
CEDA6
102
{ACAD_REACTORS
330
CED98
102
}
330
CED98
100
AcDbScale
 70
     0
300
4:1
140
4.0
141
1.0
290
     0
  0
SCALE
  5
CEDA7
102
{ACAD_REACTORS
330
CED98
102
}
330
CED98
100
AcDbScale
 70
     0
300
8:1
140
8.0
141
1.0
290
     0
  0
SCALE
  5
CEDA8
102
{ACAD_REACTORS
330
CED98
102
}
330
CED98
100
AcDbScale
 70
     0
300
10:1
140
10.0
141
1.0
290
     0
  0
SCALE
  5
CEDA9
102
{ACAD_REACTORS
330
CED98
102
}
330
CED98
100
AcDbScale
 70
     0
300
100:1
140
100.0
141
1.0
290
     0
  0
SCALE
  5
CEDAA
102
{ACAD_REACTORS
330
CED98
102
}
330
CED98
100
AcDbScale
 70
     0
300
1/128" = 1'-0"
140
0.0078125
141
12.0
290
     0
  0
SCALE
  5
CEDAB
102
{ACAD_REACTORS
330
CED98
102
}
330
CED98
100
AcDbScale
 70
     0
300
1/64" = 1'-0"
140
0.015625
141
12.0
290
     0
  0
SCALE
  5
CEDAC
102
{ACAD_REACTORS
330
CED98
102
}
330
CED98
100
AcDbScale
 70
     0
300
1/32" = 1'-0"
140
0.03125
141
12.0
290
     0
  0
SCALE
  5
CEDAD
102
{ACAD_REACTORS
330
CED98
102
}
330
CED98
100
AcDbScale
 70
     0
300
1/16" = 1'-0"
140
0.0625
141
12.0
290
     0
  0
SCALE
  5
CEDAE
102
{ACAD_REACTORS
330
CED98
102
}
330
CED98
100
AcDbScale
 70
     0
300
3/32" = 1'-0"
140
0.09375
141
12.0
290
     0
  0
SCALE
  5
CEDAF
102
{ACAD_REACTORS
330
CED98
102
}
330
CED98
100
AcDbScale
 70
     0
300
1/8" = 1'-0"
140
0.125
141
12.0
290
     0
  0
SCALE
  5
CEDB0
102
{ACAD_REACTORS
330
CED98
102
}
330
CED98
100
AcDbScale
 70
     0
300
3/16" = 1'-0"
140
0.1875
141
12.0
290
     0
  0
SCALE
  5
CEDB1
102
{ACAD_REACTORS
330
CED98
102
}
330
CED98
100
AcDbScale
 70
     0
300
1/4" = 1'-0"
140
0.25
141
12.0
290
     0
  0
SCALE
  5
CEDB2
102
{ACAD_REACTORS
330
CED98
102
}
330
CED98
100
AcDbScale
 70
     0
300
3/8" = 1'-0"
140
0.375
141
12.0
290
     0
  0
SCALE
  5
CEDB3
102
{ACAD_REACTORS
330
CED98
102
}
330
CED98
100
AcDbScale
 70
     0
300
1/2" = 1'-0"
140
0.5
141
12.0
290
     0
  0
SCALE
  5
CEDB4
102
{ACAD_REACTORS
330
CED98
102
}
330
CED98
100
AcDbScale
 70
     0
300
3/4" = 1'-0"
140
0.75
141
12.0
290
     0
  0
SCALE
  5
CEDB5
102
{ACAD_REACTORS
330
CED98
102
}
330
CED98
100
AcDbScale
 70
     0
300
1" = 1'-0"
140
1.0
141
12.0
290
     0
  0
SCALE
  5
CEDB6
102
{ACAD_REACTORS
330
CED98
102
}
330
CED98
100
AcDbScale
 70
     0
300
1-1/2" = 1'-0"
140
1.5
141
12.0
290
     0
  0
SCALE
  5
CEDB7
102
{ACAD_REACTORS
330
CED98
102
}
330
CED98
100
AcDbScale
 70
     0
300
3" = 1'-0"
140
3.0
141
12.0
290
     0
  0
SCALE
  5
CEDB8
102
{ACAD_REACTORS
330
CED98
102
}
330
CED98
100
AcDbScale
 70
     0
300
6" = 1'-0"
140
6.0
141
12.0
290
     0
  0
SCALE
  5
CEDB9
102
{ACAD_REACTORS
330
CED98
102
}
330
CED98
100
AcDbScale
 70
     0
300
1'-0" = 1'-0"
140
12.0
141
12.0
290
     0
  0
TABLESTYLE
  5
FB0
102
{ACAD_XDICTIONARY
360
D0C45
102
}
102
{ACAD_REACTORS
330
FAF
102
}
330
FAF
100
AcDbTableStyle
  3
Standard
 70
     0
 71
     0
 40
0.06
 41
0.06
280
     0
281
     0
  7
Standard
140
0.18
170
     2
 62
     0
 63
     7
283
     0
274
    -2
284
     1
 64
     0
275
    -2
285
     1
 65
     0
276
    -2
286
     1
 66
     0
277
    -2
287
     1
 67
     0
278
    -2
288
     1
 68
     0
279
    -2
289
     1
 69
     0
  7
Standard
140
0.25
170
     5
 62
     0
 63
     7
283
     0
274
    -2
284
     1
 64
     0
275
    -2
285
     1
 65
     0
276
    -2
286
     1
 66
     0
277
    -2
287
     1
 67
     0
278
    -2
288
     1
 68
     0
279
    -2
289
     1
 69
     0
  7
Standard
140
0.18
170
     5
 62
     0
 63
     7
283
     0
274
    -2
284
     1
 64
     0
275
    -2
285
     1
 65
     0
276
    -2
286
     1
 66
     0
277
    -2
287
     1
 67
     0
278
    -2
288
     1
 68
     0
279
    -2
289
     1
 69
     0
  0
VISUALSTYLE
  5
CED8D
102
{ACAD_REACTORS
330
CED87
102
}
330
CED87
100
AcDbVisualStyle
  2
2dWireframe
 70
     4
 71
     0
 72
     2
 73
     0
 90
        0
 40
-0.6
 41
-30.0
 62
     5
 63
     7
 74
     1
 91
        4
 64
     7
 65
   257
 75
     1
175
     1
 42
1.0
 92
        0
 66
   257
 43
1.0
 76
     1
 77
     6
 78
     2
 67
     7
 79
     5
170
     0
171
     0
290
     0
174
     0
 93
        1
 44
0.0
173
     0
291
     0
 45
0.0
1001
ACAD
1000
AcDbSavedByObjectVersion
1070
     0
1000
AcDbSavedByObjectVersion
1070
     0
  0
VISUALSTYLE
  5
CED8F
102
{ACAD_REACTORS
330
CED87
102
}
330
CED87
100
AcDbVisualStyle
  2
3D Hidden
 70
     6
 71
     1
 72
     2
 73
     2
 90
        0
 40
-0.6
 41
-30.0
 62
     5
 63
     7
 74
     2
 91
        2
 64
     7
 65
   257
 75
     2
175
     1
 42
40.0
 92
        0
 66
   257
 43
1.0
 76
     1
 77
     6
 78
     2
 67
     7
 79
     3
170
     0
171
     0
290
     0
174
     0
 93
        1
 44
0.0
173
     0
291
     0
 45
0.0
1001
ACAD
1000
AcDbSavedByObjectVersion
1070
     0
1000
AcDbSavedByObjectVersion
1070
     0
  0
VISUALSTYLE
  5
CED8E
102
{ACAD_REACTORS
330
CED87
102
}
330
CED87
100
AcDbVisualStyle
  2
3dWireframe
 70
     5
 71
     0
 72
     2
 73
     0
 90
        0
 40
-0.6
 41
-30.0
 62
     5
 63
     7
 74
     1
 91
        4
 64
     7
 65
   257
 75
     1
175
     1
 42
1.0
 92
        0
 66
   257
 43
1.0
 76
     1
 77
     6
 78
     2
 67
     7
 79
     5
170
     0
171
     0
290
     0
174
     0
 93
        1
 44
0.0
173
     0
291
     0
 45
0.0
1001
ACAD
1000
AcDbSavedByObjectVersion
1070
     0
1000
AcDbSavedByObjectVersion
1070
     0
  0
VISUALSTYLE
  5
CED8C
102
{ACAD_REACTORS
330
CED87
102
}
330
CED87
100
AcDbVisualStyle
  2
Basic
 70
     7
 71
     1
 72
     0
 73
     1
 90
        0
 40
-0.6
 41
-30.0
 62
     5
 63
     7
 74
     0
 91
        4
 64
     7
 65
   257
 75
     1
175
     1
 42
1.0
 92
        8
 66
     7
 43
1.0
 76
     1
 77
     6
 78
     2
 67
     7
 79
     5
170
     0
171
     0
290
     0
174
     0
 93
        1
 44
0.0
173
     0
291
     1
 45
0.0
1001
ACAD
1000
AcDbSavedByObjectVersion
1070
     0
1000
AcDbSavedByObjectVersion
1070
     0
  0
VISUALSTYLE
  5
CED93
102
{ACAD_REACTORS
330
CED87
102
}
330
CED87
100
AcDbVisualStyle
  2
Brighten
 70
    12
 71
     2
 72
     2
 73
     0
 90
        0
 40
-0.6
 41
-30.0
 62
     5
 63
     7
 74
     1
 91
        4
 64
     7
 65
   257
 75
     1
175
     1
 42
1.0
 92
        8
 66
     7
 43
1.0
 76
     1
 77
     6
 78
     2
 67
     7
 79
     5
170
     0
171
     0
290
     0
174
     0
 93
        1
 44
50.0
173
     0
291
     1
 45
0.0
1001
ACAD
1000
AcDbSavedByObjectVersion
1070
     0
1000
AcDbSavedByObjectVersion
1070
     0
  0
VISUALSTYLE
  5
CED97
102
{ACAD_REACTORS
330
CED87
102
}
330
CED87
100
AcDbVisualStyle
  2
ColorChange
 70
    16
 71
     2
 72
     2
 73
     3
 90
        0
 40
-0.6
 41
-30.0
 62
     5
 63
     8
 74
     1
 91
        4
 64
     7
 65
   257
 75
     1
175
     1
 42
1.0
 92
        8
 66
     8
 43
1.0
 76
     1
 77
     6
 78
     2
 67
     7
 79
     5
170
     0
171
     0
290
     0
174
     0
 93
        1
 44
0.0
173
     0
291
     1
 45
0.0
1001
ACAD
1000
AcDbSavedByObjectVersion
1070
     0
1000
AcDbSavedByObjectVersion
1070
     0
  0
VISUALSTYLE
  5
CED90
102
{ACAD_REACTORS
330
CED87
102
}
330
CED87
100
AcDbVisualStyle
  2
Conceptual
 70
     9
 71
     3
 72
     2
 73
     0
 90
        0
 40
-0.6
 41
-30.0
 62
     5
 63
     7
 74
     2
 91
        2
 64
     7
 65
   257
 75
     1
175
     1
 42
40.0
 92
        8
 66
     7
 43
1.0
 76
     1
 77
     6
 78
     2
 67
     7
 79
     3
170
     0
171
     0
290
     0
174
     0
 93
        1
 44
0.0
173
     0
291
     0
 45
0.0
1001
ACAD
1000
AcDbSavedByObjectVersion
1070
     0
1000
AcDbSavedByObjectVersion
1070
     0
  0
VISUALSTYLE
  5
CED92
102
{ACAD_REACTORS
330
CED87
102
}
330
CED87
100
AcDbVisualStyle
  2
Dim
 70
    11
 71
     2
 72
     2
 73
     0
 90
        0
 40
-0.6
 41
-30.0
 62
     5
 63
     7
 74
     1
 91
        4
 64
     7
 65
   257
 75
     1
175
     1
 42
1.0
 92
        8
 66
     7
 43
1.0
 76
     1
 77
     6
 78
     2
 67
     7
 79
     5
170
     0
171
     0
290
     0
174
     0
 93
        1
 44
-50.0
173
     0
291
     1
 45
0.0
1001
ACAD
1000
AcDbSavedByObjectVersion
1070
     0
1000
AcDbSavedByObjectVersion
1070
     0
  0
VISUALSTYLE
  5
CED96
102
{ACAD_REACTORS
330
CED87
102
}
330
CED87
100
AcDbVisualStyle
  2
Facepattern
 70
    15
 71
     2
 72
     2
 73
     0
 90
        0
 40
-0.6
 41
-30.0
 62
     5
 63
     7
 74
     1
 91
        4
 64
     7
 65
   257
 75
     1
175
     1
 42
1.0
 92
        8
 66
     7
 43
1.0
 76
     1
 77
     6
 78
     2
 67
     7
 79
     5
170
     0
171
     0
290
     0
174
     0
 93
        1
 44
0.0
173
     0
291
     1
 45
0.0
1001
ACAD
1000
AcDbSavedByObjectVersion
1070
     0
1000
AcDbSavedByObjectVersion
1070
     0
  0
VISUALSTYLE
  5
CED88
102
{ACAD_REACTORS
330
CED87
102
}
330
CED87
100
AcDbVisualStyle
  2
Flat
 70
     0
 71
     2
 72
     1
 73
     1
 90
        2
 40
-0.6
 41
30.0
 62
     5
 63
     7
 74
     0
 91
        4
 64
     7
 65
   257
 75
     1
175
     1
 42
1.0
 92
        8
 66
     7
 43
1.0
 76
     1
 77
     6
 78
     2
 67
     7
 79
     5
170
     0
171
     0
290
     0
174
     0
 93
       13
 44
0.0
173
     0
291
     1
 45
0.0
1001
ACAD
1000
AcDbSavedByObjectVersion
1070
     0
1000
AcDbSavedByObjectVersion
1070
     0
  0
VISUALSTYLE
  5
CED89
102
{ACAD_REACTORS
330
CED87
102
}
330
CED87
100
AcDbVisualStyle
  2
FlatWithEdges
 70
     1
 71
     2
 72
     1
 73
     1
 90
        2
 40
-0.6
 41
30.0
 62
     5
 63
     7
 74
     1
 91
        4
 64
     7
 65
   257
 75
     1
175
     1
 42
1.0
 92
        0
 66
   257
 43
1.0
 76
     1
 77
     6
 78
     2
 67
     7
 79
     5
170
     0
171
     0
290
     0
174
     0
 93
       13
 44
0.0
173
     0
291
     1
 45
0.0
1001
ACAD
1000
AcDbSavedByObjectVersion
1070
     0
1000
AcDbSavedByObjectVersion
1070
     0
  0
VISUALSTYLE
  5
CED8A
102
{ACAD_REACTORS
330
CED87
102
}
330
CED87
100
AcDbVisualStyle
  2
Gouraud
 70
     2
 71
     2
 72
     2
 73
     1
 90
        2
 40
-0.6
 41
30.0
 62
     5
 63
     7
 74
     0
 91
        4
 64
     7
 65
   257
 75
     1
175
     1
 42
1.0
 92
        0
 66
     7
 43
1.0
 76
     1
 77
     6
 78
     2
 67
     7
 79
     5
170
     0
171
     0
290
     0
174
     0
 93
       13
 44
0.0
173
     0
291
     1
 45
0.0
1001
ACAD
1000
AcDbSavedByObjectVersion
1070
     0
1000
AcDbSavedByObjectVersion
1070
     0
  0
VISUALSTYLE
  5
CED8B
102
{ACAD_REACTORS
330
CED87
102
}
330
CED87
100
AcDbVisualStyle
  2
GouraudWithEdges
 70
     3
 71
     2
 72
     2
 73
     1
 90
        2
 40
-0.6
 41
30.0
 62
     5
 63
     7
 74
     1
 91
        4
 64
     7
 65
   257
 75
     1
175
     1
 42
1.0
 92
        0
 66
   257
 43
1.0
 76
     1
 77
     6
 78
     2
 67
     7
 79
     5
170
     0
171
     0
290
     0
174
     0
 93
       13
 44
0.0
173
     0
291
     1
 45
0.0
1001
ACAD
1000
AcDbSavedByObjectVersion
1070
     0
1000
AcDbSavedByObjectVersion
1070
     0
  0
VISUALSTYLE
  5
CED95
102
{ACAD_REACTORS
330
CED87
102
}
330
CED87
100
AcDbVisualStyle
  2
Linepattern
 70
    14
 71
     2
 72
     2
 73
     0
 90
        0
 40
-0.6
 41
-30.0
 62
     5
 63
     7
 74
     1
 91
        4
 64
     7
 65
   257
 75
     7
175
     7
 42
1.0
 92
        8
 66
     7
 43
1.0
 76
     1
 77
     6
 78
     2
 67
     7
 79
     5
170
     0
171
     0
290
     0
174
     0
 93
        1
 44
0.0
173
     0
291
     1
 45
0.0
1001
ACAD
1000
AcDbSavedByObjectVersion
1070
     0
1000
AcDbSavedByObjectVersion
1070
     0
  0
VISUALSTYLE
  5
CED91
102
{ACAD_REACTORS
330
CED87
102
}
330
CED87
100
AcDbVisualStyle
  2
Realistic
 70
     8
 71
     2
 72
     2
 73
     0
 90
        0
 40
-0.6
 41
-30.0
 62
     5
 63
     7
 74
     1
 91
        0
 64
     7
 65
   257
 75
     1
175
     1
 42
1.0
 92
        8
 66
     8
 43
1.0
 76
     1
 77
     6
 78
     2
 67
     7
 79
     5
170
     0
171
     0
290
     0
174
     0
 93
       13
 44
0.0
173
     0
291
     0
 45
0.0
1001
ACAD
1000
AcDbSavedByObjectVersion
1070
     0
1000
AcDbSavedByObjectVersion
1070
     0
  0
VISUALSTYLE
  5
CED94
102
{ACAD_REACTORS
330
CED87
102
}
330
CED87
100
AcDbVisualStyle
  2
Thicken
 70
    13
 71
     2
 72
     2
 73
     0
 90
        0
 40
-0.6
 41
-30.0
 62
     5
 63
     7
 74
     1
 91
        4
 64
     7
 65
   257
 75
     1
175
     1
 42
1.0
 92
       12
 66
     7
 43
1.0
 76
     1
 77
     6
 78
     2
 67
     7
 79
     5
170
     0
171
     0
290
     0
174
     0
 93
        1
 44
0.0
173
     0
291
     1
 45
0.0
1001
ACAD
1000
AcDbSavedByObjectVersion
1070
     0
1000
AcDbSavedByObjectVersion
1070
     0
  0
DICTIONARYVAR
  5
D0C4F
102
{ACAD_REACTORS
330
59
102
}
330
59
100
DictionaryVariables
280
     0
  1
1:1
  0
DICTIONARYVAR
  5
D0C4D
102
{ACAD_REACTORS
330
59
102
}
330
59
100
DictionaryVariables
280
     0
  1
STANDARD
  0
DICTIONARYVAR
  5
100D
102
{ACAD_REACTORS
330
59
102
}
330
59
100
DictionaryVariables
280
     0
  1
STANDARD
  0
DICTIONARYVAR
  5
5A
102
{ACAD_REACTORS
330
59
102
}
330
59
100
DictionaryVariables
280
     0
  1
2
  0
DICTIONARYVAR
  5
5E
102
{ACAD_REACTORS
330
59
102
}
330
59
100
DictionaryVariables
280
     0
  1
1
  0
DICTIONARYVAR
  5
D67C3
102
{ACAD_REACTORS
330
59
102
}
330
59
100
DictionaryVariables
280
     0
  1
0
  0
DICTIONARYVAR
  5
D0C50
102
{ACAD_REACTORS
330
59
102
}
330
59
100
DictionaryVariables
280
     0
  1
0
  0
DICTIONARYVAR
  5
D0C4E
102
{ACAD_REACTORS
330
59
102
}
330
59
100
DictionaryVariables
280
     0
  1
0
  0
DICTIONARYVAR
  5
D67C2
102
{ACAD_REACTORS
330
59
102
}
330
59
100
DictionaryVariables
280
     0
  1
127
  0
XRECORD
  5
C2669
102
{ACAD_REACTORS
330
C2668
102
}
330
C2668
100
AcDbXrecord
280
     1
330
0
330
0
330
0
330
0
330
0
330
0
330
0
330
0
330
0
330
0
330
0
330
0
330
0
330
0
330
0
330
0
330
0
330
0
330
0
330
0
330
0
330
0
330
0
330
0
330
0
330
0
330
0
330
0
330
0
330
0
330
0
330
0
330
0
  0
VLO-VL
  5
A9D17
102
{ACAD_REACTORS
330
A9D16
102
}
330
A9D16
100
vlo_VL
 90
   -64512
 91
       12
 92
        1
 40
2.5
300
(&VLO-R . 0)
  0
DICTIONARY
  5
D67FB
330
22
100
AcDbDictionary
280
     1
281
     1
  3
ACAD_XREC_ROUNDTRIP
360
D67FC
  0
DICTIONARY
  5
D67FD
330
74
100
AcDbDictionary
280
     1
281
     1
  3
ACAD_XREC_ROUNDTRIP
360
D67FE
  0
DICTIONARY
  5
D67FF
330
79
100
AcDbDictionary
280
     1
281
     1
  3
ACAD_XREC_ROUNDTRIP
360
D6800
  0
DICTIONARY
  5
CED78
330
CED77
100
AcDbDictionary
280
     1
281
     1
  3
ACAD_XREC_ROUNDTRIP
360
D67E4
  3
BUMPTILE
360
CED7A
  3
DIFFUSETILE
360
CED79
  3
OPACITYTILE
360
CED7D
  3
REFLECTIONTILE
360
CED7C
  3
REFRACTIONTILE
360
CED7E
  3
SPECULARTILE
360
CED7B
  0
DICTIONARY
  5
CED70
330
CED6F
100
AcDbDictionary
280
     1
281
     1
  3
ACAD_XREC_ROUNDTRIP
360
D67E3
  3
BUMPTILE
360
CED72
  3
DIFFUSETILE
360
CED71
  3
OPACITYTILE
360
CED75
  3
REFLECTIONTILE
360
CED74
  3
REFRACTIONTILE
360
CED76
  3
SPECULARTILE
360
CED73
  0
DICTIONARY
  5
CED80
330
CED7F
100
AcDbDictionary
280
     1
281
     1
  3
ACAD_XREC_ROUNDTRIP
360
D67E5
  3
BUMPTILE
360
CED82
  3
DIFFUSETILE
360
CED81
  3
OPACITYTILE
360
CED85
  3
REFLECTIONTILE
360
CED84
  3
REFRACTIONTILE
360
CED86
  3
SPECULARTILE
360
CED83
  0
DICTIONARY
  5
D0C45
330
FB0
100
AcDbDictionary
280
     1
281
     1
  3
ACAD_ROUNDTRIP_2008_TABLESTYLE_CELLSTYLEMAP
360
D67F6
  3
ACAD_XREC_ROUNDTRIP
360
D6801
  0
XRECORD
  5
D67FC
102
{ACAD_REACTORS
330
D67FB
102
}
330
D67FB
100
AcDbXrecord
280
     1
102
SHADEPLOT
 70
     0
102
SHADEPLOTRESLEVEL
 70
     2
102
SHADEPLOTCUSTOMDPI
 70
   300
  0
XRECORD
  5
D67FE
102
{ACAD_REACTORS
330
D67FD
102
}
330
D67FD
100
AcDbXrecord
280
     1
102
SHADEPLOT
 70
     0
102
SHADEPLOTRESLEVEL
 70
     2
102
SHADEPLOTCUSTOMDPI
 70
   300
  0
XRECORD
  5
D6800
102
{ACAD_REACTORS
330
D67FF
102
}
330
D67FF
100
AcDbXrecord
280
     1
102
SHADEPLOT
 70
     0
102
SHADEPLOTRESLEVEL
 70
     2
102
SHADEPLOTCUSTOMDPI
 70
   300
  0
XRECORD
  5
D67E4
102
{ACAD_REACTORS
330
CED78
102
}
330
CED78
100
AcDbXrecord
280
     1
102
MATERIAL
148
0.0
149
0.0
149
0.0
 93
        0
 94
      127
282
     0
 72
     0
 77
     0
171
     0
175
     0
179
     0
273
     0
  0
XRECORD
  5
CED7A
102
{ACAD_REACTORS
330
CED78
102
}
330
CED78
100
AcDbXrecord
280
     1
270
     1
271
     1
  0
XRECORD
  5
CED79
102
{ACAD_REACTORS
330
CED78
102
}
330
CED78
100
AcDbXrecord
280
     1
270
     1
271
     1
  0
XRECORD
  5
CED7D
102
{ACAD_REACTORS
330
CED78
102
}
330
CED78
100
AcDbXrecord
280
     1
270
     1
271
     1
  0
XRECORD
  5
CED7C
102
{ACAD_REACTORS
330
CED78
102
}
330
CED78
100
AcDbXrecord
280
     1
270
     1
271
     1
  0
XRECORD
  5
CED7E
102
{ACAD_REACTORS
330
CED78
102
}
330
CED78
100
AcDbXrecord
280
     1
270
     1
271
     1
  0
XRECORD
  5
CED7B
102
{ACAD_REACTORS
330
CED78
102
}
330
CED78
100
AcDbXrecord
280
     1
270
     1
271
     1
  0
XRECORD
  5
D67E3
102
{ACAD_REACTORS
330
CED70
102
}
330
CED70
100
AcDbXrecord
280
     1
102
MATERIAL
148
0.0
149
0.0
149
0.0
 93
        0
 94
      127
282
     0
 72
     0
 77
     0
171
     0
175
     0
179
     0
273
     0
  0
XRECORD
  5
CED72
102
{ACAD_REACTORS
330
CED70
102
}
330
CED70
100
AcDbXrecord
280
     1
270
     1
271
     1
  0
XRECORD
  5
CED71
102
{ACAD_REACTORS
330
CED70
102
}
330
CED70
100
AcDbXrecord
280
     1
270
     1
271
     1
  0
XRECORD
  5
CED75
102
{ACAD_REACTORS
330
CED70
102
}
330
CED70
100
AcDbXrecord
280
     1
270
     1
271
     1
  0
XRECORD
  5
CED74
102
{ACAD_REACTORS
330
CED70
102
}
330
CED70
100
AcDbXrecord
280
     1
270
     1
271
     1
  0
XRECORD
  5
CED76
102
{ACAD_REACTORS
330
CED70
102
}
330
CED70
100
AcDbXrecord
280
     1
270
     1
271
     1
  0
XRECORD
  5
CED73
102
{ACAD_REACTORS
330
CED70
102
}
330
CED70
100
AcDbXrecord
280
     1
270
     1
271
     1
  0
XRECORD
  5
D67E5
102
{ACAD_REACTORS
330
CED80
102
}
330
CED80
100
AcDbXrecord
280
     1
102
MATERIAL
148
0.0
149
0.0
149
0.0
 93
        0
 94
      127
282
     0
 72
     0
 77
     0
171
     0
175
     0
179
     0
273
     0
  0
XRECORD
  5
CED82
102
{ACAD_REACTORS
330
CED80
102
}
330
CED80
100
AcDbXrecord
280
     1
270
     1
271
     1
  0
XRECORD
  5
CED81
102
{ACAD_REACTORS
330
CED80
102
}
330
CED80
100
AcDbXrecord
280
     1
270
     1
271
     1
  0
XRECORD
  5
CED85
102
{ACAD_REACTORS
330
CED80
102
}
330
CED80
100
AcDbXrecord
280
     1
270
     1
271
     1
  0
XRECORD
  5
CED84
102
{ACAD_REACTORS
330
CED80
102
}
330
CED80
100
AcDbXrecord
280
     1
270
     1
271
     1
  0
XRECORD
  5
CED86
102
{ACAD_REACTORS
330
CED80
102
}
330
CED80
100
AcDbXrecord
280
     1
270
     1
271
     1
  0
XRECORD
  5
CED83
102
{ACAD_REACTORS
330
CED80
102
}
330
CED80
100
AcDbXrecord
280
     1
270
     1
271
     1
  0
CELLSTYLEMAP
  5
D67F6
102
{ACAD_REACTORS
330
D0C45
102
}
330
D0C45
100
AcDbCellStyleMap
 90
        3
300
CELLSTYLE
  1
TABLEFORMAT_BEGIN
 90
        5
170
     1
 91
        0
 92
    32768
 62
   257
 93
        1
300
CONTENTFORMAT
  1
CONTENTFORMAT_BEGIN
 90
        0
 91
        0
 92
        4
 93
        0
300

 40
0.0
140
1.0
 94
        5
 62
     0
340
11
144
0.25
309
CONTENTFORMAT_END
171
     1
301
MARGIN
  1
CELLMARGIN_BEGIN
 40
0.06
 40
0.06
 40
0.06
 40
0.06
 40
0.18
 40
0.18
309
CELLMARGIN_END
 94
        6
 95
        1
302
GRIDFORMAT
  1
GRIDFORMAT_BEGIN
 90
        0
 91
        1
 62
     0
 92
       -2
340
0
 93
        0
 40
0.045
309
GRIDFORMAT_END
 95
        2
302
GRIDFORMAT
  1
GRIDFORMAT_BEGIN
 90
        0
 91
        1
 62
     0
 92
       -2
340
0
 93
        0
 40
0.045
309
GRIDFORMAT_END
 95
        4
302
GRIDFORMAT
  1
GRIDFORMAT_BEGIN
 90
        0
 91
        1
 62
     0
 92
       -2
340
0
 93
        0
 40
0.045
309
GRIDFORMAT_END
 95
        8
302
GRIDFORMAT
  1
GRIDFORMAT_BEGIN
 90
        0
 91
        1
 62
     0
 92
       -2
340
0
 93
        0
 40
0.045
309
GRIDFORMAT_END
 95
       16
302
GRIDFORMAT
  1
GRIDFORMAT_BEGIN
 90
        0
 91
        1
 62
     0
 92
       -2
340
0
 93
        0
 40
0.045
309
GRIDFORMAT_END
 95
       32
302
GRIDFORMAT
  1
GRIDFORMAT_BEGIN
 90
        0
 91
        1
 62
     0
 92
       -2
340
0
 93
        0
 40
0.045
309
GRIDFORMAT_END
309
TABLEFORMAT_END
  1
CELLSTYLE_BEGIN
 90
        1
 91
        1
300
_TITLE
309
CELLSTYLE_END
300
CELLSTYLE
  1
TABLEFORMAT_BEGIN
 90
        5
170
     1
 91
        0
 92
        0
 62
   257
 93
        1
300
CONTENTFORMAT
  1
CONTENTFORMAT_BEGIN
 90
        0
 91
        0
 92
        4
 93
        0
300

 40
0.0
140
1.0
 94
        5
 62
     0
340
11
144
0.18
309
CONTENTFORMAT_END
171
     1
301
MARGIN
  1
CELLMARGIN_BEGIN
 40
0.06
 40
0.06
 40
0.06
 40
0.06
 40
0.18
 40
0.18
309
CELLMARGIN_END
 94
        6
 95
        1
302
GRIDFORMAT
  1
GRIDFORMAT_BEGIN
 90
        0
 91
        1
 62
     0
 92
       -2
340
0
 93
        0
 40
0.045
309
GRIDFORMAT_END
 95
        2
302
GRIDFORMAT
  1
GRIDFORMAT_BEGIN
 90
        0
 91
        1
 62
     0
 92
       -2
340
0
 93
        0
 40
0.045
309
GRIDFORMAT_END
 95
        4
302
GRIDFORMAT
  1
GRIDFORMAT_BEGIN
 90
        0
 91
        1
 62
     0
 92
       -2
340
0
 93
        0
 40
0.045
309
GRIDFORMAT_END
 95
        8
302
GRIDFORMAT
  1
GRIDFORMAT_BEGIN
 90
        0
 91
        1
 62
     0
 92
       -2
340
0
 93
        0
 40
0.045
309
GRIDFORMAT_END
 95
       16
302
GRIDFORMAT
  1
GRIDFORMAT_BEGIN
 90
        0
 91
        1
 62
     0
 92
       -2
340
0
 93
        0
 40
0.045
309
GRIDFORMAT_END
 95
       32
302
GRIDFORMAT
  1
GRIDFORMAT_BEGIN
 90
        0
 91
        1
 62
     0
 92
       -2
340
0
 93
        0
 40
0.045
309
GRIDFORMAT_END
309
TABLEFORMAT_END
  1
CELLSTYLE_BEGIN
 90
        2
 91
        1
300
_HEADER
309
CELLSTYLE_END
300
CELLSTYLE
  1
TABLEFORMAT_BEGIN
 90
        5
170
     1
 91
        0
 92
        0
 62
   257
 93
        1
300
CONTENTFORMAT
  1
CONTENTFORMAT_BEGIN
 90
        0
 91
        0
 92
        4
 93
        0
300

 40
0.0
140
1.0
 94
        2
 62
     0
340
11
144
0.18
309
CONTENTFORMAT_END
171
     1
301
MARGIN
  1
CELLMARGIN_BEGIN
 40
0.06
 40
0.06
 40
0.06
 40
0.06
 40
0.18
 40
0.18
309
CELLMARGIN_END
 94
        6
 95
        1
302
GRIDFORMAT
  1
GRIDFORMAT_BEGIN
 90
        0
 91
        1
 62
     0
 92
       -2
340
0
 93
        0
 40
0.045
309
GRIDFORMAT_END
 95
        2
302
GRIDFORMAT
  1
GRIDFORMAT_BEGIN
 90
        0
 91
        1
 62
     0
 92
       -2
340
0
 93
        0
 40
0.045
309
GRIDFORMAT_END
 95
        4
302
GRIDFORMAT
  1
GRIDFORMAT_BEGIN
 90
        0
 91
        1
 62
     0
 92
       -2
340
0
 93
        0
 40
0.045
309
GRIDFORMAT_END
 95
        8
302
GRIDFORMAT
  1
GRIDFORMAT_BEGIN
 90
        0
 91
        1
 62
     0
 92
       -2
340
0
 93
        0
 40
0.045
309
GRIDFORMAT_END
 95
       16
302
GRIDFORMAT
  1
GRIDFORMAT_BEGIN
 90
        0
 91
        1
 62
     0
 92
       -2
340
0
 93
        0
 40
0.045
309
GRIDFORMAT_END
 95
       32
302
GRIDFORMAT
  1
GRIDFORMAT_BEGIN
 90
        0
 91
        1
 62
     0
 92
       -2
340
0
 93
        0
 40
0.045
309
GRIDFORMAT_END
309
TABLEFORMAT_END
  1
CELLSTYLE_BEGIN
 90
        3
 91
        2
300
_DATA
309
CELLSTYLE_END
  0
XRECORD
  5
D6801
102
{ACAD_REACTORS
330
D0C45
102
}
330
D0C45
100
AcDbXrecord
280
     1
102
ACAD_ROUNDTRIP_PRE2007_TABLESTYLE
 90
        4
 91
        0
  1

 92
        4
 93
        0
  2

 94
        4
 95
        0
  3

  0
ENDSEC
  0
EOF
