  0
SECTION
  2
HEADER
  9
$ACADVER
  1
AC1015
  9
$ACADMAINTVER
 70
    20
  9
$DWGCODEPAGE
  3
ANSI_936
  9
$INSBASE
 10
0.0
 20
0.0
 30
0.0
  9
$EXTMIN
 10
107401.3035631041
 20
-169648.2645200392
 30
0.0
  9
$EXTMAX
 10
108886.3035631041
 20
-168598.2645200392
 30
0.0
  9
$LIMMIN
 10
0.0
 20
0.0
  9
$LIMMAX
 10
12.0
 20
9.0
  9
$ORTHOMODE
 70
     0
  9
$REGENMODE
 70
     1
  9
$FILLMODE
 70
     1
  9
$QTEXTMODE
 70
     0
  9
$MIRRTEXT
 70
     0
  9
$LTSCALE
 40
1.0
  9
$ATTMODE
 70
     1
  9
$TEXTSIZE
 40
0.2
  9
$TRACEWID
 40
0.05
  9
$TEXTSTYLE
  7
Standard
  9
$CLAYER
  8
标注
  9
$CELTYPE
  6
ByLayer
  9
$CECOLOR
 62
   256
  9
$CELTSCALE
 40
5.0
  9
$DISPSILH
 70
     0
  9
$DIMSCALE
 40
1.0
  9
$DIMASZ
 40
10.0
  9
$DIMEXO
 40
7.0
  9
$DIMDLI
 40
0.38
  9
$DIMRND
 40
0.0
  9
$DIMDLE
 40
0.0
  9
$DIMEXE
 40
7.0
  9
$DIMTP
 40
0.0
  9
$DIMTM
 40
0.0
  9
$DIMTXT
 40
12.0
  9
$DIMCEN
 40
2.5
  9
$DIMTSZ
 40
0.0
  9
$DIMTOL
 70
     0
  9
$DIMLIM
 70
     0
  9
$DIMTIH
 70
     0
  9
$DIMTOH
 70
     0
  9
$DIMSE1
 70
     0
  9
$DIMSE2
 70
     0
  9
$DIMTAD
 70
     0
  9
$DIMZIN
 70
     8
  9
$DIMBLK
  1

  9
$DIMASO
 70
     1
  9
$DIMSHO
 70
     1
  9
$DIMPOST
  1

  9
$DIMAPOST
  1
"
  9
$DIMALT
 70
     0
  9
$DIMALTD
 70
     3
  9
$DIMALTF
 40
0.03937
  9
$DIMLFAC
 40
1.0
  9
$DIMTOFL
 70
     1
  9
$DIMTVP
 40
0.0
  9
$DIMTIX
 70
     0
  9
$DIMSOXD
 70
     0
  9
$DIMSAH
 70
     0
  9
$DIMBLK1
  1

  9
$DIMBLK2
  1

  9
$DIMSTYLE
  2
副本Standard
  9
$DIMCLRD
 70
   256
  9
$DIMCLRE
 70
   256
  9
$DIMCLRT
 70
   256
  9
$DIMTFAC
 40
1.0
  9
$DIMGAP
 40
0.5
  9
$DIMJUST
 70
     0
  9
$DIMSD1
 70
     0
  9
$DIMSD2
 70
     0
  9
$DIMTOLJ
 70
     1
  9
$DIMTZIN
 70
     0
  9
$DIMALTZ
 70
     0
  9
$DIMALTTZ
 70
     0
  9
$DIMUPT
 70
     0
  9
$DIMDEC
 70
     1
  9
$DIMTDEC
 70
     1
  9
$DIMALTU
 70
     7
  9
$DIMALTTD
 70
     3
  9
$DIMTXSTY
  7
Standard
  9
$DIMAUNIT
 70
     0
  9
$DIMADEC
 70
     0
  9
$DIMALTRND
 40
0.0
  9
$DIMAZIN
 70
     2
  9
$DIMDSEP
 70
    44
  9
$DIMATFIT
 70
     3
  9
$DIMFRAC
 70
     0
  9
$DIMLDRBLK
  1

  9
$DIMLUNIT
 70
     2
  9
$DIMLWD
 70
    -2
  9
$DIMLWE
 70
    -2
  9
$DIMTMOVE
 70
     0
  9
$LUNITS
 70
     2
  9
$LUPREC
 70
     4
  9
$SKETCHINC
 40
0.1
  9
$FILLETRAD
 40
104.0
  9
$AUNITS
 70
     0
  9
$AUPREC
 70
     0
  9
$MENU
  1
.
  9
$ELEVATION
 40
0.0
  9
$PELEVATION
 40
0.0
  9
$THICKNESS
 40
0.0
  9
$LIMCHECK
 70
     0
  9
$CHAMFERA
 40
26.6
  9
$CHAMFERB
 40
26.6
  9
$CHAMFERC
 40
0.0
  9
$CHAMFERD
 40
0.0
  9
$SKPOLY
 70
     0
  9
$TDCREATE
 40
2454355.343801713
  9
$TDUCREATE
 40
2454355.010468380
  9
$TDUPDATE
 40
2457938.598226250
  9
$TDUUPDATE
 40
2457938.264892917
  9
$TDINDWG
 40
8.8258701505
  9
$TDUSRTIMER
 40
8.8258699769
  9
$USRTIMER
 70
     1
  9
$ANGBASE
 50
0.0
  9
$ANGDIR
 70
     0
  9
$PDMODE
 70
     0
  9
$PDSIZE
 40
0.0
  9
$PLINEWID
 40
0.0
  9
$SPLFRAME
 70
     0
  9
$SPLINETYPE
 70
     6
  9
$SPLINESEGS
 70
     8
  9
$HANDSEED
  5
D5D23
  9
$SURFTAB1
 70
     6
  9
$SURFTAB2
 70
     6
  9
$SURFTYPE
 70
     6
  9
$SURFU
 70
     6
  9
$SURFV
 70
     6
  9
$UCSBASE
  2

  9
$UCSNAME
  2

  9
$UCSORG
 10
0.0
 20
0.0
 30
0.0
  9
$UCSXDIR
 10
1.0
 20
0.0
 30
0.0
  9
$UCSYDIR
 10
0.0
 20
1.0
 30
0.0
  9
$UCSORTHOREF
  2

  9
$UCSORTHOVIEW
 70
     0
  9
$UCSORGTOP
 10
0.0
 20
0.0
 30
0.0
  9
$UCSORGBOTTOM
 10
0.0
 20
0.0
 30
0.0
  9
$UCSORGLEFT
 10
0.0
 20
0.0
 30
0.0
  9
$UCSORGRIGHT
 10
0.0
 20
0.0
 30
0.0
  9
$UCSORGFRONT
 10
0.0
 20
0.0
 30
0.0
  9
$UCSORGBACK
 10
0.0
 20
0.0
 30
0.0
  9
$PUCSBASE
  2

  9
$PUCSNAME
  2

  9
$PUCSORG
 10
0.0
 20
0.0
 30
0.0
  9
$PUCSXDIR
 10
1.0
 20
0.0
 30
0.0
  9
$PUCSYDIR
 10
0.0
 20
1.0
 30
0.0
  9
$PUCSORTHOREF
  2

  9
$PUCSORTHOVIEW
 70
     0
  9
$PUCSORGTOP
 10
0.0
 20
0.0
 30
0.0
  9
$PUCSORGBOTTOM
 10
0.0
 20
0.0
 30
0.0
  9
$PUCSORGLEFT
 10
0.0
 20
0.0
 30
0.0
  9
$PUCSORGRIGHT
 10
0.0
 20
0.0
 30
0.0
  9
$PUCSORGFRONT
 10
0.0
 20
0.0
 30
0.0
  9
$PUCSORGBACK
 10
0.0
 20
0.0
 30
0.0
  9
$USERI1
 70
     0
  9
$USERI2
 70
     0
  9
$USERI3
 70
     0
  9
$USERI4
 70
     0
  9
$USERI5
 70
     0
  9
$USERR1
 40
0.0
  9
$USERR2
 40
0.0
  9
$USERR3
 40
0.0
  9
$USERR4
 40
0.0
  9
$USERR5
 40
2.5
  9
$WORLDVIEW
 70
     1
  9
$SHADEDGE
 70
     3
  9
$SHADEDIF
 70
    70
  9
$TILEMODE
 70
     1
  9
$MAXACTVP
 70
    64
  9
$PINSBASE
 10
0.0
 20
0.0
 30
0.0
  9
$PLIMCHECK
 70
     0
  9
$PEXTMIN
 10
0.0
 20
0.0
 30
0.0
  9
$PEXTMAX
 10
0.0
 20
0.0
 30
0.0
  9
$PLIMMIN
 10
0.0
 20
0.0
  9
$PLIMMAX
 10
12.0
 20
9.0
  9
$UNITMODE
 70
     0
  9
$VISRETAIN
 70
     1
  9
$PLINEGEN
 70
     0
  9
$PSLTSCALE
 70
     1
  9
$TREEDEPTH
 70
  3020
  9
$CMLSTYLE
  2
Standard
  9
$CMLJUST
 70
     0
  9
$CMLSCALE
 40
1.0
  9
$PROXYGRAPHICS
 70
     1
  9
$MEASUREMENT
 70
     0
  9
$CELWEIGHT
370
    -1
  9
$ENDCAPS
280
     0
  9
$JOINSTYLE
280
     0
  9
$LWDISPLAY
290
     0
  9
$INSUNITS
 70
     4
  9
$HYPERLINKBASE
  1

  9
$STYLESHEET
  1
MONOCHROME.CTB
  9
$XEDIT
290
     1
  9
$CEPSNTYPE
380
     0
  9
$PSTYLEMODE
290
     1
  9
$FINGERPRINTGUID
  2
{35BD88C0-9548-11D2-9A29-0060089B3A3F}
  9
$VERSIONGUID
  2
{95549047-8E33-4250-BDDF-2D95FEB2401F}
  9
$EXTNAMES
290
     1
  9
$PSVPSCALE
 40
0.0
  9
$OLESTARTUP
290
     0
  0
ENDSEC
  0
SECTION
  2
CLASSES
  0
CLASS
  1
ACDBDICTIONARYWDFLT
  2
AcDbDictionaryWithDefault
  3
ObjectDBX Classes
 90
        0
280
     0
281
     0
  0
CLASS
  1
ACDBPLACEHOLDER
  2
AcDbPlaceHolder
  3
ObjectDBX Classes
 90
        0
280
     0
281
     0
  0
CLASS
  1
LAYOUT
  2
AcDbLayout
  3
ObjectDBX Classes
 90
        0
280
     0
281
     0
  0
CLASS
  1
DICTIONARYVAR
  2
AcDbDictionaryVar
  3
ObjectDBX Classes
 90
        0
280
     0
281
     0
  0
CLASS
  1
SORTENTSTABLE
  2
AcDbSortentsTable
  3
ObjectDBX Classes
 90
        0
280
     0
281
     0
  0
CLASS
  1
DIMASSOC
  2
AcDbDimAssoc
  3
"AcDbDimAssoc|Product Desc:     AcDim ARX App For Dimension|Company:          Autodesk, Inc.|WEB Address:      www.autodesk.com"
 90
        0
280
     0
281
     0
  0
CLASS
  1
TABLESTYLE
  2
AcDbTableStyle
  3
ObjectDBX Classes
 90
     4095
280
     0
281
     0
  0
CLASS
  1
VLO-VL
  2
vlo_VL
  3
VL|AutoLISP based application
 90
      129
280
     0
281
     0
  0
CLASS
  1
MATERIAL
  2
AcDbMaterial
  3
ObjectDBX Classes
 90
     1153
280
     0
281
     0
  0
CLASS
  1
VISUALSTYLE
  2
AcDbVisualStyle
  3
ObjectDBX Classes
 90
     4095
280
     0
281
     0
  0
CLASS
  1
SCALE
  2
AcDbScale
  3
ObjectDBX Classes
 90
     1153
280
     0
281
     0
  0
CLASS
  1
MLEADERSTYLE
  2
AcDbMLeaderStyle
  3
ACDB_MLEADERSTYLE_CLASS
 90
     4095
280
     0
281
     0
  0
CLASS
  1
CELLSTYLEMAP
  2
AcDbCellStyleMap
  3
ObjectDBX Classes
 90
     1152
280
     0
281
     0
  0
ENDSEC
  0
SECTION
  2
TABLES
  0
TABLE
  2
VPORT
  5
8
330
0
100
AcDbSymbolTable
 70
     1
  0
VPORT
  5
CED6D
330
8
100
AcDbSymbolTableRecord
100
AcDbViewportTableRecord
  2
*Active
 70
     0
 10
0.0
 20
0.0
 11
1.0
 21
1.0
 12
108336.6654061305
 22
-169454.0547261096
 13
0.0
 23
0.0
 14
0.5
 24
0.5
 15
0.5
 25
0.5
 16
0.0
 26
0.0
 36
1.0
 17
0.0
 27
0.0
 37
0.0
 40
1374.389194843941
 41
2.241676942046855
 42
50.0
 43
0.0
 44
0.0
 50
0.0
 51
0.0
 71
     0
 72
  1000
 73
     1
 74
     3
 75
     0
 76
     0
 77
     0
 78
     0
281
     0
 65
     1
110
0.0
120
0.0
130
0.0
111
1.0
121
0.0
131
0.0
112
0.0
122
1.0
132
0.0
 79
     0
146
0.0
  0
ENDTAB
  0
TABLE
  2
LTYPE
  5
5
330
0
100
AcDbSymbolTable
 70
     4
  0
LTYPE
  5
14
330
5
100
AcDbSymbolTableRecord
100
AcDbLinetypeTableRecord
  2
ByBlock
 70
     0
  3

 72
    65
 73
     0
 40
0.0
  0
LTYPE
  5
15
330
5
100
AcDbSymbolTableRecord
100
AcDbLinetypeTableRecord
  2
ByLayer
 70
     0
  3

 72
    65
 73
     0
 40
0.0
  0
LTYPE
  5
16
330
5
100
AcDbSymbolTableRecord
100
AcDbLinetypeTableRecord
  2
Continuous
 70
     0
  3
Solid line
 72
    65
 73
     0
 40
0.0
  0
LTYPE
  5
98
330
5
100
AcDbSymbolTableRecord
100
AcDbLinetypeTableRecord
  2
HIDDEN2
 70
     0
  3
Hidden (.5x) _ _ _ _ _ _ _ _ _ _ _ _ _ _ _ _ _
 72
    65
 73
     2
 40
4.762499999999998
 49
3.174999999999998
 74
     0
 49
-1.587499999999999
 74
     0
  0
LTYPE
  5
D54F3
330
5
100
AcDbSymbolTableRecord
100
AcDbLinetypeTableRecord
  2
CENTERX2
 70
     0
  3
Center (2x) ________  __  ________  __  _____
 72
    65
 73
     4
 40
101.6
 49
63.5
 74
     0
 49
-12.7
 74
     0
 49
12.7
 74
     0
 49
-12.7
 74
     0
  0
LTYPE
  5
D57DB
330
5
100
AcDbSymbolTableRecord
100
AcDbLinetypeTableRecord
  2
CENTER
 70
     0
  3
Center ____ _ ____ _ ____ _ ____ _ ____ _ ____
 72
    65
 73
     4
 40
50.8
 49
31.75
 74
     0
 49
-6.349999999999998
 74
     0
 49
6.349999999999998
 74
     0
 49
-6.349999999999998
 74
     0
  0
ENDTAB
  0
TABLE
  2
LAYER
  5
2
102
{ACAD_XDICTIONARY
360
AB
102
}
330
0
100
AcDbSymbolTable
 70
     6
  0
LAYER
  5
10
102
{ACAD_XDICTIONARY
360
CF251
102
}
330
2
100
AcDbSymbolTableRecord
100
AcDbLayerTableRecord
  2
0
 70
     0
 62
     7
  6
Continuous
370
    18
390
F
  0
LAYER
  5
9D
102
{ACAD_XDICTIONARY
360
CF259
102
}
330
2
100
AcDbSymbolTableRecord
100
AcDbLayerTableRecord
  2
虚线
 70
     0
 62
     4
  6
HIDDEN2
370
     9
390
F
  0
LAYER
  5
9E
102
{ACAD_XDICTIONARY
360
CF25B
102
}
330
2
100
AcDbSymbolTableRecord
100
AcDbLayerTableRecord
  2
细实线
 70
     0
 62
     7
  6
Continuous
370
     9
390
F
  0
LAYER
  5
582
330
2
100
AcDbSymbolTableRecord
100
AcDbLayerTableRecord
  2
Defpoints
 70
     0
 62
     7
  6
Continuous
290
     0
370
     9
390
F
  0
LAYER
  5
16DF9
102
{ACAD_XDICTIONARY
360
CF25D
102
}
330
2
100
AcDbSymbolTableRecord
100
AcDbLayerTableRecord
  2
标注
 70
     0
 62
    80
  6
Continuous
370
     5
390
F
1001
AcAecLayerStandard
1000

1000

  0
LAYER
  5
D54F4
330
2
100
AcDbSymbolTableRecord
100
AcDbLayerTableRecord
  2
中心线
 70
     0
 62
   230
  6
CENTERX2
370
    -3
390
F
1001
AcAecLayerStandard
1000

1000

  0
ENDTAB
  0
TABLE
  2
STYLE
  5
3
330
0
100
AcDbSymbolTable
 70
     2
  0
STYLE
  5
11
330
3
100
AcDbSymbolTableRecord
100
AcDbTextStyleTableRecord
  2
Standard
 70
     0
 40
0.0
 41
1.0
 50
0.0
 71
     0
 42
0.2
  3
SimSun.ttf
  4

1001
ACAD
1000
SimSun
1071
    34306
  0
STYLE
  5
9D6ED
330
3
100
AcDbSymbolTableRecord
100
AcDbTextStyleTableRecord
  2
A301
 70
     0
 40
3.5
 41
0.75
 50
0.0
 71
     0
 42
0.0
  3
SimSun.ttf
  4

1001
ACAD
1000
SimSun
1071
    34306
  0
ENDTAB
  0
TABLE
  2
VIEW
  5
6
330
0
100
AcDbSymbolTable
 70
     0
  0
ENDTAB
  0
TABLE
  2
UCS
  5
7
330
0
100
AcDbSymbolTable
 70
     0
  0
ENDTAB
  0
TABLE
  2
APPID
  5
9
330
0
100
AcDbSymbolTable
 70
    17
  0
APPID
  5
12
330
9
100
AcDbSymbolTableRecord
100
AcDbRegAppTableRecord
  2
ACAD
 70
     0
  0
APPID
  5
A5
330
9
100
AcDbSymbolTableRecord
100
AcDbRegAppTableRecord
  2
AcAecLayerStandard
 70
     0
  0
APPID
  5
A6
330
9
100
AcDbSymbolTableRecord
100
AcDbRegAppTableRecord
  2
ACAD_DSTYLE_DIMEXT_LENGTH
 70
     0
  0
APPID
  5
A7
330
9
100
AcDbSymbolTableRecord
100
AcDbRegAppTableRecord
  2
ACAD_DSTYLE_DIMEXT_ENABLED
 70
     0
  0
APPID
  5
A8
330
9
100
AcDbSymbolTableRecord
100
AcDbRegAppTableRecord
  2
ACAD_DSTYLE_DIMJOGGED_JOGANGLE_SYMBOL
 70
     0
  0
APPID
  5
A9
330
9
100
AcDbSymbolTableRecord
100
AcDbRegAppTableRecord
  2
ACAD_DSTYLE_DIMARC_LENGTH_SYMBOL
 70
     0
  0
APPID
  5
AA
330
9
100
AcDbSymbolTableRecord
100
AcDbRegAppTableRecord
  2
ACAD_PSEXT
 70
     0
  0
APPID
  5
173
330
9
100
AcDbSymbolTableRecord
100
AcDbRegAppTableRecord
  2
DCO15
 70
     0
  0
APPID
  5
11D5
330
9
100
AcDbSymbolTableRecord
100
AcDbRegAppTableRecord
  2
ACAD_EXEMPT_FROM_CAD_STANDARDS
 70
     0
  0
APPID
  5
B456
330
9
100
AcDbSymbolTableRecord
100
AcDbRegAppTableRecord
  2
ACAD_DSTYLE_DIMTEXT_FILL
 70
     0
  0
APPID
  5
B459
330
9
100
AcDbSymbolTableRecord
100
AcDbRegAppTableRecord
  2
ACAD_DSTYLE_DIM_LINETYPE
 70
     0
  0
APPID
  5
B45A
330
9
100
AcDbSymbolTableRecord
100
AcDbRegAppTableRecord
  2
ACAD_DSTYLE_DIM_EXT1_LINETYPE
 70
     0
  0
APPID
  5
B45B
330
9
100
AcDbSymbolTableRecord
100
AcDbRegAppTableRecord
  2
ACAD_DSTYLE_DIM_EXT2_LINETYPE
 70
     0
  0
APPID
  5
CEDBC
330
9
100
AcDbSymbolTableRecord
100
AcDbRegAppTableRecord
  2
ACAD_MLEADERVER
 70
     0
  0
APPID
  5
CF35C
330
9
100
AcDbSymbolTableRecord
100
AcDbRegAppTableRecord
  2
ACAD_DSTYLE_DIMRADIAL_EXTENSION
 70
     0
  0
APPID
  5
CF43A
330
9
100
AcDbSymbolTableRecord
100
AcDbRegAppTableRecord
  2
ACAD_DSTYLE_DIMJAG
 70
     0
  0
APPID
  5
CF43B
330
9
100
AcDbSymbolTableRecord
100
AcDbRegAppTableRecord
  2
ACAD_DSTYLE_DIMTALN
 70
     0
  0
ENDTAB
  0
TABLE
  2
DIMSTYLE
  5
A
330
0
100
AcDbSymbolTable
 70
     5
100
AcDbDimStyleTable
 71
     2
340
3BDB5
340
27
  0
DIMSTYLE
105
27
330
A
100
AcDbSymbolTableRecord
100
AcDbDimStyleTableRecord
  2
Standard
 70
     0
 41
20.0
 42
25.0
 44
8.0
 73
     0
 74
     0
 78
     8
 79
     2
140
20.0
147
5.0
172
     1
176
     3
177
     3
178
     3
179
     1
271
     1
272
     1
278
    44
340
11
1001
ACAD_DSTYLE_DIMJOGGED_JOGANGLE_SYMBOL
1070
   384
1040
0.7853981633974483
1001
ACAD_DSTYLE_DIMEXT_LENGTH
1070
   378
1040
8.0
  0
DIMSTYLE
105
3BDB5
102
{ACAD_REACTORS
330
D5B02
330
D5B69
330
D5B92
330
D5BCA
330
D5BF2
330
D5C1B
330
D5C29
330
D56EF
330
D56F0
330
D56F3
330
D56F6
330
D56F9
330
D56FC
330
D56FF
330
D5700
330
D5703
330
D5706
102
}
330
A
100
AcDbSymbolTableRecord
100
AcDbDimStyleTableRecord
  2
副本Standard
 70
     0
  4
"
 41
16.0
 42
7.0
 44
7.0
 73
     0
 74
     0
 78
     8
 79
     2
140
20.0
141
2.5
143
0.03937
147
1.0
171
     3
172
     1
176
   256
177
   256
178
   256
179
     1
271
     1
272
     1
273
     7
274
     3
278
    44
340
11
1001
ACAD_DSTYLE_DIMJAG
1070
   388
1040
1.5
1001
ACAD_DSTYLE_DIMTALN
1070
   392
1070
     0
  0
DIMSTYLE
105
D54F5
102
{ACAD_REACTORS
330
D5AC1
330
D5AC4
330
D5AC5
102
}
330
A
100
AcDbSymbolTableRecord
100
AcDbDimStyleTableRecord
  2
mav
 70
     0
 41
12.0
 42
7.0
 43
3.75
 44
1.25
 73
     0
 74
     0
 77
     1
 78
     8
140
15.0
141
2.5
143
0.03937007874016
147
5.0
171
     3
172
     1
271
     2
272
     2
274
     3
278
    44
283
     0
284
     8
340
11
1001
ACAD_DSTYLE_DIMEXT_LENGTH
1070
   378
1040
1.25
1001
ACAD_DSTYLE_DIMJOGGED_JOGANGLE_SYMBOL
1070
   384
1040
1.570796326794896
  0
DIMSTYLE
105
D5AAE
330
A
100
AcDbSymbolTableRecord
100
AcDbDimStyleTableRecord
  2
副本 (2)Standard
 70
     0
  4
"
 41
16.0
 42
22.0
 44
8.0
 73
     0
 74
     0
 78
     8
 79
     2
140
16.0
143
0.03937
147
5.0
170
     1
171
     1
172
     1
176
     3
177
     3
178
     3
179
     1
271
     1
272
     1
274
     1
278
    44
340
11
  0
DIMSTYLE
105
D5AAF
330
A
100
AcDbSymbolTableRecord
100
AcDbDimStyleTableRecord
  2
副本 (3)Standard
 70
     0
  4
"
 41
16.0
 42
22.0
 44
8.0
 73
     0
 74
     0
 78
     8
 79
     2
140
16.0
141
0.0
143
0.03937
147
5.0
171
     3
172
     1
175
     1
176
     3
177
     3
178
     3
179
     1
271
     1
272
     1
273
     7
274
     3
278
    44
289
     1
340
11
344
D5A87
  0
ENDTAB
  0
TABLE
  2
BLOCK_RECORD
  5
1
330
0
100
AcDbSymbolTable
 70
    23
  0
BLOCK_RECORD
  5
1F
102
{ACAD_XDICTIONARY
360
118B
102
}
330
1
100
AcDbSymbolTableRecord
100
AcDbBlockTableRecord
  2
*Model_Space
340
22
  0
BLOCK_RECORD
  5
73
330
1
100
AcDbSymbolTableRecord
100
AcDbBlockTableRecord
  2
*Paper_Space
340
74
  0
BLOCK_RECORD
  5
78
330
1
100
AcDbSymbolTableRecord
100
AcDbBlockTableRecord
  2
*Paper_Space0
340
79
  0
BLOCK_RECORD
  5
D566A
330
1
100
AcDbSymbolTableRecord
100
AcDbBlockTableRecord
  2
*D1
340
0
  0
BLOCK_RECORD
  5
D5676
330
1
100
AcDbSymbolTableRecord
100
AcDbBlockTableRecord
  2
*D2
340
0
  0
BLOCK_RECORD
  5
D5684
330
1
100
AcDbSymbolTableRecord
100
AcDbBlockTableRecord
  2
*D3
340
0
  0
BLOCK_RECORD
  5
D5691
330
1
100
AcDbSymbolTableRecord
100
AcDbBlockTableRecord
  2
*D4
340
0
  0
BLOCK_RECORD
  5
D569E
330
1
100
AcDbSymbolTableRecord
100
AcDbBlockTableRecord
  2
*D5
340
0
  0
BLOCK_RECORD
  5
D56AB
330
1
100
AcDbSymbolTableRecord
100
AcDbBlockTableRecord
  2
*D6
340
0
  0
BLOCK_RECORD
  5
D56B8
330
1
100
AcDbSymbolTableRecord
100
AcDbBlockTableRecord
  2
*D7
340
0
  0
BLOCK_RECORD
  5
D56C0
330
1
100
AcDbSymbolTableRecord
100
AcDbBlockTableRecord
  2
*D8
340
0
  0
BLOCK_RECORD
  5
D56C8
330
1
100
AcDbSymbolTableRecord
100
AcDbBlockTableRecord
  2
*D9
340
0
  0
BLOCK_RECORD
  5
D56D0
330
1
100
AcDbSymbolTableRecord
100
AcDbBlockTableRecord
  2
*D10
340
0
  0
BLOCK_RECORD
  5
D56DE
102
{ACAD_XDICTIONARY
360
D5709
102
}
330
1
100
AcDbSymbolTableRecord
100
AcDbBlockTableRecord
  2
A$C585C4634
340
0
1001
ACAD
1000
DesignCenter Data
1002
{
1070
     1
1070
     4
1002
}
  0
BLOCK_RECORD
  5
D5A87
330
1
100
AcDbSymbolTableRecord
100
AcDbBlockTableRecord
  2
_None
340
0
  0
BLOCK_RECORD
  5
D5AC8
330
1
100
AcDbSymbolTableRecord
100
AcDbBlockTableRecord
  2
*D13
340
0
  0
BLOCK_RECORD
  5
D5AD6
330
1
100
AcDbSymbolTableRecord
100
AcDbBlockTableRecord
  2
*D14
340
0
  0
BLOCK_RECORD
  5
D5AEC
330
1
100
AcDbSymbolTableRecord
100
AcDbBlockTableRecord
  2
*D15
340
0
  0
BLOCK_RECORD
  5
D5B03
330
1
100
AcDbSymbolTableRecord
100
AcDbBlockTableRecord
  2
*D16
340
0
  0
BLOCK_RECORD
  5
D5B6A
330
1
100
AcDbSymbolTableRecord
100
AcDbBlockTableRecord
  2
*D17
340
0
  0
BLOCK_RECORD
  5
D5B93
330
1
100
AcDbSymbolTableRecord
100
AcDbBlockTableRecord
  2
*D18
340
0
  0
BLOCK_RECORD
  5
D5BCB
330
1
100
AcDbSymbolTableRecord
100
AcDbBlockTableRecord
  2
*D19
340
0
  0
BLOCK_RECORD
  5
D5BF3
330
1
100
AcDbSymbolTableRecord
100
AcDbBlockTableRecord
  2
*D20
340
0
  0
BLOCK_RECORD
  5
D5C1C
330
1
100
AcDbSymbolTableRecord
100
AcDbBlockTableRecord
  2
*D21
340
0
  0
BLOCK_RECORD
  5
D5C2A
330
1
100
AcDbSymbolTableRecord
100
AcDbBlockTableRecord
  2
*D22
340
0
  0
ENDTAB
  0
ENDSEC
  0
SECTION
  2
BLOCKS
  0
BLOCK
  5
20
330
1F
100
AcDbEntity
  8
0
100
AcDbBlockBegin
  2
*Model_Space
 70
     0
 10
0.0
 20
0.0
 30
0.0
  3
*Model_Space
  1

  0
ENDBLK
  5
21
330
1F
100
AcDbEntity
  8
0
100
AcDbBlockEnd
  0
BLOCK
  5
75
330
73
100
AcDbEntity
 67
     1
  8
0
100
AcDbBlockBegin
  2
*Paper_Space
 70
     0
 10
0.0
 20
0.0
 30
0.0
  3
*Paper_Space
  1

  0
ENDBLK
  5
76
330
73
100
AcDbEntity
 67
     1
  8
0
100
AcDbBlockEnd
  0
BLOCK
  5
7A
330
78
100
AcDbEntity
 67
     1
  8
0
100
AcDbBlockBegin
  2
*Paper_Space0
 70
     0
 10
0.0
 20
0.0
 30
0.0
  3
*Paper_Space0
  1

  0
ENDBLK
  5
7B
330
78
100
AcDbEntity
 67
     1
  8
0
100
AcDbBlockEnd
  0
BLOCK
  5
D566B
330
D566A
100
AcDbEntity
  8
0
 48
5.0
100
AcDbBlockBegin
  2
*D1
 70
     1
 10
0.0
 20
0.0
 30
0.0
  3
*D1
  1

  0
LINE
  5
D566C
330
D566A
100
AcDbEntity
  8
标注
 48
5.0
370
    -2
100
AcDbLine
 10
106354.1971649153
 20
-169647.6017100983
 30
0.0
 11
106354.1971649153
 21
-169657.6017100984
 31
0.0
  0
LINE
  5
D566D
330
D566A
100
AcDbEntity
  8
标注
 48
5.0
370
    -2
100
AcDbLine
 10
106354.1971649153
 20
-169623.5967038366
 30
0.0
 11
106354.1971649153
 21
-169613.5967038366
 31
0.0
  0
LINE
  5
D566E
330
D566A
100
AcDbEntity
  8
标注
 48
5.0
370
    -2
100
AcDbLine
 10
106354.1971649153
 20
-169637.6017100984
 30
0.0
 11
106354.1971649153
 21
-169633.5967038366
 31
0.0
  0
SOLID
  5
D566F
330
D566A
100
AcDbEntity
  8
标注
 48
5.0
100
AcDbTrace
 10
106352.5304982487
 20
-169647.6017100983
 30
0.0
 11
106355.863831582
 21
-169647.6017100983
 31
0.0
 12
106354.1971649153
 22
-169637.6017100984
 32
0.0
 13
106354.1971649153
 23
-169637.6017100984
 33
0.0
  0
SOLID
  5
D5670
330
D566A
100
AcDbEntity
  8
标注
 48
5.0
100
AcDbTrace
 10
106352.5304982487
 20
-169623.5967038366
 30
0.0
 11
106355.863831582
 21
-169623.5967038366
 31
0.0
 12
106354.1971649153
 22
-169633.5967038366
 32
0.0
 13
106354.1971649153
 23
-169633.5967038366
 33
0.0
  0
MTEXT
  5
D5671
330
D566A
100
AcDbEntity
  8
标注
 48
5.0
100
AcDbMText
 10
106354.1971649153
 20
-169609.4300371699
 30
0.0
 40
12.0
 41
0.0
 71
     5
 72
     1
  1
\A1;4
 11
0.0000000000000001
 21
1.0
 31
0.0
 73
     1
 44
1.0
1001
ACAD
1000
MTEXTBEGIN
1070
    73
1070
     1
1070
    44
1040
1.0
1070
    74
1070
     0
1000
MTEXTEND
  0
POINT
  5
D5672
330
D566A
100
AcDbEntity
  8
Defpoints
 62
     0
 48
5.0
100
AcDbPoint
 10
106354.1971649153
 20
-169637.6017100984
 30
0.0
  0
POINT
  5
D5673
330
D566A
100
AcDbEntity
  8
Defpoints
 62
     0
 48
5.0
100
AcDbPoint
 10
106354.1971649153
 20
-169633.5967038366
 30
0.0
  0
POINT
  5
D5674
330
D566A
100
AcDbEntity
  8
Defpoints
 62
     0
 48
5.0
100
AcDbPoint
 10
106354.1971649153
 20
-169633.5967038366
 30
0.0
  0
ENDBLK
  5
D5675
330
D566A
100
AcDbEntity
  8
0
 48
5.0
100
AcDbBlockEnd
  0
BLOCK
  5
D5677
330
D5676
100
AcDbEntity
  8
0
 48
5.0
100
AcDbBlockBegin
  2
*D2
 70
     1
 10
0.0
 20
0.0
 30
0.0
  3
*D2
  1

  0
LINE
  5
D5678
330
D5676
100
AcDbEntity
  8
标注
 48
5.0
370
    -2
100
AcDbLine
 10
106244.7129454424
 20
-169324.4974895118
 30
0.0
 11
106244.7129454424
 21
-169324.2672542177
 31
0.0
  0
LINE
  5
D5679
330
D5676
100
AcDbEntity
  8
标注
 48
5.0
370
    -2
100
AcDbLine
 10
106240.7063028964
 20
-169324.4974895118
 30
0.0
 11
106240.7063028964
 21
-169324.2672542177
 31
0.0
  0
LINE
  5
D567A
330
D5676
100
AcDbEntity
  8
标注
 48
5.0
370
    -2
100
AcDbLine
 10
106254.7129454424
 20
-169331.2672542177
 30
0.0
 11
106264.7129454424
 21
-169331.2672542177
 31
0.0
  0
LINE
  5
D567B
330
D5676
100
AcDbEntity
  8
标注
 48
5.0
370
    -2
100
AcDbLine
 10
106230.7063028964
 20
-169331.2672542177
 30
0.0
 11
106220.7063028964
 21
-169331.2672542177
 31
0.0
  0
LINE
  5
D567C
330
D5676
100
AcDbEntity
  8
标注
 48
5.0
370
    -2
100
AcDbLine
 10
106244.7129454424
 20
-169331.2672542177
 30
0.0
 11
106240.7063028964
 21
-169331.2672542177
 31
0.0
  0
SOLID
  5
D567D
330
D5676
100
AcDbEntity
  8
标注
 48
5.0
100
AcDbTrace
 10
106254.7129454424
 20
-169329.600587551
 30
0.0
 11
106254.7129454424
 21
-169332.9339208843
 31
0.0
 12
106244.7129454424
 22
-169331.2672542177
 32
0.0
 13
106244.7129454424
 23
-169331.2672542177
 33
0.0
  0
SOLID
  5
D567E
330
D5676
100
AcDbEntity
  8
标注
 48
5.0
100
AcDbTrace
 10
106230.7063028964
 20
-169329.600587551
 30
0.0
 11
106230.7063028964
 21
-169332.9339208843
 31
0.0
 12
106240.7063028964
 22
-169331.2672542177
 32
0.0
 13
106240.7063028964
 23
-169331.2672542177
 33
0.0
  0
MTEXT
  5
D567F
330
D5676
100
AcDbEntity
  8
标注
 48
5.0
100
AcDbMText
 10
106216.5396362297
 20
-169331.2672542177
 30
0.0
 40
12.0
 41
0.0
 71
     5
 72
     1
  1
\A1;4
 73
     1
 44
1.0
1001
ACAD
1000
MTEXTBEGIN
1070
    73
1070
     1
1070
    44
1040
1.0
1070
    74
1070
     0
1000
MTEXTEND
  0
POINT
  5
D5680
330
D5676
100
AcDbEntity
  8
Defpoints
 62
     0
 48
5.0
100
AcDbPoint
 10
106244.7129454424
 20
-169331.4974895118
 30
0.0
  0
POINT
  5
D5681
330
D5676
100
AcDbEntity
  8
Defpoints
 62
     0
 48
5.0
100
AcDbPoint
 10
106240.7063028964
 20
-169331.4974895117
 30
0.0
  0
POINT
  5
D5682
330
D5676
100
AcDbEntity
  8
Defpoints
 62
     0
 48
5.0
100
AcDbPoint
 10
106240.7063028964
 20
-169331.2672542177
 30
0.0
  0
ENDBLK
  5
D5683
330
D5676
100
AcDbEntity
  8
0
 48
5.0
100
AcDbBlockEnd
  0
BLOCK
  5
D5685
330
D5684
100
AcDbEntity
  8
0
 48
5.0
100
AcDbBlockBegin
  2
*D3
 70
     1
 10
0.0
 20
0.0
 30
0.0
  3
*D3
  1

  0
LINE
  5
D5686
330
D5684
100
AcDbEntity
  8
标注
 48
5.0
370
    -2
100
AcDbLine
 10
106786.7655588371
 20
-169442.1033718647
 30
0.0
 11
106786.7655588371
 21
-169677.0007824764
 31
0.0
  0
LINE
  5
D5687
330
D5684
100
AcDbEntity
  8
标注
 48
5.0
370
    -2
100
AcDbLine
 10
106241.7287553734
 20
-169442.1033718647
 30
0.0
 11
106241.7287553734
 21
-169677.0007824764
 31
0.0
  0
LINE
  5
D5688
330
D5684
100
AcDbEntity
  8
标注
 48
5.0
370
    -2
100
AcDbLine
 10
106776.7655588371
 20
-169670.0007824764
 30
0.0
 11
106526.5138237719
 21
-169670.0007824764
 31
0.0
  0
LINE
  5
D5689
330
D5684
100
AcDbEntity
  8
标注
 48
5.0
370
    -2
100
AcDbLine
 10
106251.7287553734
 20
-169670.0007824764
 30
0.0
 11
106501.9804904386
 21
-169670.0007824764
 31
0.0
  0
SOLID
  5
D568A
330
D5684
100
AcDbEntity
  8
标注
 48
5.0
100
AcDbTrace
 10
106776.7655588371
 20
-169668.3341158098
 30
0.0
 11
106776.7655588371
 21
-169671.6674491431
 31
0.0
 12
106786.7655588371
 22
-169670.0007824764
 32
0.0
 13
106786.7655588371
 23
-169670.0007824764
 33
0.0
  0
SOLID
  5
D568B
330
D5684
100
AcDbEntity
  8
标注
 48
5.0
100
AcDbTrace
 10
106251.7287553734
 20
-169668.3341158098
 30
0.0
 11
106251.7287553734
 21
-169671.6674491431
 31
0.0
 12
106241.7287553734
 22
-169670.0007824764
 32
0.0
 13
106241.7287553734
 23
-169670.0007824764
 33
0.0
  0
MTEXT
  5
D568C
330
D5684
100
AcDbEntity
  8
标注
 48
5.0
100
AcDbMText
 10
106514.2471571053
 20
-169670.0007824764
 30
0.0
 40
12.0
 41
0.0
 71
     5
 72
     1
  1
\A1;545
 73
     1
 44
1.0
1001
ACAD
1000
MTEXTBEGIN
1070
    73
1070
     1
1070
    44
1040
1.0
1070
    74
1070
     0
1000
MTEXTEND
  0
POINT
  5
D568D
330
D5684
100
AcDbEntity
  8
Defpoints
 62
     0
 48
5.0
100
AcDbPoint
 10
106786.7655588371
 20
-169435.1033718647
 30
0.0
  0
POINT
  5
D568E
330
D5684
100
AcDbEntity
  8
Defpoints
 62
     0
 48
5.0
100
AcDbPoint
 10
106241.7287553734
 20
-169435.1033718647
 30
0.0
  0
POINT
  5
D568F
330
D5684
100
AcDbEntity
  8
Defpoints
 62
     0
 48
5.0
100
AcDbPoint
 10
106241.7287553734
 20
-169670.0007824764
 30
0.0
  0
ENDBLK
  5
D5690
330
D5684
100
AcDbEntity
  8
0
 48
5.0
100
AcDbBlockEnd
  0
BLOCK
  5
D5692
330
D5691
100
AcDbEntity
  8
0
 48
5.0
100
AcDbBlockBegin
  2
*D4
 70
     1
 10
0.0
 20
0.0
 30
0.0
  3
*D4
  1

  0
LINE
  5
D5693
330
D5691
100
AcDbEntity
  8
标注
 48
5.0
370
    -2
100
AcDbLine
 10
106790.7655588371
 20
-169442.1033718647
 30
0.0
 11
106790.7655588371
 21
-169702.7834330795
 31
0.0
  0
LINE
  5
D5694
330
D5691
100
AcDbEntity
  8
标注
 48
5.0
370
    -2
100
AcDbLine
 10
106237.7287553734
 20
-169442.1033718647
 30
0.0
 11
106237.7287553734
 21
-169702.7834330795
 31
0.0
  0
LINE
  5
D5695
330
D5691
100
AcDbEntity
  8
标注
 48
5.0
370
    -2
100
AcDbLine
 10
106780.7655588371
 20
-169695.7834330795
 30
0.0
 11
106526.5138237719
 21
-169695.7834330795
 31
0.0
  0
LINE
  5
D5696
330
D5691
100
AcDbEntity
  8
标注
 48
5.0
370
    -2
100
AcDbLine
 10
106247.7287553734
 20
-169695.7834330795
 30
0.0
 11
106501.9804904386
 21
-169695.7834330795
 31
0.0
  0
SOLID
  5
D5697
330
D5691
100
AcDbEntity
  8
标注
 48
5.0
100
AcDbTrace
 10
106780.7655588371
 20
-169694.1167664128
 30
0.0
 11
106780.7655588371
 21
-169697.4500997461
 31
0.0
 12
106790.7655588371
 22
-169695.7834330795
 32
0.0
 13
106790.7655588371
 23
-169695.7834330795
 33
0.0
  0
SOLID
  5
D5698
330
D5691
100
AcDbEntity
  8
标注
 48
5.0
100
AcDbTrace
 10
106247.7287553734
 20
-169694.1167664128
 30
0.0
 11
106247.7287553734
 21
-169697.4500997461
 31
0.0
 12
106237.7287553734
 22
-169695.7834330795
 32
0.0
 13
106237.7287553734
 23
-169695.7834330795
 33
0.0
  0
MTEXT
  5
D5699
330
D5691
100
AcDbEntity
  8
标注
 48
5.0
100
AcDbMText
 10
106514.2471571053
 20
-169695.7834330795
 30
0.0
 40
12.0
 41
0.0
 71
     5
 72
     1
  1
\A1;553
 73
     1
 44
1.0
1001
ACAD
1000
MTEXTBEGIN
1070
    73
1070
     1
1070
    44
1040
1.0
1070
    74
1070
     0
1000
MTEXTEND
  0
POINT
  5
D569A
330
D5691
100
AcDbEntity
  8
Defpoints
 62
     0
 48
5.0
100
AcDbPoint
 10
106790.7655588371
 20
-169435.1033718647
 30
0.0
  0
POINT
  5
D569B
330
D5691
100
AcDbEntity
  8
Defpoints
 62
     0
 48
5.0
100
AcDbPoint
 10
106237.7287553734
 20
-169435.1033718647
 30
0.0
  0
POINT
  5
D569C
330
D5691
100
AcDbEntity
  8
Defpoints
 62
     0
 48
5.0
100
AcDbPoint
 10
106237.7287553734
 20
-169695.7834330795
 30
0.0
  0
ENDBLK
  5
D569D
330
D5691
100
AcDbEntity
  8
0
 48
5.0
100
AcDbBlockEnd
  0
BLOCK
  5
D569F
330
D569E
100
AcDbEntity
  8
0
 48
5.0
100
AcDbBlockBegin
  2
*D5
 70
     1
 10
0.0
 20
0.0
 30
0.0
  3
*D5
  1

  0
LINE
  5
D56A0
330
D569E
100
AcDbEntity
  8
标注
 48
5.0
370
    -2
100
AcDbLine
 10
106521.2471571053
 20
-169637.6017100984
 30
0.0
 11
106829.8369756758
 21
-169637.6017100984
 31
0.0
  0
LINE
  5
D56A1
330
D569E
100
AcDbEntity
  8
标注
 48
5.0
370
    -2
100
AcDbLine
 10
106521.2471571053
 20
-169232.6050336311
 30
0.0
 11
106829.8369756758
 21
-169232.6050336311
 31
0.0
  0
LINE
  5
D56A2
330
D569E
100
AcDbEntity
  8
标注
 48
5.0
370
    -2
100
AcDbLine
 10
106822.8369756758
 20
-169627.6017100984
 30
0.0
 11
106822.8369756758
 21
-169447.5700385314
 31
0.0
  0
LINE
  5
D56A3
330
D569E
100
AcDbEntity
  8
标注
 48
5.0
370
    -2
100
AcDbLine
 10
106822.8369756758
 20
-169242.6050336311
 30
0.0
 11
106822.8369756758
 21
-169422.6367051981
 31
0.0
  0
SOLID
  5
D56A4
330
D569E
100
AcDbEntity
  8
标注
 48
5.0
100
AcDbTrace
 10
106821.1703090091
 20
-169627.6017100984
 30
0.0
 11
106824.5036423425
 21
-169627.6017100984
 31
0.0
 12
106822.8369756758
 22
-169637.6017100984
 32
0.0
 13
106822.8369756758
 23
-169637.6017100984
 33
0.0
  0
SOLID
  5
D56A5
330
D569E
100
AcDbEntity
  8
标注
 48
5.0
100
AcDbTrace
 10
106821.1703090091
 20
-169242.6050336311
 30
0.0
 11
106824.5036423425
 21
-169242.6050336311
 31
0.0
 12
106822.8369756758
 22
-169232.6050336311
 32
0.0
 13
106822.8369756758
 23
-169232.6050336311
 33
0.0
  0
MTEXT
  5
D56A6
330
D569E
100
AcDbEntity
  8
标注
 48
5.0
100
AcDbMText
 10
106822.8369756758
 20
-169435.1033718647
 30
0.0
 40
12.0
 41
0.0
 71
     5
 72
     1
  1
\A1;405
 11
0.0000000000000001
 21
1.0
 31
0.0
 73
     1
 44
1.0
1001
ACAD
1000
MTEXTBEGIN
1070
    73
1070
     1
1070
    44
1040
1.0
1070
    74
1070
     0
1000
MTEXTEND
  0
POINT
  5
D56A7
330
D569E
100
AcDbEntity
  8
Defpoints
 62
     0
 48
5.0
100
AcDbPoint
 10
106514.2471571053
 20
-169637.6017100984
 30
0.0
  0
POINT
  5
D56A8
330
D569E
100
AcDbEntity
  8
Defpoints
 62
     0
 48
5.0
100
AcDbPoint
 10
106514.2471571053
 20
-169232.6050336311
 30
0.0
  0
POINT
  5
D56A9
330
D569E
100
AcDbEntity
  8
Defpoints
 62
     0
 48
5.0
100
AcDbPoint
 10
106822.8369756758
 20
-169232.6050336311
 30
0.0
  0
ENDBLK
  5
D56AA
330
D569E
100
AcDbEntity
  8
0
 48
5.0
100
AcDbBlockEnd
  0
BLOCK
  5
D56AC
330
D56AB
100
AcDbEntity
  8
0
 48
5.0
100
AcDbBlockBegin
  2
*D6
 70
     1
 10
0.0
 20
0.0
 30
0.0
  3
*D6
  1

  0
LINE
  5
D56AD
330
D56AB
100
AcDbEntity
  8
标注
 48
5.0
370
    -2
100
AcDbLine
 10
106521.2471571053
 20
-169228.6050336311
 30
0.0
 11
106852.8823770132
 21
-169228.6050336311
 31
0.0
  0
LINE
  5
D56AE
330
D56AB
100
AcDbEntity
  8
标注
 48
5.0
370
    -2
100
AcDbLine
 10
106521.2471571053
 20
-169641.6017100984
 30
0.0
 11
106852.8823770132
 21
-169641.6017100984
 31
0.0
  0
LINE
  5
D56AF
330
D56AB
100
AcDbEntity
  8
标注
 48
5.0
370
    -2
100
AcDbLine
 10
106845.8823770132
 20
-169238.6050336311
 30
0.0
 11
106845.8823770132
 21
-169422.6367051981
 31
0.0
  0
LINE
  5
D56B0
330
D56AB
100
AcDbEntity
  8
标注
 48
5.0
370
    -2
100
AcDbLine
 10
106845.8823770132
 20
-169631.6017100983
 30
0.0
 11
106845.8823770132
 21
-169447.5700385314
 31
0.0
  0
SOLID
  5
D56B1
330
D56AB
100
AcDbEntity
  8
标注
 48
5.0
100
AcDbTrace
 10
106844.2157103465
 20
-169238.6050336311
 30
0.0
 11
106847.5490436799
 21
-169238.6050336311
 31
0.0
 12
106845.8823770132
 22
-169228.6050336311
 32
0.0
 13
106845.8823770132
 23
-169228.6050336311
 33
0.0
  0
SOLID
  5
D56B2
330
D56AB
100
AcDbEntity
  8
标注
 48
5.0
100
AcDbTrace
 10
106844.2157103465
 20
-169631.6017100983
 30
0.0
 11
106847.5490436799
 21
-169631.6017100983
 31
0.0
 12
106845.8823770132
 22
-169641.6017100984
 32
0.0
 13
106845.8823770132
 23
-169641.6017100984
 33
0.0
  0
MTEXT
  5
D56B3
330
D56AB
100
AcDbEntity
  8
标注
 48
5.0
100
AcDbMText
 10
106845.8823770132
 20
-169435.1033718647
 30
0.0
 40
12.0
 41
0.0
 71
     5
 72
     1
  1
\A1;413
 11
0.0000000000000001
 21
1.0
 31
0.0
 73
     1
 44
1.0
1001
ACAD
1000
MTEXTBEGIN
1070
    73
1070
     1
1070
    44
1040
1.0
1070
    74
1070
     0
1000
MTEXTEND
  0
POINT
  5
D56B4
330
D56AB
100
AcDbEntity
  8
Defpoints
 62
     0
 48
5.0
100
AcDbPoint
 10
106514.2471571053
 20
-169228.6050336311
 30
0.0
  0
POINT
  5
D56B5
330
D56AB
100
AcDbEntity
  8
Defpoints
 62
     0
 48
5.0
100
AcDbPoint
 10
106514.2471571053
 20
-169641.6017100984
 30
0.0
  0
POINT
  5
D56B6
330
D56AB
100
AcDbEntity
  8
Defpoints
 62
     0
 48
5.0
100
AcDbPoint
 10
106845.8823770132
 20
-169641.6017100984
 30
0.0
  0
ENDBLK
  5
D56B7
330
D56AB
100
AcDbEntity
  8
0
 48
5.0
100
AcDbBlockEnd
  0
BLOCK
  5
D56B9
330
D56B8
100
AcDbEntity
  8
0
 48
5.0
100
AcDbBlockBegin
  2
*D7
 70
     1
 10
0.0
 20
0.0
 30
0.0
  3
*D7
  1

  0
LINE
  5
D56BA
330
D56B8
100
AcDbEntity
  8
标注
 48
5.0
370
    -2
100
AcDbLine
 10
106293.2873150446
 20
-169289.2041880754
 30
0.0
 11
106278.8843871173
 21
-169275.7033869948
 31
0.0
  0
MTEXT
  5
D56BB
330
D56B8
100
AcDbEntity
  8
标注
 48
5.0
100
AcDbMText
 10
106311.7944883635
 20
-169306.5521652924
 30
0.0
 40
12.0
 41
0.0
 71
     5
 72
     1
  1
\A1;4-R100
 11
0.7295863332008348
 21
-0.6838887207774089
 31
0.0
 73
     1
 44
1.0
1001
ACAD
1000
MTEXTBEGIN
1070
    73
1070
     1
1070
    44
1040
1.0
1070
    74
1070
     0
1000
MTEXTEND
  0
SOLID
  5
D56BC
330
D56B8
100
AcDbEntity
  8
标注
 48
5.0
100
AcDbTrace
 10
106280.0242016519
 20
-169274.4874097727
 30
0.0
 11
106277.7445725826
 21
-169276.9193642168
 31
0.0
 12
106271.5885237852
 22
-169268.864499787
 32
0.0
 13
106271.5885237852
 23
-169268.864499787
 33
0.0
  0
POINT
  5
D56BD
330
D56B8
100
AcDbEntity
  8
Defpoints
 62
     0
 48
5.0
100
AcDbPoint
 10
106271.5885237852
 20
-169268.864499787
 30
0.0
  0
POINT
  5
D56BE
330
D56B8
100
AcDbEntity
  8
Defpoints
 62
     0
 48
5.0
100
AcDbPoint
 10
106344.5471571053
 20
-169337.2533718647
 30
0.0
  0
ENDBLK
  5
D56BF
330
D56B8
100
AcDbEntity
  8
0
 48
5.0
100
AcDbBlockEnd
  0
BLOCK
  5
D56C1
330
D56C0
100
AcDbEntity
  8
0
 48
5.0
100
AcDbBlockBegin
  2
*D8
 70
     1
 10
0.0
 20
0.0
 30
0.0
  3
*D8
  1

  0
LINE
  5
D56C2
330
D56C0
100
AcDbEntity
  8
标注
 48
5.0
370
    -2
100
AcDbLine
 10
106445.9196850078
 20
-169253.3391818099
 30
0.0
 11
106445.7048187433
 21
-169243.3414904519
 31
0.0
  0
MTEXT
  5
D56C3
330
D56C0
100
AcDbEntity
  8
标注
 48
5.0
100
AcDbMText
 10
106446.3737690467
 20
-169274.467636213
 30
0.0
 40
12.0
 41
0.0
 71
     5
 72
     1
  1
\A1;R3200
 11
0.0214866264457718
 21
-0.999769135792849
 31
0.0
 73
     1
 44
1.0
1001
ACAD
1000
MTEXTBEGIN
1070
    73
1070
     1
1070
    44
1040
1.0
1070
    74
1070
     0
1000
MTEXTEND
  0
SOLID
  5
D56C4
330
D56C0
100
AcDbEntity
  8
标注
 48
5.0
100
AcDbTrace
 10
106447.3711006363
 20
-169243.3056794078
 30
0.0
 11
106444.0385368503
 21
-169243.377301496
 31
0.0
 12
106445.4899524788
 22
-169233.343799094
 32
0.0
 13
106445.4899524788
 23
-169233.343799094
 33
0.0
  0
POINT
  5
D56C5
330
D56C0
100
AcDbEntity
  8
Defpoints
 62
     0
 48
5.0
100
AcDbPoint
 10
106445.4899524788
 20
-169233.343799094
 30
0.0
  0
POINT
  5
D56C6
330
D56C0
100
AcDbEntity
  8
Defpoints
 62
     0
 48
5.0
100
AcDbPoint
 10
106514.2471571053
 20
-172432.605033631
 30
0.0
  0
ENDBLK
  5
D56C7
330
D56C0
100
AcDbEntity
  8
0
 48
5.0
100
AcDbBlockEnd
  0
BLOCK
  5
D56C9
330
D56C8
100
AcDbEntity
  8
0
 48
5.0
100
AcDbBlockBegin
  2
*D9
 70
     1
 10
0.0
 20
0.0
 30
0.0
  3
*D9
  1

  0
LINE
  5
D56CA
330
D56C8
100
AcDbEntity
  8
标注
 48
5.0
370
    -2
100
AcDbLine
 10
106262.2744007538
 20
-169391.0329756198
 30
0.0
 11
106252.2774661772
 21
-169390.785389124
 31
0.0
  0
MTEXT
  5
D56CB
330
D56C8
100
AcDbEntity
  8
标注
 48
5.0
100
AcDbMText
 10
106283.4012558255
 20
-169391.5562084141
 30
0.0
 40
12.0
 41
0.0
 71
     5
 72
     1
  1
\A1;R1800
 11
0.9996934576514869
 21
-0.0247586495757508
 31
0.0
 73
     1
 44
1.0
1001
ACAD
1000
MTEXTBEGIN
1070
    73
1070
     1
1070
    44
1040
1.0
1070
    74
1070
     0
1000
MTEXTEND
  0
SOLID
  5
D56CC
330
D56C8
100
AcDbEntity
  8
标注
 48
5.0
100
AcDbTrace
 10
106252.3187305932
 20
-169389.1192333613
 30
0.0
 11
106252.2362017613
 21
-169392.4515448868
 31
0.0
 12
106242.2805316007
 22
-169390.5378026283
 32
0.0
 13
106242.2805316007
 23
-169390.5378026283
 33
0.0
  0
POINT
  5
D56CD
330
D56C8
100
AcDbEntity
  8
Defpoints
 62
     0
 48
5.0
100
AcDbPoint
 10
106242.2805316007
 20
-169390.5378026283
 30
0.0
  0
POINT
  5
D56CE
330
D56C8
100
AcDbEntity
  8
Defpoints
 62
     0
 48
5.0
100
AcDbPoint
 10
108041.7287553733
 20
-169435.1033718646
 30
0.0
  0
ENDBLK
  5
D56CF
330
D56C8
100
AcDbEntity
  8
0
 48
5.0
100
AcDbBlockEnd
  0
BLOCK
  5
D56D1
330
D56D0
100
AcDbEntity
  8
0
 48
5.0
100
AcDbBlockBegin
  2
*D10
 70
     1
 10
0.0
 20
0.0
 30
0.0
  3
*D10
  1

  0
LINE
  5
D56D2
330
D56D0
100
AcDbEntity
  8
标注
 48
5.0
370
    -2
100
AcDbLine
 10
106787.7747372346
 20
-169324.2672542173
 30
0.0
 11
106787.7747372346
 21
-169324.2657070898
 31
0.0
  0
LINE
  5
D56D3
330
D56D0
100
AcDbEntity
  8
标注
 48
5.0
370
    -2
100
AcDbLine
 10
106783.7813687681
 20
-169324.4974895115
 30
0.0
 11
106783.7813687681
 21
-169324.2657070898
 31
0.0
  0
LINE
  5
D56D4
330
D56D0
100
AcDbEntity
  8
标注
 48
5.0
370
    -2
100
AcDbLine
 10
106797.7747372346
 20
-169331.2657070898
 30
0.0
 11
106807.7747372346
 21
-169331.2657070898
 31
0.0
  0
LINE
  5
D56D5
330
D56D0
100
AcDbEntity
  8
标注
 48
5.0
370
    -2
100
AcDbLine
 10
106773.7813687681
 20
-169331.2657070898
 30
0.0
 11
106763.7813687681
 21
-169331.2657070898
 31
0.0
  0
LINE
  5
D56D6
330
D56D0
100
AcDbEntity
  8
标注
 48
5.0
370
    -2
100
AcDbLine
 10
106787.7747372346
 20
-169331.2657070898
 30
0.0
 11
106783.7813687681
 21
-169331.2657070898
 31
0.0
  0
SOLID
  5
D56D7
330
D56D0
100
AcDbEntity
  8
标注
 48
5.0
100
AcDbTrace
 10
106797.7747372346
 20
-169329.5990404231
 30
0.0
 11
106797.7747372346
 21
-169332.9323737565
 31
0.0
 12
106787.7747372346
 22
-169331.2657070898
 32
0.0
 13
106787.7747372346
 23
-169331.2657070898
 33
0.0
  0
SOLID
  5
D56D8
330
D56D0
100
AcDbEntity
  8
标注
 48
5.0
100
AcDbTrace
 10
106773.7813687681
 20
-169329.5990404231
 30
0.0
 11
106773.7813687681
 21
-169332.9323737565
 31
0.0
 12
106783.7813687681
 22
-169331.2657070898
 32
0.0
 13
106783.7813687681
 23
-169331.2657070898
 33
0.0
  0
MTEXT
  5
D56D9
330
D56D0
100
AcDbEntity
  8
标注
 48
5.0
100
AcDbMText
 10
106759.6147021014
 20
-169331.2657070898
 30
0.0
 40
12.0
 41
0.0
 71
     5
 72
     1
  1
\A1;4
 73
     1
 44
1.0
1001
ACAD
1000
MTEXTBEGIN
1070
    73
1070
     1
1070
    44
1040
1.0
1070
    74
1070
     0
1000
MTEXTEND
  0
POINT
  5
D56DA
330
D56D0
100
AcDbEntity
  8
Defpoints
 62
     0
 48
5.0
100
AcDbPoint
 10
106787.7747372346
 20
-169331.2672542173
 30
0.0
  0
POINT
  5
D56DB
330
D56D0
100
AcDbEntity
  8
Defpoints
 62
     0
 48
5.0
100
AcDbPoint
 10
106783.7813687681
 20
-169331.4974895114
 30
0.0
  0
POINT
  5
D56DC
330
D56D0
100
AcDbEntity
  8
Defpoints
 62
     0
 48
5.0
100
AcDbPoint
 10
106783.7813687681
 20
-169331.2657070898
 30
0.0
  0
ENDBLK
  5
D56DD
330
D56D0
100
AcDbEntity
  8
0
 48
5.0
100
AcDbBlockEnd
  0
BLOCK
  5
D570B
330
D56DE
100
AcDbEntity
  8
0
 48
5.0
100
AcDbBlockBegin
  2
A$C585C4634
 70
     0
 10
0.0
 20
0.0
 30
0.0
  3
A$C585C4634
  1

  0
ARC
  5
D56DF
102
{ACAD_REACTORS
330
D56F2
102
}
330
D56DE
100
AcDbEntity
  8
虚线
 48
5.0
100
AcDbCircle
 10
132.4448603127384
 20
3095.351660968912
 30
0.0
 40
100.0
100
AcDbArc
 50
93.13805048700926
 51
176.7002986301152
  0
ARC
  5
D56E0
102
{ACAD_REACTORS
330
D56F2
102
}
330
D56DE
100
AcDbEntity
  8
细实线
 48
5.0
100
AcDbCircle
 10
132.4448603127384
 20
3095.351660968912
 30
0.0
 40
104.0
100
AcDbArc
 50
93.13805048700926
 51
176.7002986301152
  0
ARC
  5
D56E1
330
D56DE
100
AcDbEntity
  8
虚线
 48
5.0
100
AcDbCircle
 10
132.4448603127384
 20
2899.651660968899
 30
0.0
 40
100.0
100
AcDbArc
 50
183.2997013698846
 51
266.8619495129907
  0
ARC
  5
D56E2
330
D56DE
100
AcDbEntity
  8
细实线
 48
5.0
100
AcDbCircle
 10
132.4448603127384
 20
2899.651660968899
 30
0.0
 40
104.0
100
AcDbArc
 50
183.2997013698846
 51
266.8619495129907
  0
ARC
  5
D56E3
330
D56DE
100
AcDbEntity
  8
虚线
 48
5.0
100
AcDbCircle
 10
471.8448603127326
 20
2899.651660968899
 30
0.0
 40
100.0
100
AcDbArc
 50
273.1380504870092
 51
356.7002986301152
  0
ARC
  5
D56E4
330
D56DE
100
AcDbEntity
  8
细实线
 48
5.0
100
AcDbCircle
 10
471.8448603127326
 20
2899.651660968899
 30
0.0
 40
104.0
100
AcDbArc
 50
273.1380504870092
 51
356.7002986301152
  0
ARC
  5
D56E5
330
D56DE
100
AcDbEntity
  8
虚线
 48
5.0
100
AcDbCircle
 10
471.8448603127326
 20
3095.351660968912
 30
0.0
 40
100.0
100
AcDbArc
 50
3.299701369884734
 51
86.86194951299075
  0
ARC
  5
D56E6
330
D56DE
100
AcDbEntity
  8
细实线
 48
5.0
100
AcDbCircle
 10
471.8448603127326
 20
3095.351660968912
 30
0.0
 40
104.0
100
AcDbArc
 50
3.299701369884734
 51
86.86194951299075
  0
ARC
  5
D56E7
102
{ACAD_REACTORS
330
D56FB
330
D5702
102
}
330
D56DE
100
AcDbEntity
  8
虚线
 48
5.0
100
AcDbCircle
 10
302.1448603127355
 20
-0.0000007974740583
 30
0.0
 40
3200.0
100
AcDbArc
 50
86.86194951299075
 51
93.13805048700926
  0
ARC
  5
D56E8
102
{ACAD_REACTORS
330
D56FE
102
}
330
D56DE
100
AcDbEntity
  8
细实线
 48
5.0
100
AcDbCircle
 10
302.1448603127355
 20
-0.0000007974740583
 30
0.0
 40
3204.0
100
AcDbArc
 50
86.86194951299075
 51
93.13805048700926
  0
ARC
  5
D56E9
102
{ACAD_REACTORS
330
D56F2
330
D56F5
330
D5705
102
}
330
D56DE
100
AcDbEntity
  8
虚线
 48
5.0
100
AcDbCircle
 10
1829.626458580882
 20
2997.501660968905
 30
0.0
 40
1800.0
100
AcDbArc
 50
176.7002986301152
 51
183.2997013698846
  0
ARC
  5
D56EA
102
{ACAD_REACTORS
330
D56F2
330
D56F8
102
}
330
D56DE
100
AcDbEntity
  8
细实线
 48
5.0
100
AcDbCircle
 10
1829.626458580882
 20
2997.501660968905
 30
0.0
 40
1804.0
100
AcDbArc
 50
176.7002986301152
 51
183.2997013698846
  0
ARC
  5
D56EB
102
{ACAD_REACTORS
330
D56F5
330
D5708
102
}
330
D56DE
100
AcDbEntity
  8
虚线
 48
5.0
100
AcDbCircle
 10
-1225.336737955411
 20
2997.501660968905
 30
0.0
 40
1800.0
100
AcDbArc
 50
356.7002986301152
 51
3.299701369884734
  0
ARC
  5
D56EC
102
{ACAD_REACTORS
330
D56F8
330
D5708
102
}
330
D56DE
100
AcDbEntity
  8
细实线
 48
5.0
100
AcDbCircle
 10
-1225.336737955411
 20
2997.501660968905
 30
0.0
 40
1804.0
100
AcDbArc
 50
356.7002986301152
 51
3.299701369884734
  0
ARC
  5
D56ED
102
{ACAD_REACTORS
330
D56FB
102
}
330
D56DE
100
AcDbEntity
  8
虚线
 48
5.0
100
AcDbCircle
 10
302.1448603127355
 20
5995.003322735283
 30
0.0
 40
3200.0
100
AcDbArc
 50
266.8619495129907
 51
273.1380504870092
  0
ARC
  5
D56EE
102
{ACAD_REACTORS
330
D56FE
102
}
330
D56DE
100
AcDbEntity
  8
细实线
 48
5.0
100
AcDbCircle
 10
302.1448603127355
 20
5995.003322735283
 30
0.0
 40
3204.0
100
AcDbArc
 50
266.8619495129907
 51
273.1380504870092
  0
DIMENSION
  5
D56EF
330
D56DE
100
AcDbEntity
  8
标注
 48
5.0
100
AcDbDimension
  2
*D1
 10
142.0948681227892
 20
2799.008328997035
 30
0.0
 11
142.0948681228183
 21
2823.174995663721
 31
0.0
 12
-106212.1022967925
 22
172432.6050328336
 32
0.0
 71
     5
 42
4.005006261751987
  3
副本Standard
100
AcDbAlignedDimension
 13
142.0948681227892
 23
2795.003322735283
 33
0.0
 14
142.0948681227892
 24
2799.008328997035
 34
0.0
 50
90.0
100
AcDbRotatedDimension
1001
ACAD
1000
DSTYLE
1002
{
1070
    41
1040
10.0
1070
    49
1040
8.0
1070
   140
1040
12.0
1070
   147
1040
0.5
1070
   179
1070
     0
1070
   345
1005
15
1002
}
  0
DIMENSION
  5
D56F0
102
{ACAD_XDICTIONARY
360
D56F1
102
}
102
{ACAD_REACTORS
330
D56F2
102
}
330
D56DE
100
AcDbEntity
  8
标注
 48
5.0
100
AcDbDimension
  2
*D2
 10
28.61728018339318
 20
3101.568013910059
 30
0.0
 11
4.437339437179615
 21
3101.337778615969
 31
0.0
 12
-106212.1022967925
 22
172432.6050328336
 32
0.0
 71
     5
 42
4.006642546053626
  3
副本Standard
100
AcDbAlignedDimension
 13
32.61064864990476
 23
3101.10754332185
 33
0.0
 14
28.6172801833934
 24
3101.337778615969
 34
0.0
100
AcDbRotatedDimension
1001
ACAD
1000
DSTYLE
1002
{
1070
    41
1040
10.0
1070
    49
1040
8.0
1070
   140
1040
12.0
1070
   147
1040
0.5
1070
   179
1070
     0
1070
   345
1005
15
1002
}
  0
DIMENSION
  5
D56F3
102
{ACAD_XDICTIONARY
360
D56F4
102
}
102
{ACAD_REACTORS
330
D56F5
102
}
330
D56DE
100
AcDbEntity
  8
标注
 48
5.0
100
AcDbDimension
  2
*D3
 10
29.62645858088217
 20
2762.604250357195
 30
0.0
 11
302.1448603127355
 21
2762.604250357195
 31
0.0
 12
-106212.1022967925
 22
172432.6050328336
 32
0.0
 70
   128
 71
     5
 42
545.0368034637066
  3
副本Standard
100
AcDbAlignedDimension
 13
574.6632620445888
 23
2997.501660968905
 33
0.0
 14
29.62645858088217
 24
2997.501660968905
 34
0.0
100
AcDbRotatedDimension
1001
ACAD
1000
DSTYLE
1002
{
1070
    41
1040
10.0
1070
    49
1040
8.0
1070
   140
1040
12.0
1070
   147
1040
0.5
1070
   179
1070
     0
1070
   345
1005
15
1002
}
  0
DIMENSION
  5
D56F6
102
{ACAD_XDICTIONARY
360
D56F7
102
}
102
{ACAD_REACTORS
330
D56F8
102
}
330
D56DE
100
AcDbEntity
  8
标注
 48
5.0
100
AcDbDimension
  2
*D4
 10
25.62645858088217
 20
2736.821599754127
 30
0.0
 11
302.1448603127355
 21
2736.821599754127
 31
0.0
 12
-106212.1022967925
 22
172432.6050328336
 32
0.0
 70
   128
 71
     5
 42
553.0368034637066
  3
副本Standard
100
AcDbAlignedDimension
 13
578.6632620445888
 23
2997.501660968905
 33
0.0
 14
25.62645858088217
 24
2997.501660968905
 34
0.0
100
AcDbRotatedDimension
1001
ACAD
1000
DSTYLE
1002
{
1070
    41
1040
10.0
1070
    49
1040
8.0
1070
   140
1040
12.0
1070
   147
1040
0.5
1070
   179
1070
     0
1070
   345
1005
15
1002
}
  0
DIMENSION
  5
D56F9
102
{ACAD_XDICTIONARY
360
D56FA
102
}
102
{ACAD_REACTORS
330
D56FB
102
}
330
D56DE
100
AcDbEntity
  8
标注
 48
5.0
100
AcDbDimension
  2
*D5
 10
610.7346788832797
 20
3199.999999202527
 30
0.0
 11
610.7346788833086
 21
2997.501660968934
 31
0.0
 12
-106212.1022967925
 22
172432.6050328336
 32
0.0
 70
   128
 71
     5
 42
404.9966764672426
  3
副本Standard
100
AcDbAlignedDimension
 13
302.144860312735
 23
2795.003322735283
 33
0.0
 14
302.144860312735
 24
3199.999999202527
 34
0.0
 50
90.0
100
AcDbRotatedDimension
1001
ACAD
1000
DSTYLE
1002
{
1070
    41
1040
10.0
1070
    49
1040
8.0
1070
   140
1040
12.0
1070
   147
1040
0.5
1070
   179
1070
     0
1070
   345
1005
15
1002
}
  0
DIMENSION
  5
D56FC
102
{ACAD_XDICTIONARY
360
D56FD
102
}
102
{ACAD_REACTORS
330
D56FE
102
}
330
D56DE
100
AcDbEntity
  8
标注
 48
5.0
100
AcDbDimension
  2
*D6
 10
633.7800802206337
 20
2791.003322735284
 30
0.0
 11
633.7800802206628
 21
2997.501660968934
 31
0.0
 12
-106212.1022967925
 22
172432.6050328336
 32
0.0
 70
   128
 71
     5
 42
412.9966764672426
  3
副本Standard
100
AcDbAlignedDimension
 13
302.1448603127363
 23
3203.999999202526
 33
0.0
 14
302.1448603127363
 24
2791.003322735284
 34
0.0
 50
90.0
100
AcDbRotatedDimension
1001
ACAD
1000
DSTYLE
1002
{
1070
    41
1040
10.0
1070
    49
1040
8.0
1070
   140
1040
12.0
1070
   147
1040
0.5
1070
   179
1070
     0
1070
   345
1005
15
1002
}
  0
DIMENSION
  5
D56FF
330
D56DE
100
AcDbEntity
  8
标注
 48
5.0
100
AcDbDimension
  2
*D7
 10
132.4448603127093
 20
3095.351660968969
 30
0.0
 11
99.69219157093904
 21
3126.052867541177
 31
0.0
 12
-106212.1022967925
 22
172432.6050328336
 32
0.0
 70
   132
  1
4-<>
 71
     5
 42
99.99999999991269
  3
副本Standard
100
AcDbRadialDimension
 15
59.48622699268161
 25
3163.740533046658
 35
0.0
 40
0.0
1001
ACAD
1000
DSTYLE
1002
{
1070
    41
1040
10.0
1070
    49
1040
8.0
1070
   140
1040
12.0
1070
   147
1040
0.5
1070
   179
1070
     0
1070
   288
1070
     1
1070
   345
1005
15
1002
}
1001
ACAD_DSTYLE_DIMRADIAL_EXTENSION
1070
   387
1070
     1
1070
   388
1040
1.625565639886259
1070
   390
1040
3.084002000345646
  0
DIMENSION
  5
D5700
102
{ACAD_XDICTIONARY
360
D5701
102
}
102
{ACAD_REACTORS
330
D5702
102
}
330
D56DE
100
AcDbEntity
  8
标注
 48
5.0
100
AcDbDimension
  2
*D8
 10
302.1448603127355
 20
-0.0000007974740583
 30
0.0
 11
234.2714722540841
 21
3158.137396620616
 31
0.0
 12
-106212.1022967926
 22
172432.6050328336
 32
0.0
 70
   132
 71
     5
 42
3199.999999999942
  3
副本Standard
100
AcDbRadialDimension
 15
233.3876556862669
 25
3199.261233739584
 35
0.0
 40
0.0
1001
ACAD
1000
DSTYLE
1002
{
1070
    41
1040
10.0
1070
    49
1040
8.0
1070
   140
1040
12.0
1070
   147
1040
0.5
1070
   179
1070
     0
1070
   288
1070
     1
1070
   345
1005
15
1002
}
1001
ACAD_DSTYLE_DIMRADIAL_EXTENSION
1070
   387
1070
     1
1070
   388
1040
1.516027013702773
1070
   390
1040
1.625565639887019
  0
DIMENSION
  5
D5703
102
{ACAD_XDICTIONARY
360
D5704
102
}
102
{ACAD_REACTORS
330
D5705
102
}
330
D56DE
100
AcDbEntity
  8
标注
 48
5.0
100
AcDbDimension
  2
*D9
 10
1829.626458580882
 20
2997.501660968905
 30
0.0
 11
71.29895903299621
 21
3041.048824419413
 31
0.0
 12
-106212.1022967924
 22
172432.6050328335
 32
0.0
 70
   132
 71
     5
 42
1799.999999999942
  3
副本Standard
100
AcDbRadialDimension
 15
30.17823480826337
 25
3042.067230205285
 35
0.0
 40
0.0
1001
ACAD
1000
DSTYLE
1002
{
1070
    41
1040
10.0
1070
    49
1040
8.0
1070
   140
1040
12.0
1070
   147
1040
0.5
1070
   179
1070
     0
1070
   288
1070
     1
1070
   345
1005
15
1002
}
1001
ACAD_DSTYLE_DIMRADIAL_EXTENSION
1070
   387
1070
     1
1070
   388
1040
3.084002000352736
1070
   390
1040
3.199183306826848
  0
DIMENSION
  5
D5706
102
{ACAD_XDICTIONARY
360
D5707
102
}
102
{ACAD_REACTORS
330
D5708
102
}
330
D56DE
100
AcDbEntity
  8
标注
 48
5.0
100
AcDbDimension
  2
*D10
 10
571.6790719762663
 20
3101.339325731191
 30
0.0
 11
547.5124053095946
 21
3101.339325731191
 31
0.0
 12
-106212.1022967918
 22
172432.605032821
 32
0.0
 71
     5
 42
3.993368466515676
  3
副本Standard
100
AcDbAlignedDimension
 13
575.6724404427817
 23
3101.337778603694
 33
0.0
 14
571.6790719762663
 24
3101.107543309576
 34
0.0
100
AcDbRotatedDimension
1001
ACAD
1000
DSTYLE
1002
{
1070
    41
1040
10.0
1070
    49
1040
8.0
1070
   140
1040
12.0
1070
   147
1040
0.5
1070
   179
1070
     0
1070
   345
1005
15
1002
}
  0
ENDBLK
  5
D570C
330
D56DE
100
AcDbEntity
  8
0
 48
5.0
100
AcDbBlockEnd
  0
BLOCK
  5
D5A88
330
D5A87
100
AcDbEntity
  8
0
 48
5.0
100
AcDbBlockBegin
  2
_None
 70
     0
 10
0.0
 20
0.0
 30
0.0
  3
_None
  1

  0
ENDBLK
  5
D5A89
330
D5A87
100
AcDbEntity
  8
0
 48
5.0
100
AcDbBlockEnd
  0
BLOCK
  5
D5AC9
330
D5AC8
100
AcDbEntity
  8
0
 48
5.0
100
AcDbBlockBegin
  2
*D13
 70
     1
 10
0.0
 20
0.0
 30
0.0
  3
*D13
  1

  0
LINE
  5
D5CD5
330
D5AC8
100
AcDbEntity
  8
标注
 62
     0
370
    -2
100
AcDbLine
 10
108064.6366332127
 20
-169207.1544196403
 30
0.0
 11
108101.5947908072
 21
-169207.1544196403
 31
0.0
  0
LINE
  5
D5CD6
330
D5AC8
100
AcDbEntity
  8
标注
 62
     0
370
    -2
100
AcDbLine
 10
108064.6366332127
 20
-169211.1544196403
 30
0.0
 11
108101.5947908072
 21
-169211.1544196403
 31
0.0
  0
LINE
  5
D5CD7
330
D5AC8
100
AcDbEntity
  8
标注
 62
     0
370
    -2
100
AcDbLine
 10
108100.3447908072
 20
-169195.1544196403
 30
0.0
 11
108100.3447908072
 21
-169183.1544196403
 31
0.0
  0
LINE
  5
D5CD8
330
D5AC8
100
AcDbEntity
  8
标注
 62
     0
370
    -2
100
AcDbLine
 10
108100.3447908072
 20
-169223.1544196403
 30
0.0
 11
108100.3447908072
 21
-169254.3210863069
 31
0.0
  0
LINE
  5
D5CD9
330
D5AC8
100
AcDbEntity
  8
标注
 62
     0
370
    -2
100
AcDbLine
 10
108100.3447908072
 20
-169207.1544196403
 30
0.0
 11
108100.3447908072
 21
-169211.1544196403
 31
0.0
  0
SOLID
  5
D5CDA
330
D5AC8
100
AcDbEntity
  8
标注
 62
     0
100
AcDbTrace
 10
108098.3447908072
 20
-169195.1544196403
 30
0.0
 11
108102.3447908072
 21
-169195.1544196403
 31
0.0
 12
108100.3447908072
 22
-169207.1544196403
 32
0.0
 13
108100.3447908072
 23
-169207.1544196403
 33
0.0
  0
SOLID
  5
D5CDB
330
D5AC8
100
AcDbEntity
  8
标注
 62
     0
100
AcDbTrace
 10
108098.3447908072
 20
-169223.1544196403
 30
0.0
 11
108102.3447908072
 21
-169223.1544196403
 31
0.0
 12
108100.3447908072
 22
-169211.1544196403
 32
0.0
 13
108100.3447908072
 23
-169211.1544196403
 33
0.0
  0
MTEXT
  5
D5CDC
330
D5AC8
100
AcDbEntity
  8
标注
 62
     0
100
AcDbMText
 10
108087.8447908072
 20
-169244.7377529736
 30
0.0
 40
15.0
 41
0.0
 71
     5
 72
     1
  1
4
 11
0.0000000000000001
 21
1.0
 31
0.0
 73
     1
 44
1.0
1001
ACAD
1000
MTEXTBEGIN
1070
    73
1070
     1
1070
    44
1040
1.0
1070
    74
1070
     0
1000
MTEXTEND
  0
POINT
  5
D5CDD
330
D5AC8
100
AcDbEntity
  8
Defpoints
 62
     0
100
AcDbPoint
 10
108057.6366332127
 20
-169207.1544196403
 30
0.0
  0
POINT
  5
D5CDE
330
D5AC8
100
AcDbEntity
  8
Defpoints
 62
     0
100
AcDbPoint
 10
108057.6366332127
 20
-169211.1544196403
 30
0.0
  0
POINT
  5
D5CDF
330
D5AC8
100
AcDbEntity
  8
Defpoints
 62
     0
100
AcDbPoint
 10
108100.3447908072
 20
-169211.1544196403
 30
0.0
  0
ENDBLK
  5
D5ACA
330
D5AC8
100
AcDbEntity
  8
0
 48
5.0
100
AcDbBlockEnd
  0
BLOCK
  5
D5AD7
330
D5AD6
100
AcDbEntity
  8
0
 48
5.0
100
AcDbBlockBegin
  2
*D14
 70
     1
 10
0.0
 20
0.0
 30
0.0
  3
*D14
  1

  0
LINE
  5
D5CF8
330
D5AD6
100
AcDbEntity
  8
标注
 62
     0
370
    -2
100
AcDbLine
 10
108275.2153189733
 20
-168858.7832060129
 30
0.0
 11
108223.8795034119
 21
-168895.5596753906
 31
0.0
  0
LINE
  5
D5CF9
330
D5AD6
100
AcDbEntity
  8
标注
 62
     0
370
    -2
100
AcDbLine
 10
107891.3937630134
 20
-169133.74916389
 30
0.0
 11
107881.6386801655
 21
-169140.7376085404
 31
0.0
  0
MTEXT
  5
D5CFA
102
{ACAD_XDICTIONARY
360
D5D1F
102
}
330
D5AD6
100
AcDbEntity
  8
标注
 62
     0
100
AcDbMText
 10
108247.1453227724
 20
-168863.5156737433
 30
0.0
 40
15.0
 41
0.0
 71
     5
 72
     1
  1
\U+2205385
 11
0.8129235706565138
 21
0.5823703875293322
 31
0.0
 73
     1
 44
1.0
1001
ACAD
1000
MTEXTBEGIN
1070
    73
1070
     1
1070
    44
1040
1.0
1070
    74
1070
     0
1000
MTEXTEND
  0
LINE
  5
D5CFB
330
D5AD6
100
AcDbEntity
  8
标注
 62
     0
370
    -2
100
AcDbLine
 10
107901.1488458613
 20
-169126.7607192397
 30
0.0
 11
108214.124420564
 21
-168902.5481200409
 31
0.0
  0
SOLID
  5
D5CFC
330
D5AD6
100
AcDbEntity
  8
标注
 62
     0
100
AcDbTrace
 10
107890.2290222383
 20
-169132.1233167487
 30
0.0
 11
107892.5585037884
 21
-169135.3750110313
 31
0.0
 12
107901.1488458613
 22
-169126.7607192397
 32
0.0
 13
107901.1488458613
 23
-169126.7607192397
 33
0.0
  0
SOLID
  5
D5CFD
330
D5AD6
100
AcDbEntity
  8
标注
 62
     0
100
AcDbTrace
 10
108222.7147626369
 20
-168893.9338282492
 30
0.0
 11
108225.044244187
 21
-168897.1855225318
 31
0.0
 12
108214.124420564
 22
-168902.5481200409
 32
0.0
 13
108214.124420564
 23
-168902.5481200409
 33
0.0
  0
POINT
  5
D5CFE
330
D5AD6
100
AcDbEntity
  8
Defpoints
 62
     0
100
AcDbPoint
 10
108214.124420564
 20
-168902.5481200409
 30
0.0
  0
POINT
  5
D5CFF
330
D5AD6
100
AcDbEntity
  8
Defpoints
 62
     0
100
AcDbPoint
 10
107901.1488458613
 20
-169126.7607192397
 30
0.0
  0
ENDBLK
  5
D5AD8
330
D5AD6
100
AcDbEntity
  8
0
 48
5.0
100
AcDbBlockEnd
  0
BLOCK
  5
D5AED
330
D5AEC
100
AcDbEntity
  8
0
 48
5.0
100
AcDbBlockBegin
  2
*D15
 70
     1
 10
0.0
 20
0.0
 30
0.0
  3
*D15
  1

  0
LINE
  5
D5D08
330
D5AEC
100
AcDbEntity
  8
标注
 62
     0
370
    -2
100
AcDbLine
 10
108328.586265484
 20
-168942.8242208055
 30
0.0
 11
108259.1747433913
 21
-168961.2255871094
 31
0.0
  0
LINE
  5
D5D09
330
D5AEC
100
AcDbEntity
  8
标注
 62
     0
370
    -2
100
AcDbLine
 10
107856.098523034
 20
-169068.0832521711
 30
0.0
 11
107844.4992073403
 21
-169071.1582928923
 31
0.0
  0
MTEXT
  5
D5D0A
102
{ACAD_XDICTIONARY
360
D5D21
102
}
330
D5AEC
100
AcDbEntity
  8
标注
 62
     0
100
AcDbMText
 10
108300.6622395639
 20
-168937.2952322954
 30
0.0
 40
15.0
 41
0.0
 71
     5
 72
     1
  1
\U+2205393
 11
0.9666096411447178
 21
0.2562533934332965
 31
0.0
 73
     1
 44
1.0
1001
ACAD
1000
MTEXTBEGIN
1070
    73
1070
     1
1070
    44
1040
1.0
1070
    74
1070
     0
1000
MTEXTEND
  0
LINE
  5
D5D0B
330
D5AEC
100
AcDbEntity
  8
标注
 62
     0
370
    -2
100
AcDbLine
 10
107867.6978387277
 20
-169065.0082114499
 30
0.0
 11
108247.5754276976
 21
-168964.3006278306
 31
0.0
  0
SOLID
  5
D5D0C
330
D5AEC
100
AcDbEntity
  8
标注
 62
     0
100
AcDbTrace
 10
107855.5860162471
 20
-169066.1500328888
 30
0.0
 11
107856.6110298209
 21
-169070.0164714534
 31
0.0
 12
107867.6978387277
 22
-169065.0082114499
 32
0.0
 13
107867.6978387277
 23
-169065.0082114499
 33
0.0
  0
SOLID
  5
D5D0D
330
D5AEC
100
AcDbEntity
  8
标注
 62
     0
100
AcDbTrace
 10
108258.6622366045
 20
-168959.2923678271
 30
0.0
 11
108259.6872501782
 21
-168963.1588063917
 31
0.0
 12
108247.5754276976
 22
-168964.3006278306
 32
0.0
 13
108247.5754276976
 23
-168964.3006278306
 33
0.0
  0
POINT
  5
D5D0E
330
D5AEC
100
AcDbEntity
  8
Defpoints
 62
     0
100
AcDbPoint
 10
108247.5754276976
 20
-168964.3006278306
 30
0.0
  0
POINT
  5
D5D0F
330
D5AEC
100
AcDbEntity
  8
Defpoints
 62
     0
100
AcDbPoint
 10
107867.6978387277
 20
-169065.0082114499
 30
0.0
  0
ENDBLK
  5
D5AEE
330
D5AEC
100
AcDbEntity
  8
0
 48
5.0
100
AcDbBlockEnd
  0
BLOCK
  5
D5B04
330
D5B03
100
AcDbEntity
  8
0
 48
5.0
100
AcDbBlockBegin
  2
*D16
 70
     1
 10
0.0
 20
0.0
 30
0.0
  3
*D16
  1

  0
LINE
  5
D5BEA
330
D5B03
100
AcDbEntity
  8
标注
 48
5.0
370
    -2
100
AcDbLine
 10
108065.3379379342
 20
-168992.2006702899
 30
0.0
 11
108061.8542589547
 21
-169002.3576056993
 31
0.0
  0
LINE
  5
D5BEB
330
D5B03
100
AcDbEntity
  8
标注
 48
5.0
370
    -2
100
AcDbLine
 10
108053.4190074707
 20
-169026.9512335813
 30
0.0
 11
108050.1746799769
 21
-169036.4103212283
 31
0.0
  0
MTEXT
  5
D5BEC
102
{ACAD_XDICTIONARY
360
D5D1D
102
}
330
D5B03
100
AcDbEntity
  8
标注
 48
5.0
100
AcDbMText
 10
108072.0034973306
 20
-168972.7667165152
 30
0.0
 40
12.0
 41
0.0
 71
     5
 72
     1
  1
\A1;{\fGulim|b0|i0|c129|p34;5-\U+22056}
 11
0.3244327493830139
 21
0.9459087646955062
 31
0.0
 73
     1
 44
1.0
1001
ACAD
1000
MTEXTBEGIN
1070
    73
1070
     1
1070
    44
1040
1.0
1070
    74
1070
     0
1000
MTEXTEND
  0
LINE
  5
D5BED
330
D5B03
100
AcDbEntity
  8
标注
 48
5.0
370
    -2
100
AcDbLine
 10
108056.6633349646
 20
-169017.4921459344
 30
0.0
 11
108058.6099314609
 21
-169011.8166933462
 31
0.0
  0
SOLID
  5
D5BEE
330
D5B03
100
AcDbEntity
  8
标注
 48
5.0
100
AcDbTrace
 10
108051.8424928629
 20
-169026.4105123324
 30
0.0
 11
108054.9955220786
 21
-169027.4919548303
 31
0.0
 12
108056.6633349646
 22
-169017.4921459344
 32
0.0
 13
108056.6633349646
 23
-169017.4921459344
 33
0.0
  0
SOLID
  5
D5BEF
330
D5B03
100
AcDbEntity
  8
标注
 48
5.0
100
AcDbTrace
 10
108060.2777443469
 20
-169001.8168844503
 30
0.0
 11
108063.4307735625
 21
-169002.8983269482
 31
0.0
 12
108058.6099314609
 22
-169011.8166933462
 32
0.0
 13
108058.6099314609
 23
-169011.8166933462
 33
0.0
  0
POINT
  5
D5BF0
330
D5B03
100
AcDbEntity
  8
Defpoints
 62
     0
 48
5.0
100
AcDbPoint
 10
108058.6099314609
 20
-169011.8166933462
 30
0.0
  0
POINT
  5
D5BF1
330
D5B03
100
AcDbEntity
  8
Defpoints
 62
     0
 48
5.0
100
AcDbPoint
 10
108056.6633349646
 20
-169017.4921459344
 30
0.0
  0
ENDBLK
  5
D5B05
330
D5B03
100
AcDbEntity
  8
0
 48
5.0
100
AcDbBlockEnd
  0
BLOCK
  5
D5B6B
330
D5B6A
100
AcDbEntity
  8
0
 48
5.0
100
AcDbBlockBegin
  2
*D17
 70
     1
 10
0.0
 20
0.0
 30
0.0
  3
*D17
  1

  0
LINE
  5
D5B87
330
D5B6A
100
AcDbEntity
  8
标注
 48
5.0
370
    -2
100
AcDbLine
 10
108050.6456739837
 20
-168836.1479018753
 30
0.0
 11
108026.258508354
 21
-168836.1479018753
 31
0.0
  0
LINE
  5
D5B88
330
D5B6A
100
AcDbEntity
  8
标注
 48
5.0
370
    -2
100
AcDbLine
 10
108050.6465852947
 20
-168818.1544198923
 30
0.0
 11
108026.258508354
 21
-168818.1544198923
 31
0.0
  0
LINE
  5
D5B89
330
D5B6A
100
AcDbEntity
  8
标注
 48
5.0
370
    -2
100
AcDbLine
 10
108033.258508354
 20
-168846.1479018753
 30
0.0
 11
108033.258508354
 21
-168856.1479018753
 31
0.0
  0
LINE
  5
D5B8A
330
D5B6A
100
AcDbEntity
  8
标注
 48
5.0
370
    -2
100
AcDbLine
 10
108033.258508354
 20
-168808.1544198923
 30
0.0
 11
108033.258508354
 21
-168798.1544198924
 31
0.0
  0
LINE
  5
D5B8B
330
D5B6A
100
AcDbEntity
  8
标注
 48
5.0
370
    -2
100
AcDbLine
 10
108033.258508354
 20
-168836.1479018753
 30
0.0
 11
108033.258508354
 21
-168818.1544198923
 31
0.0
  0
SOLID
  5
D5B8C
330
D5B6A
100
AcDbEntity
  8
标注
 48
5.0
100
AcDbTrace
 10
108031.5918416873
 20
-168846.1479018753
 30
0.0
 11
108034.9251750207
 21
-168846.1479018753
 31
0.0
 12
108033.258508354
 22
-168836.1479018753
 32
0.0
 13
108033.258508354
 23
-168836.1479018753
 33
0.0
  0
SOLID
  5
D5B8D
330
D5B6A
100
AcDbEntity
  8
标注
 48
5.0
100
AcDbTrace
 10
108031.5918416873
 20
-168808.1544198923
 30
0.0
 11
108034.9251750207
 21
-168808.1544198923
 31
0.0
 12
108033.258508354
 22
-168818.1544198923
 32
0.0
 13
108033.258508354
 23
-168818.1544198923
 33
0.0
  0
MTEXT
  5
D5B8E
330
D5B6A
100
AcDbEntity
  8
标注
 48
5.0
100
AcDbMText
 10
108033.258508354
 20
-168790.5877532256
 30
0.0
 40
12.0
 41
0.0
 71
     5
 72
     1
  1
\A1;18
 11
0.0000000000000001
 21
1.0
 31
0.0
 73
     1
 44
1.0
1001
ACAD
1000
MTEXTBEGIN
1070
    73
1070
     1
1070
    44
1040
1.0
1070
    74
1070
     0
1000
MTEXTEND
  0
POINT
  5
D5B8F
330
D5B6A
100
AcDbEntity
  8
Defpoints
 62
     0
 48
5.0
100
AcDbPoint
 10
108057.6456739837
 20
-168836.1479018753
 30
0.0
  0
POINT
  5
D5B90
330
D5B6A
100
AcDbEntity
  8
Defpoints
 62
     0
 48
5.0
100
AcDbPoint
 10
108057.6465852947
 20
-168818.1544198923
 30
0.0
  0
POINT
  5
D5B91
330
D5B6A
100
AcDbEntity
  8
Defpoints
 62
     0
 48
5.0
100
AcDbPoint
 10
108033.258508354
 20
-168818.1544198923
 30
0.0
  0
ENDBLK
  5
D5B6C
330
D5B6A
100
AcDbEntity
  8
0
 48
5.0
100
AcDbBlockEnd
  0
BLOCK
  5
D5B94
330
D5B93
100
AcDbEntity
  8
0
 48
5.0
100
AcDbBlockBegin
  2
*D18
 70
     1
 10
0.0
 20
0.0
 30
0.0
  3
*D18
  1

  0
LINE
  5
D5BD8
330
D5B93
100
AcDbEntity
  8
标注
 48
5.0
370
    -2
100
AcDbLine
 10
108050.6456739837
 20
-168836.1479018753
 30
0.0
 11
107996.6983381348
 21
-168836.1479018753
 31
0.0
  0
LINE
  5
D5BD9
330
D5B93
100
AcDbEntity
  8
标注
 48
5.0
370
    -2
100
AcDbLine
 10
108050.6456739837
 20
-169193.1479018753
 30
0.0
 11
107996.6983381348
 21
-169193.1479018753
 31
0.0
  0
LINE
  5
D5BDA
330
D5B93
100
AcDbEntity
  8
标注
 48
5.0
370
    -2
100
AcDbLine
 10
108003.6983381348
 20
-168846.1479018753
 30
0.0
 11
108003.6983381348
 21
-168917.2828269638
 31
0.0
  0
LINE
  5
D5BDB
330
D5B93
100
AcDbEntity
  8
标注
 48
5.0
370
    -2
100
AcDbLine
 10
108003.6983381348
 20
-169183.1479018753
 30
0.0
 11
108003.6983381348
 21
-168941.8828269637
 31
0.0
  0
SOLID
  5
D5BDC
330
D5B93
100
AcDbEntity
  8
标注
 48
5.0
100
AcDbTrace
 10
108002.0316714681
 20
-168846.1479018753
 30
0.0
 11
108005.3650048015
 21
-168846.1479018753
 31
0.0
 12
108003.6983381348
 22
-168836.1479018753
 32
0.0
 13
108003.6983381348
 23
-168836.1479018753
 33
0.0
  0
SOLID
  5
D5BDD
330
D5B93
100
AcDbEntity
  8
标注
 48
5.0
100
AcDbTrace
 10
108002.0316714681
 20
-169183.1479018753
 30
0.0
 11
108005.3650048015
 21
-169183.1479018753
 31
0.0
 12
108003.6983381348
 22
-169193.1479018753
 32
0.0
 13
108003.6983381348
 23
-169193.1479018753
 33
0.0
  0
MTEXT
  5
D5BDE
330
D5B93
100
AcDbEntity
  8
标注
 48
5.0
100
AcDbMText
 10
108003.6983381348
 20
-168929.5828269637
 30
0.0
 40
12.0
 41
0.0
 71
     5
 72
     1
  1
\A1;357
 11
0.0000000000000001
 21
1.0
 31
0.0
 73
     1
 44
1.0
1001
ACAD
1000
MTEXTBEGIN
1070
    73
1070
     1
1070
    44
1040
1.0
1070
    74
1070
     0
1000
MTEXTEND
  0
POINT
  5
D5BDF
330
D5B93
100
AcDbEntity
  8
Defpoints
 62
     0
 48
5.0
100
AcDbPoint
 10
108057.6456739837
 20
-168836.1479018753
 30
0.0
  0
POINT
  5
D5BE0
330
D5B93
100
AcDbEntity
  8
Defpoints
 62
     0
 48
5.0
100
AcDbPoint
 10
108057.6456739837
 20
-169193.1479018753
 30
0.0
  0
POINT
  5
D5BE1
330
D5B93
100
AcDbEntity
  8
Defpoints
 62
     0
 48
5.0
100
AcDbPoint
 10
108003.6983381348
 20
-169193.1479018753
 30
0.0
  0
ENDBLK
  5
D5B95
330
D5B93
100
AcDbEntity
  8
0
 48
5.0
100
AcDbBlockEnd
  0
BLOCK
  5
D5BCC
330
D5BCB
100
AcDbEntity
  8
0
 48
5.0
100
AcDbBlockBegin
  2
*D19
 70
     1
 10
0.0
 20
0.0
 30
0.0
  3
*D19
  1

  0
LINE
  5
D5BCE
330
D5BCB
100
AcDbEntity
  8
标注
 48
5.0
370
    -2
100
AcDbLine
 10
108050.6456739837
 20
-168836.1479018753
 30
0.0
 11
108026.258508354
 21
-168836.1479018753
 31
0.0
  0
LINE
  5
D5BCF
330
D5BCB
100
AcDbEntity
  8
标注
 48
5.0
370
    -2
100
AcDbLine
 10
108050.6366332127
 20
-169014.6544196403
 30
0.0
 11
108026.258508354
 21
-169014.6544196403
 31
0.0
  0
LINE
  5
D5BD0
330
D5BCB
100
AcDbEntity
  8
标注
 48
5.0
370
    -2
100
AcDbLine
 10
108033.258508354
 20
-168846.1479018753
 30
0.0
 11
108033.258508354
 21
-168905.0678274245
 31
0.0
  0
LINE
  5
D5BD1
330
D5BCB
100
AcDbEntity
  8
标注
 48
5.0
370
    -2
100
AcDbLine
 10
108033.258508354
 20
-169004.6544196403
 30
0.0
 11
108033.258508354
 21
-168945.7344940912
 31
0.0
  0
SOLID
  5
D5BD2
330
D5BCB
100
AcDbEntity
  8
标注
 48
5.0
100
AcDbTrace
 10
108031.5918416873
 20
-168846.1479018753
 30
0.0
 11
108034.9251750207
 21
-168846.1479018753
 31
0.0
 12
108033.258508354
 22
-168836.1479018753
 32
0.0
 13
108033.258508354
 23
-168836.1479018753
 33
0.0
  0
SOLID
  5
D5BD3
330
D5BCB
100
AcDbEntity
  8
标注
 48
5.0
100
AcDbTrace
 10
108031.5918416873
 20
-169004.6544196403
 30
0.0
 11
108034.9251750207
 21
-169004.6544196403
 31
0.0
 12
108033.258508354
 22
-169014.6544196403
 32
0.0
 13
108033.258508354
 23
-169014.6544196403
 33
0.0
  0
MTEXT
  5
D5BD4
330
D5BCB
100
AcDbEntity
  8
标注
 48
5.0
100
AcDbMText
 10
108033.258508354
 20
-168925.4011607578
 30
0.0
 40
12.0
 41
0.0
 71
     5
 72
     1
  1
\A1;178,5
 11
0.0000000000000001
 21
1.0
 31
0.0
 73
     1
 44
1.0
1001
ACAD
1000
MTEXTBEGIN
1070
    73
1070
     1
1070
    44
1040
1.0
1070
    74
1070
     0
1000
MTEXTEND
  0
POINT
  5
D5BD5
330
D5BCB
100
AcDbEntity
  8
Defpoints
 62
     0
 48
5.0
100
AcDbPoint
 10
108057.6456739837
 20
-168836.1479018753
 30
0.0
  0
POINT
  5
D5BD6
330
D5BCB
100
AcDbEntity
  8
Defpoints
 62
     0
 48
5.0
100
AcDbPoint
 10
108057.6366332127
 20
-169014.6544196403
 30
0.0
  0
POINT
  5
D5BD7
330
D5BCB
100
AcDbEntity
  8
Defpoints
 62
     0
 48
5.0
100
AcDbPoint
 10
108033.258508354
 20
-169014.6544196403
 30
0.0
  0
ENDBLK
  5
D5BCD
330
D5BCB
100
AcDbEntity
  8
0
 48
5.0
100
AcDbBlockEnd
  0
BLOCK
  5
D5BF4
330
D5BF3
100
AcDbEntity
  8
0
 48
5.0
100
AcDbBlockBegin
  2
*D20
 70
     1
 10
0.0
 20
0.0
 30
0.0
  3
*D20
  1

  0
LINE
  5
D5C10
330
D5BF3
100
AcDbEntity
  8
标注
 48
5.0
370
    -2
100
AcDbLine
 10
108236.1456739837
 20
-169021.6479018753
 30
0.0
 11
108236.1456739837
 21
-169049.6426672504
 31
0.0
  0
LINE
  5
D5C11
330
D5BF3
100
AcDbEntity
  8
标注
 48
5.0
370
    -2
100
AcDbLine
 10
108254.1366330817
 20
-169021.6472449851
 30
0.0
 11
108254.1366330817
 21
-169049.6426672504
 31
0.0
  0
LINE
  5
D5C12
330
D5BF3
100
AcDbEntity
  8
标注
 48
5.0
370
    -2
100
AcDbLine
 10
108226.1456739837
 20
-169042.6426672503
 30
0.0
 11
108216.1456739837
 21
-169042.6426672503
 31
0.0
  0
LINE
  5
D5C13
330
D5BF3
100
AcDbEntity
  8
标注
 48
5.0
370
    -2
100
AcDbLine
 10
108264.1366330817
 20
-169042.6426672503
 30
0.0
 11
108278.9436399474
 21
-169042.6426672503
 31
0.0
  0
LINE
  5
D5C14
330
D5BF3
100
AcDbEntity
  8
标注
 48
5.0
370
    -2
100
AcDbLine
 10
108236.1456739837
 20
-169042.6426672503
 30
0.0
 11
108254.1366330817
 21
-169042.6426672503
 31
0.0
  0
SOLID
  5
D5C15
330
D5BF3
100
AcDbEntity
  8
标注
 48
5.0
100
AcDbTrace
 10
108226.1456739837
 20
-169040.9760005837
 30
0.0
 11
108226.1456739837
 21
-169044.309333917
 31
0.0
 12
108236.1456739837
 22
-169042.6426672503
 32
0.0
 13
108236.1456739837
 23
-169042.6426672503
 33
0.0
  0
SOLID
  5
D5C16
330
D5BF3
100
AcDbEntity
  8
标注
 48
5.0
100
AcDbTrace
 10
108264.1366330817
 20
-169040.9760005837
 30
0.0
 11
108264.1366330817
 21
-169044.309333917
 31
0.0
 12
108254.1366330817
 22
-169042.6426672503
 32
0.0
 13
108254.1366330817
 23
-169042.6426672503
 33
0.0
  0
MTEXT
  5
D5C17
330
D5BF3
100
AcDbEntity
  8
标注
 48
5.0
100
AcDbMText
 10
108286.5103066141
 20
-169042.6426672503
 30
0.0
 40
12.0
 41
0.0
 71
     5
 72
     1
  1
\A1;18
 73
     1
 44
1.0
1001
ACAD
1000
MTEXTBEGIN
1070
    73
1070
     1
1070
    44
1040
1.0
1070
    74
1070
     0
1000
MTEXTEND
  0
POINT
  5
D5C18
330
D5BF3
100
AcDbEntity
  8
Defpoints
 62
     0
 48
5.0
100
AcDbPoint
 10
108236.1456739837
 20
-169014.6479018753
 30
0.0
  0
POINT
  5
D5C19
330
D5BF3
100
AcDbEntity
  8
Defpoints
 62
     0
 48
5.0
100
AcDbPoint
 10
108254.1366330817
 20
-169014.6472449851
 30
0.0
  0
POINT
  5
D5C1A
330
D5BF3
100
AcDbEntity
  8
Defpoints
 62
     0
 48
5.0
100
AcDbPoint
 10
108254.1366330817
 20
-169042.6426672503
 30
0.0
  0
ENDBLK
  5
D5BF5
330
D5BF3
100
AcDbEntity
  8
0
 48
5.0
100
AcDbBlockEnd
  0
BLOCK
  5
D5C1D
330
D5C1C
100
AcDbEntity
  8
0
 48
5.0
100
AcDbBlockBegin
  2
*D21
 70
     1
 10
0.0
 20
0.0
 30
0.0
  3
*D21
  1

  0
LINE
  5
D5C1F
330
D5C1C
100
AcDbEntity
  8
标注
 48
5.0
370
    -2
100
AcDbLine
 10
108057.6366332127
 20
-169021.6544196404
 30
0.0
 11
108057.6366332127
 21
-169049.6426672504
 31
0.0
  0
LINE
  5
D5C20
330
D5C1C
100
AcDbEntity
  8
标注
 48
5.0
370
    -2
100
AcDbLine
 10
108236.1456739837
 20
-169021.6479018753
 30
0.0
 11
108236.1456739837
 21
-169049.6426672504
 31
0.0
  0
LINE
  5
D5C21
330
D5C1C
100
AcDbEntity
  8
标注
 48
5.0
370
    -2
100
AcDbLine
 10
108067.6366332127
 20
-169042.6426672503
 30
0.0
 11
108126.5578202649
 21
-169042.6426672503
 31
0.0
  0
LINE
  5
D5C22
330
D5C1C
100
AcDbEntity
  8
标注
 48
5.0
370
    -2
100
AcDbLine
 10
108226.1456739837
 20
-169042.6426672503
 30
0.0
 11
108167.2244869315
 21
-169042.6426672503
 31
0.0
  0
SOLID
  5
D5C23
330
D5C1C
100
AcDbEntity
  8
标注
 48
5.0
100
AcDbTrace
 10
108067.6366332127
 20
-169040.9760005837
 30
0.0
 11
108067.6366332127
 21
-169044.309333917
 31
0.0
 12
108057.6366332127
 22
-169042.6426672503
 32
0.0
 13
108057.6366332127
 23
-169042.6426672503
 33
0.0
  0
SOLID
  5
D5C24
330
D5C1C
100
AcDbEntity
  8
标注
 48
5.0
100
AcDbTrace
 10
108226.1456739837
 20
-169040.9760005837
 30
0.0
 11
108226.1456739837
 21
-169044.309333917
 31
0.0
 12
108236.1456739837
 22
-169042.6426672503
 32
0.0
 13
108236.1456739837
 23
-169042.6426672503
 33
0.0
  0
MTEXT
  5
D5C25
330
D5C1C
100
AcDbEntity
  8
标注
 48
5.0
100
AcDbMText
 10
108146.8911535982
 20
-169042.6426672503
 30
0.0
 40
12.0
 41
0.0
 71
     5
 72
     1
  1
\A1;178,5
 73
     1
 44
1.0
1001
ACAD
1000
MTEXTBEGIN
1070
    73
1070
     1
1070
    44
1040
1.0
1070
    74
1070
     0
1000
MTEXTEND
  0
POINT
  5
D5C26
330
D5C1C
100
AcDbEntity
  8
Defpoints
 62
     0
 48
5.0
100
AcDbPoint
 10
108057.6366332127
 20
-169014.6544196404
 30
0.0
  0
POINT
  5
D5C27
330
D5C1C
100
AcDbEntity
  8
Defpoints
 62
     0
 48
5.0
100
AcDbPoint
 10
108236.1456739837
 20
-169014.6479018753
 30
0.0
  0
POINT
  5
D5C28
330
D5C1C
100
AcDbEntity
  8
Defpoints
 62
     0
 48
5.0
100
AcDbPoint
 10
108236.1456739837
 20
-169042.6426672503
 30
0.0
  0
ENDBLK
  5
D5C1E
330
D5C1C
100
AcDbEntity
  8
0
 48
5.0
100
AcDbBlockEnd
  0
BLOCK
  5
D5C2B
330
D5C2A
100
AcDbEntity
  8
0
 48
5.0
100
AcDbBlockBegin
  2
*D22
 70
     1
 10
0.0
 20
0.0
 30
0.0
  3
*D22
  1

  0
LINE
  5
D5C43
330
D5C2A
100
AcDbEntity
  8
标注
 48
5.0
370
    -2
100
AcDbLine
 10
107879.1456739837
 20
-169021.6479018753
 30
0.0
 11
107879.1456739837
 21
-169079.4358088573
 31
0.0
  0
LINE
  5
D5C44
330
D5C2A
100
AcDbEntity
  8
标注
 48
5.0
370
    -2
100
AcDbLine
 10
108236.1456739837
 20
-169021.6479018753
 30
0.0
 11
108236.1456739837
 21
-169079.4358088573
 31
0.0
  0
LINE
  5
D5C45
330
D5C2A
100
AcDbEntity
  8
标注
 48
5.0
370
    -2
100
AcDbLine
 10
107889.1456739837
 20
-169072.4358088573
 30
0.0
 11
108135.7456739837
 21
-169072.4358088573
 31
0.0
  0
LINE
  5
D5C46
330
D5C2A
100
AcDbEntity
  8
标注
 48
5.0
370
    -2
100
AcDbLine
 10
108226.1456739837
 20
-169072.4358088573
 30
0.0
 11
108160.3456739837
 21
-169072.4358088573
 31
0.0
  0
SOLID
  5
D5C47
330
D5C2A
100
AcDbEntity
  8
标注
 48
5.0
100
AcDbTrace
 10
107889.1456739837
 20
-169070.7691421907
 30
0.0
 11
107889.1456739837
 21
-169074.102475524
 31
0.0
 12
107879.1456739837
 22
-169072.4358088573
 32
0.0
 13
107879.1456739837
 23
-169072.4358088573
 33
0.0
  0
SOLID
  5
D5C48
330
D5C2A
100
AcDbEntity
  8
标注
 48
5.0
100
AcDbTrace
 10
108226.1456739837
 20
-169070.7691421907
 30
0.0
 11
108226.1456739837
 21
-169074.102475524
 31
0.0
 12
108236.1456739837
 22
-169072.4358088573
 32
0.0
 13
108236.1456739837
 23
-169072.4358088573
 33
0.0
  0
MTEXT
  5
D5C49
330
D5C2A
100
AcDbEntity
  8
标注
 48
5.0
100
AcDbMText
 10
108148.0456739837
 20
-169072.4358088573
 30
0.0
 40
12.0
 41
0.0
 71
     5
 72
     1
  1
\A1;357
 73
     1
 44
1.0
1001
ACAD
1000
MTEXTBEGIN
1070
    73
1070
     1
1070
    44
1040
1.0
1070
    74
1070
     0
1000
MTEXTEND
  0
POINT
  5
D5C4A
330
D5C2A
100
AcDbEntity
  8
Defpoints
 62
     0
 48
5.0
100
AcDbPoint
 10
107879.1456739837
 20
-169014.6479018753
 30
0.0
  0
POINT
  5
D5C4B
330
D5C2A
100
AcDbEntity
  8
Defpoints
 62
     0
 48
5.0
100
AcDbPoint
 10
108236.1456739837
 20
-169014.6479018753
 30
0.0
  0
POINT
  5
D5C4C
330
D5C2A
100
AcDbEntity
  8
Defpoints
 62
     0
 48
5.0
100
AcDbPoint
 10
108236.1456739837
 20
-169072.4358088573
 30
0.0
  0
ENDBLK
  5
D5C2C
330
D5C2A
100
AcDbEntity
  8
0
 48
5.0
100
AcDbBlockEnd
  0
ENDSEC
  0
SECTION
  2
ENTITIES
  0
CIRCLE
  5
D5ABF
102
{ACAD_REACTORS
330
D5AC3
102
}
330
1F
100
AcDbEntity
  8
虚线
 48
5.0
100
AcDbCircle
 10
108057.6366332127
 20
-169014.6544196403
 30
0.0
 40
192.4999999999993
  0
CIRCLE
  5
D5AC0
102
{ACAD_REACTORS
330
D5AC7
330
D5B86
330
D5C0F
102
}
330
1F
100
AcDbEntity
  8
0
100
AcDbCircle
 10
108057.6366332127
 20
-169014.6544196403
 30
0.0
 40
196.4999999999974
  0
DIMENSION
  5
D5AC1
102
{ACAD_XDICTIONARY
360
D5AC2
102
}
102
{ACAD_REACTORS
330
D5AC3
102
}
330
1F
100
AcDbEntity
  8
标注
100
AcDbDimension
  2
*D14
 10
107901.1488458613
 20
-169126.7607192397
 30
0.0
 11
108247.1453227724
 21
-168863.5156737433
 31
0.0
 70
    35
 71
     5
 42
385.0000000000146
  3
mav
100
AcDbDiametricDimension
 15
108214.124420564
 25
-168902.5481200409
 35
0.0
 40
0.0
1001
ACAD
1000
DSTYLE
1002
{
1070
   288
1070
     1
1002
}
  0
DIMENSION
  5
D5AC4
330
1F
100
AcDbEntity
  8
标注
100
AcDbDimension
  2
*D13
 10
108100.3447908072
 20
-169211.1544196403
 30
0.0
 11
108087.8447908072
 21
-169244.7377529736
 31
0.0
 70
    32
 71
     5
 42
4.0
  3
mav
100
AcDbAlignedDimension
 13
108057.6366332127
 23
-169207.1544196403
 33
0.0
 14
108057.6366332127
 24
-169211.1544196403
 34
0.0
 50
90.0
100
AcDbRotatedDimension
  0
DIMENSION
  5
D5AC5
102
{ACAD_XDICTIONARY
360
D5AC6
102
}
102
{ACAD_REACTORS
330
D5AC7
102
}
330
1F
100
AcDbEntity
  8
标注
100
AcDbDimension
  2
*D15
 10
107867.6978387277
 20
-169065.0082114499
 30
0.0
 11
108303.8654069818
 21
-168949.3778528097
 31
0.0
 70
   163
 71
     5
 42
392.9999999999927
  3
mav
100
AcDbDiametricDimension
 15
108247.5754276976
 25
-168964.3006278306
 35
0.0
 40
0.0
1001
ACAD
1000
DSTYLE
1002
{
1070
   288
1070
     1
1002
}
  0
LINE
  5
D5AFF
330
1F
100
AcDbEntity
  8
虚线
 48
5.0
100
AcDbLine
 10
107882.1456669035
 20
-169014.6544196403
 30
0.0
 11
108054.6366332127
 21
-169014.6544196403
 31
0.0
  0
LINE
  5
D5B00
330
1F
100
AcDbEntity
  8
虚线
 48
5.0
100
AcDbLine
 10
108057.6366332127
 20
-169190.1479154979
 30
0.0
 11
108057.6366332127
 21
-169017.6544196404
 31
0.0
  0
CIRCLE
  5
D5B01
102
{ACAD_REACTORS
330
D5B17
102
}
330
1F
100
AcDbEntity
  8
0
100
AcDbCircle
 10
108057.6366332127
 20
-169014.6544196404
 30
0.0
 40
3.0
  0
DIMENSION
  5
D5B02
102
{ACAD_XDICTIONARY
360
D5B0E
102
}
102
{ACAD_REACTORS
330
D5B17
102
}
330
1F
100
AcDbEntity
  8
标注
 48
5.0
100
AcDbDimension
  2
*D16
 10
108056.6633349646
 20
-169017.4921459344
 30
0.0
 11
108072.0034973306
 21
-168972.7667165152
 31
0.0
 70
   163
  1
{\fGulim|b0|i0|c129|p34;5-<>}
 71
     5
 42
6.0
  3
副本Standard
100
AcDbDiametricDimension
 15
108058.6099314609
 25
-169011.8166933462
 35
0.0
 40
0.0
1001
ACAD
1000
DSTYLE
1002
{
1070
    41
1040
10.0
1070
    49
1040
8.0
1070
   140
1040
12.0
1070
   147
1040
0.5
1070
   179
1070
     0
1070
   288
1070
     1
1070
   345
1005
15
1002
}
1001
ACAD_DSTYLE_DIMRADIAL_EXTENSION
1070
   387
1070
     1
1070
   388
1040
0.0
1070
   390
1040
0.0
  0
CIRCLE
  5
D5B18
102
{ACAD_REACTORS
330
D5C42
102
}
330
1F
100
AcDbEntity
  8
0
100
AcDbCircle
 10
107879.1456739837
 20
-169014.6479018753
 30
0.0
 40
3.0
  0
CIRCLE
  5
D5B19
102
{ACAD_REACTORS
330
D5BAB
102
}
330
1F
100
AcDbEntity
  8
0
100
AcDbCircle
 10
108057.6456739837
 20
-169193.1479018753
 30
0.0
 40
3.0
  0
CIRCLE
  5
D5B1A
102
{ACAD_REACTORS
330
D5C0F
102
}
330
1F
100
AcDbEntity
  8
0
100
AcDbCircle
 10
108236.1456739837
 20
-169014.6479018753
 30
0.0
 40
3.0
  0
CIRCLE
  5
D5B1B
102
{ACAD_REACTORS
330
D5B86
102
}
330
1F
100
AcDbEntity
  8
0
100
AcDbCircle
 10
108057.6456739837
 20
-168836.1479018753
 30
0.0
 40
3.0
  0
LINE
  5
D5B1C
330
1F
100
AcDbEntity
  8
虚线
 48
5.0
100
AcDbLine
 10
108057.6366332127
 20
-169011.6544196404
 30
0.0
 11
108057.6366332127
 21
-168839.1478882527
 31
0.0
  0
LINE
  5
D5B1D
330
1F
100
AcDbEntity
  8
虚线
 48
5.0
100
AcDbLine
 10
108060.6366332127
 20
-169014.6544196403
 30
0.0
 11
108233.1456810639
 21
-169014.6544196403
 31
0.0
  0
DIMENSION
  5
D5B69
102
{ACAD_XDICTIONARY
360
D5B79
102
}
102
{ACAD_REACTORS
330
D5B86
102
}
330
1F
100
AcDbEntity
  8
标注
 48
5.0
100
AcDbDimension
  2
*D17
 10
108033.258508354
 20
-168818.1544198923
 30
0.0
 11
108033.258508354
 21
-168790.5877532256
 31
0.0
 70
   160
 71
     5
 42
17.99348198296502
  3
副本Standard
100
AcDbAlignedDimension
 13
108057.6456739837
 23
-168836.1479018753
 33
0.0
 14
108057.6465852947
 24
-168818.1544198923
 34
0.0
 50
90.0
100
AcDbRotatedDimension
1001
ACAD
1000
DSTYLE
1002
{
1070
    41
1040
10.0
1070
    49
1040
8.0
1070
   140
1040
12.0
1070
   147
1040
0.5
1070
   179
1070
     0
1070
   345
1005
15
1002
}
  0
DIMENSION
  5
D5B92
102
{ACAD_XDICTIONARY
360
D5BA0
102
}
102
{ACAD_REACTORS
330
D5BAB
102
}
330
1F
100
AcDbEntity
  8
标注
 48
5.0
100
AcDbDimension
  2
*D18
 10
108003.6983381348
 20
-169193.1479018753
 30
0.0
 11
108003.6983381348
 21
-168929.5828269637
 31
0.0
 70
   160
 71
     5
 42
357.0
  3
副本Standard
100
AcDbAlignedDimension
 13
108057.6456739837
 23
-168836.1479018753
 33
0.0
 14
108057.6456739837
 24
-169193.1479018753
 34
0.0
 50
90.0
100
AcDbRotatedDimension
1001
ACAD
1000
DSTYLE
1002
{
1070
    41
1040
10.0
1070
    49
1040
8.0
1070
   140
1040
12.0
1070
   147
1040
0.5
1070
   179
1070
     0
1070
   345
1005
15
1002
}
  0
DIMENSION
  5
D5BCA
330
1F
100
AcDbEntity
  8
标注
 48
5.0
100
AcDbDimension
  2
*D19
 10
108033.258508354
 20
-169014.6544196403
 30
0.0
 11
108033.258508354
 21
-168925.4011607578
 31
0.0
 70
    32
 71
     5
 42
178.5065177650249
  3
副本Standard
100
AcDbAlignedDimension
 13
108057.6456739837
 23
-168836.1479018753
 33
0.0
 14
108057.6366332127
 24
-169014.6544196403
 34
0.0
 50
90.0
100
AcDbRotatedDimension
1001
ACAD
1000
DSTYLE
1002
{
1070
    41
1040
10.0
1070
    49
1040
8.0
1070
   140
1040
12.0
1070
   147
1040
0.5
1070
   179
1070
     0
1070
   345
1005
15
1002
}
  0
DIMENSION
  5
D5BF2
102
{ACAD_XDICTIONARY
360
D5C02
102
}
102
{ACAD_REACTORS
330
D5C0F
102
}
330
1F
100
AcDbEntity
  8
标注
 48
5.0
100
AcDbDimension
  2
*D20
 10
108254.1366330817
 20
-169042.6426672503
 30
0.0
 11
108286.5103066141
 21
-169042.6426672503
 31
0.0
 70
   160
 71
     5
 42
17.99095909800962
  3
副本Standard
100
AcDbAlignedDimension
 13
108236.1456739837
 23
-169014.6479018753
 33
0.0
 14
108254.1366330817
 24
-169014.6472449851
 34
0.0
100
AcDbRotatedDimension
1001
ACAD
1000
DSTYLE
1002
{
1070
    41
1040
10.0
1070
    49
1040
8.0
1070
   140
1040
12.0
1070
   147
1040
0.5
1070
   179
1070
     0
1070
   345
1005
15
1002
}
  0
DIMENSION
  5
D5C1B
330
1F
100
AcDbEntity
  8
标注
 48
5.0
100
AcDbDimension
  2
*D21
 10
108236.1456739837
 20
-169042.6426672503
 30
0.0
 11
108146.8911535982
 21
-169042.6426672503
 31
0.0
 70
    32
 71
     5
 42
178.5090407710521
  3
副本Standard
100
AcDbAlignedDimension
 13
108057.6366332127
 23
-169014.6544196404
 33
0.0
 14
108236.1456739837
 24
-169014.6479018753
 34
0.0
100
AcDbRotatedDimension
1001
ACAD
1000
DSTYLE
1002
{
1070
    41
1040
10.0
1070
    49
1040
8.0
1070
   140
1040
12.0
1070
   147
1040
0.5
1070
   179
1070
     0
1070
   345
1005
15
1002
}
  0
DIMENSION
  5
D5C29
102
{ACAD_XDICTIONARY
360
D5C37
102
}
102
{ACAD_REACTORS
330
D5C42
102
}
330
1F
100
AcDbEntity
  8
标注
 48
5.0
100
AcDbDimension
  2
*D22
 10
108236.1456739837
 20
-169072.4358088573
 30
0.0
 11
108148.0456739837
 21
-169072.4358088573
 31
0.0
 70
   160
 71
     5
 42
357.0
  3
副本Standard
100
AcDbAlignedDimension
 13
107879.1456739837
 23
-169014.6479018753
 33
0.0
 14
108236.1456739837
 24
-169014.6479018753
 34
0.0
100
AcDbRotatedDimension
1001
ACAD
1000
DSTYLE
1002
{
1070
    41
1040
10.0
1070
    49
1040
8.0
1070
   140
1040
12.0
1070
   147
1040
0.5
1070
   179
1070
     0
1070
   345
1005
15
1002
}
  0
ENDSEC
  0
SECTION
  2
OBJECTS
  0
DICTIONARY
  5
C
330
0
100
AcDbDictionary
281
     1
  3
ACAD_2007HEADERVARS_RT
350
D5D12
  3
ACAD_COLOR
350
6C
  3
ACAD_GROUP
350
D
  3
ACAD_LAYOUT
350
1A
  3
ACAD_MATERIAL
350
6B
  3
ACAD_MLEADERSTYLE
350
CEDBA
  3
ACAD_MLINESTYLE
350
17
  3
ACAD_PLOTSETTINGS
350
19
  3
ACAD_PLOTSTYLENAME
350
E
  3
ACAD_SCALELIST
350
CED98
  3
ACAD_TABLESTYLE
350
FAF
  3
ACAD_VISUALSTYLE
350
CED87
  3
AcadDim
350
100FD
  3
ACDB_RECOMPOSE_DATA
350
D0C4C
  3
AcDbVariableDictionary
350
59
  3
ASE_INDEX_DICTIONARY
350
C2668
  3
DWGPROPS
350
D5D11
  3
lxx_dict
350
A9D16
  0
DICTIONARY
  5
AB
330
2
100
AcDbDictionary
280
     1
281
     1
  3
ACAD_LAYERFILTERS
360
176
  3
ACAD_LAYERSTATES
360
AC
  0
DICTIONARY
  5
CF251
330
10
100
AcDbDictionary
280
     1
281
     1
  3
ADSK_XREC_LAYER_RECONCILED
360
CF252
  0
DICTIONARY
  5
CF259
330
9D
100
AcDbDictionary
280
     1
281
     1
  3
ADSK_XREC_LAYER_RECONCILED
360
CF25A
  0
DICTIONARY
  5
CF25B
330
9E
100
AcDbDictionary
280
     1
281
     1
  3
ADSK_XREC_LAYER_RECONCILED
360
CF25C
  0
DICTIONARY
  5
CF25D
330
16DF9
100
AcDbDictionary
280
     1
281
     1
  3
ADSK_XREC_LAYER_RECONCILED
360
CF25E
  0
DICTIONARY
  5
118B
330
1F
100
AcDbDictionary
280
     1
281
     1
  3
ACAD_SORTENTS
360
118C
  0
DICTIONARY
  5
D5709
330
D56DE
100
AcDbDictionary
280
     1
281
     1
  3
ACAD_SORTENTS
360
D570A
  0
DICTIONARY
  5
D56F1
330
D56F0
100
AcDbDictionary
280
     1
281
     1
  3
ACAD_DIMASSOC
360
D56F2
  0
DICTIONARY
  5
D56F4
330
D56F3
100
AcDbDictionary
280
     1
281
     1
  3
ACAD_DIMASSOC
360
D56F5
  0
DICTIONARY
  5
D56F7
330
D56F6
100
AcDbDictionary
280
     1
281
     1
  3
ACAD_DIMASSOC
360
D56F8
  0
DICTIONARY
  5
D56FA
330
D56F9
100
AcDbDictionary
280
     1
281
     1
  3
ACAD_DIMASSOC
360
D56FB
  0
DICTIONARY
  5
D56FD
330
D56FC
100
AcDbDictionary
280
     1
281
     1
  3
ACAD_DIMASSOC
360
D56FE
  0
DICTIONARY
  5
D5701
330
D5700
100
AcDbDictionary
280
     1
281
     1
  3
ACAD_DIMASSOC
360
D5702
  0
DICTIONARY
  5
D5704
330
D5703
100
AcDbDictionary
280
     1
281
     1
  3
ACAD_DIMASSOC
360
D5705
  0
DICTIONARY
  5
D5707
330
D5706
100
AcDbDictionary
280
     1
281
     1
  3
ACAD_DIMASSOC
360
D5708
  0
DICTIONARY
  5
D5D1F
330
D5CFA
100
AcDbDictionary
280
     1
281
     1
  3
ACAD_MTEXT_RT
360
D5D20
  0
DICTIONARY
  5
D5D21
330
D5D0A
100
AcDbDictionary
280
     1
281
     1
  3
ACAD_MTEXT_RT
360
D5D22
  0
DICTIONARY
  5
D5D1D
330
D5BEC
100
AcDbDictionary
280
     1
281
     1
  3
ACAD_MTEXT_RT
360
D5D1E
  0
DICTIONARY
  5
D5AC2
330
D5AC1
100
AcDbDictionary
280
     1
281
     1
  3
ACAD_DIMASSOC
360
D5AC3
  0
DICTIONARY
  5
D5AC6
330
D5AC5
100
AcDbDictionary
280
     1
281
     1
  3
ACAD_DIMASSOC
360
D5AC7
  0
DICTIONARY
  5
D5B0E
330
D5B02
100
AcDbDictionary
280
     1
281
     1
  3
ACAD_DIMASSOC
360
D5B17
  0
DICTIONARY
  5
D5B79
330
D5B69
100
AcDbDictionary
280
     1
281
     1
  3
ACAD_DIMASSOC
360
D5B86
  0
DICTIONARY
  5
D5BA0
330
D5B92
100
AcDbDictionary
280
     1
281
     1
  3
ACAD_DIMASSOC
360
D5BAB
  0
DICTIONARY
  5
D5C02
330
D5BF2
100
AcDbDictionary
280
     1
281
     1
  3
ACAD_DIMASSOC
360
D5C0F
  0
DICTIONARY
  5
D5C37
330
D5C29
100
AcDbDictionary
280
     1
281
     1
  3
ACAD_DIMASSOC
360
D5C42
  0
DICTIONARY
  5
D5D12
102
{ACAD_REACTORS
330
C
102
}
330
C
100
AcDbDictionary
281
     1
  3
DIMFXL
350
D5D13
  3
DIMJOGANG
350
D5D14
  3
DIMLTYPE
350
D5D15
  0
DICTIONARY
  5
6C
102
{ACAD_REACTORS
330
C
102
}
330
C
100
AcDbDictionary
281
     1
  0
DICTIONARY
  5
D
102
{ACAD_REACTORS
330
C
102
}
330
C
100
AcDbDictionary
281
     1
  0
DICTIONARY
  5
1A
102
{ACAD_REACTORS
330
C
102
}
330
C
100
AcDbDictionary
281
     1
  3
Model
350
22
  3
布局1
350
74
  3
布局2
350
79
  0
DICTIONARY
  5
6B
102
{ACAD_REACTORS
330
C
102
}
330
C
100
AcDbDictionary
281
     1
  3
ByBlock
350
CED77
  3
ByLayer
350
CED6F
  3
Global
350
CED7F
  0
DICTIONARY
  5
CEDBA
102
{ACAD_REACTORS
330
C
102
}
330
C
100
AcDbDictionary
281
     1
  3
Standard
350
CEDBB
  0
DICTIONARY
  5
17
102
{ACAD_REACTORS
330
C
102
}
330
C
100
AcDbDictionary
281
     1
  3
Standard
350
18
  0
DICTIONARY
  5
19
102
{ACAD_REACTORS
330
C
102
}
330
C
100
AcDbDictionary
281
     1
  0
ACDBDICTIONARYWDFLT
  5
E
102
{ACAD_REACTORS
330
C
102
}
330
C
100
AcDbDictionary
281
     1
  3
Normal
350
F
100
AcDbDictionaryWithDefault
340
F
  0
DICTIONARY
  5
CED98
102
{ACAD_REACTORS
330
C
102
}
330
C
100
AcDbDictionary
281
     1
  3
A0
350
CED99
  3
A1
350
CED9A
  3
A2
350
CED9B
  3
A3
350
CED9C
  3
A4
350
CED9D
  3
A5
350
CED9E
  3
A6
350
CED9F
  3
A7
350
CEDA0
  3
A8
350
CEDA1
  3
A9
350
CEDA2
  3
B0
350
CEDA3
  3
B1
350
CEDA4
  3
B2
350
CEDA5
  3
B3
350
CEDA6
  3
B4
350
CEDA7
  3
B5
350
CEDA8
  3
B6
350
CEDA9
  3
B7
350
CEDAA
  3
B8
350
CEDAB
  3
B9
350
CEDAC
  3
C0
350
CEDAD
  3
C1
350
CEDAE
  3
C2
350
CEDAF
  3
C3
350
CEDB0
  3
C4
350
CEDB1
  3
C5
350
CEDB2
  3
C6
350
CEDB3
  3
C7
350
CEDB4
  3
C8
350
CEDB5
  3
C9
350
CEDB6
  3
D0
350
CEDB7
  3
D1
350
CEDB8
  3
D2
350
CEDB9
  0
DICTIONARY
  5
FAF
102
{ACAD_REACTORS
330
C
102
}
330
C
100
AcDbDictionary
281
     1
  3
Standard
350
FB0
  0
DICTIONARY
  5
CED87
102
{ACAD_REACTORS
330
C
102
}
330
C
100
AcDbDictionary
281
     1
  3
2dWireframe
350
CED8D
  3
3D Hidden
350
CED8F
  3
3dWireframe
350
CED8E
  3
Basic
350
CED8C
  3
Brighten
350
CED93
  3
ColorChange
350
CED97
  3
Conceptual
350
CED90
  3
Dim
350
CED92
  3
Facepattern
350
CED96
  3
Flat
350
CED88
  3
FlatWithEdges
350
CED89
  3
Gouraud
350
CED8A
  3
GouraudWithEdges
350
CED8B
  3
Linepattern
350
CED95
  3
Realistic
350
CED91
  3
Thicken
350
CED94
  0
XRECORD
  5
100FD
102
{ACAD_REACTORS
330
C
102
}
330
C
100
AcDbXrecord
280
     1
 90
   990106
  3

 60
     0
 61
     0
 62
     1
 63
     3
 64
     0
 65
     0
 66
     0
 67
     3
 68
     1
 69
     0
 70
     0
 71
     0
 72
     0
 40
0.0
170
     0
  0
XRECORD
  5
D0C4C
102
{ACAD_REACTORS
330
C
102
}
330
C
100
AcDbXrecord
280
     1
 90
        1
330
FB0
  0
DICTIONARY
  5
59
102
{ACAD_REACTORS
330
C
102
}
330
C
100
AcDbDictionary
281
     1
  3
CANNOSCALE
350
D0C4F
  3
CMLEADERSTYLE
350
D0C4D
  3
CTABLESTYLE
350
100D
  3
DIMASSOC
350
5A
  3
HIDETEXT
350
5E
  3
INDEXCTL
350
D5C9E
  3
LIGHTINGUNITS
350
D0C50
  3
MSLTSCALE
350
D0C4E
  3
SORTENTS
350
D5C9D
  0
DICTIONARY
  5
C2668
102
{ACAD_REACTORS
330
C
102
}
330
C
100
AcDbDictionary
281
     1
  3
ASEBlockHierarchyIndexRecord
350
C2669
1001
DCO15
1040
1779131318.625
  0
XRECORD
  5
D5D11
102
{ACAD_REACTORS
330
C
102
}
330
C
100
AcDbXrecord
280
     1
  1
DWGPROPS COOKIE
  2

  3

  4

  6

  7

  8
Administrator
  9

300
=
301
=
302
=
303
=
304
=
305
=
306
=
307
=
308
=
309
=
 40
8.825870104166666
 41
2454355.343801713
 42
2457938.59822625
  1

 90
        0
  0
DICTIONARY
  5
A9D16
102
{ACAD_REACTORS
330
C
102
}
330
C
100
AcDbDictionary
281
     1
  3
lxx_dimth
350
A9D17
  0
DICTIONARY
  5
176
102
{ACAD_REACTORS
330
AB
102
}
330
AB
100
AcDbDictionary
281
     1
  0
DICTIONARY
  5
AC
102
{ACAD_REACTORS
330
AB
102
}
330
AB
100
AcDbDictionary
281
     1
  0
XRECORD
  5
CF252
102
{ACAD_REACTORS
330
CF251
102
}
330
CF251
100
AcDbXrecord
280
     1
290
     1
  0
XRECORD
  5
CF25A
102
{ACAD_REACTORS
330
CF259
102
}
330
CF259
100
AcDbXrecord
280
     1
290
     1
  0
XRECORD
  5
CF25C
102
{ACAD_REACTORS
330
CF25B
102
}
330
CF25B
100
AcDbXrecord
280
     1
290
     1
  0
XRECORD
  5
CF25E
102
{ACAD_REACTORS
330
CF25D
102
}
330
CF25D
100
AcDbXrecord
280
     1
290
     1
  0
SORTENTSTABLE
  5
118C
102
{ACAD_REACTORS
330
118B
102
}
330
118B
100
AcDbSortentsTable
330
1F
331
D5B1B
  5
D5B1D
331
D5B1C
  5
D5B02
331
D5B00
  5
D5B01
331
D5B1D
  5
D5B00
331
D5AC0
  5
D5AC0
331
D5B01
  5
D5B18
331
D5AC1
  5
D5AC1
331
D5B02
  5
D5B19
331
D5ABF
  5
D5ABF
331
D5AFF
  5
D5AFF
331
D5B18
  5
D5B1A
331
D5B19
  5
D5B1B
331
D5AC4
  5
D5AC4
331
D5B1A
  5
D5B1C
331
D5AC5
  5
D5AC5
  0
SORTENTSTABLE
  5
D570A
102
{ACAD_REACTORS
330
D5709
102
}
330
D5709
100
AcDbSortentsTable
330
D56DE
  0
DIMASSOC
  5
D56F2
102
{ACAD_REACTORS
330
D56F1
102
}
330
D56F1
100
AcDbDimAssoc
330
D56F0
 90
        3
 70
     0
 71
     0
  1
AcDbOsnapPointRef
 72
     6
331
D56E9
 73
     2
 91
        0
 40
3.084002000345922
 10
0.0
 20
0.0
 30
0.0
332
D56DF
 74
     2
 92
        0
 75
     0
  1
AcDbOsnapPointRef
 72
     6
331
D56EA
 73
     2
 91
        0
 40
3.084129837169629
 10
0.0
 20
0.0
 30
0.0
332
D56E0
 74
     2
 92
        0
 75
     0
  0
DIMASSOC
  5
D56F5
102
{ACAD_REACTORS
330
D56F4
102
}
330
D56F4
100
AcDbDimAssoc
330
D56F3
 90
        3
 70
     0
 71
     0
  1
AcDbOsnapPointRef
 72
     2
331
D56EB
 73
     2
 91
        0
 40
6.283185307179585
 10
0.0
 20
0.0
 30
0.0
 75
     0
  1
AcDbOsnapPointRef
 72
     2
331
D56E9
 73
     2
 91
        0
 40
3.141592653589792
 10
0.0
 20
0.0
 30
0.0
 75
     0
  0
DIMASSOC
  5
D56F8
102
{ACAD_REACTORS
330
D56F7
102
}
330
D56F7
100
AcDbDimAssoc
330
D56F6
 90
        3
 70
     0
 71
     0
  1
AcDbOsnapPointRef
 72
     2
331
D56EC
 73
     2
 91
        0
 40
6.283185307179585
 10
0.0
 20
0.0
 30
0.0
 75
     0
  1
AcDbOsnapPointRef
 72
     2
331
D56EA
 73
     2
 91
        0
 40
3.141592653589792
 10
0.0
 20
0.0
 30
0.0
 75
     0
  0
DIMASSOC
  5
D56FB
102
{ACAD_REACTORS
330
D56FA
102
}
330
D56FA
100
AcDbDimAssoc
330
D56F9
 90
        3
 70
     0
 71
     0
  1
AcDbOsnapPointRef
 72
     2
331
D56ED
 73
     2
 91
        0
 40
4.712388980384688
 10
0.0
 20
0.0
 30
0.0
 75
     0
  1
AcDbOsnapPointRef
 72
     2
331
D56E7
 73
     2
 91
        0
 40
1.570796326794896
 10
0.0
 20
0.0
 30
0.0
 75
     0
  0
DIMASSOC
  5
D56FE
102
{ACAD_REACTORS
330
D56FD
102
}
330
D56FD
100
AcDbDimAssoc
330
D56FC
 90
        3
 70
     0
 71
     0
  1
AcDbOsnapPointRef
 72
     2
331
D56E8
 73
     2
 91
        0
 40
1.570796326794896
 10
0.0
 20
0.0
 30
0.0
 75
     0
  1
AcDbOsnapPointRef
 72
     2
331
D56EE
 73
     2
 91
        0
 40
4.712388980384688
 10
0.0
 20
0.0
 30
0.0
 75
     0
  0
DIMASSOC
  5
D5702
102
{ACAD_REACTORS
330
D5701
102
}
330
D5701
100
AcDbDimAssoc
330
D5700
 90
        2
 70
     0
 71
     0
  1
AcDbOsnapPointRef
 72
     3
331
D56E7
 73
     2
 91
        0
 40
0.0
 10
0.0
 20
0.0
 30
0.0
 75
     0
  0
DIMASSOC
  5
D5705
102
{ACAD_REACTORS
330
D5704
102
}
330
D5704
100
AcDbDimAssoc
330
D5703
 90
        2
 70
     0
 71
     0
  1
AcDbOsnapPointRef
 72
     3
331
D56E9
 73
     2
 91
        0
 40
0.0
 10
0.0
 20
0.0
 30
0.0
 75
     0
  0
DIMASSOC
  5
D5708
102
{ACAD_REACTORS
330
D5707
102
}
330
D5707
100
AcDbDimAssoc
330
D5706
 90
        3
 70
     0
 71
     0
  1
AcDbOsnapPointRef
 72
     1
331
D56EC
 73
     2
 91
        0
 40
6.340775960423651
 10
0.0
 20
0.0
 30
2.000000000000000E+50
 75
     0
  1
AcDbOsnapPointRef
 72
     1
331
D56EB
 73
     2
 91
        0
 40
6.340775960423651
 10
0.0
 20
0.0
 30
2.000000000000000E+50
 75
     0
  0
XRECORD
  5
D5D20
102
{ACAD_REACTORS
330
D5D1F
102
}
330
D5D1F
100
AcDbXrecord
280
     1
 40
2942.0
  1
\U+2205385
  0
XRECORD
  5
D5D22
102
{ACAD_REACTORS
330
D5D21
102
}
330
D5D21
100
AcDbXrecord
280
     1
 40
2931.0
  1
\U+2205393
  0
XRECORD
  5
D5D1E
102
{ACAD_REACTORS
330
D5D1D
102
}
330
D5D1D
100
AcDbXrecord
280
     1
 40
57865.0
  1
\A1;{\fGulim|b0|i0|c129|p34;5-\U+22056}
  0
DIMASSOC
  5
D5AC3
102
{ACAD_REACTORS
330
D5AC2
102
}
330
D5AC2
100
AcDbDimAssoc
330
D5AC1
 90
        2
 70
     0
 71
     0
  1
AcDbOsnapPointRef
 72
     3
331
D5ABF
 73
     2
 91
        0
 40
0.0
 10
0.0
 20
0.0
 30
0.0
 75
     0
  0
DIMASSOC
  5
D5AC7
102
{ACAD_REACTORS
330
D5AC6
102
}
330
D5AC6
100
AcDbDimAssoc
330
D5AC5
 90
        2
 70
     0
 71
     0
  1
AcDbOsnapPointRef
 72
     3
331
D5AC0
 73
     2
 91
        0
 40
0.0
 10
0.0
 20
0.0
 30
0.0
 75
     0
  0
DIMASSOC
  5
D5B17
102
{ACAD_REACTORS
330
D5B0E
102
}
330
D5B0E
100
AcDbDimAssoc
330
D5B02
 90
        2
 70
     0
 71
     0
  1
AcDbOsnapPointRef
 72
     3
331
D5B01
 73
     2
 91
        0
 40
0.0
 10
0.0
 20
0.0
 30
0.0
 75
     0
  0
DIMASSOC
  5
D5B86
102
{ACAD_REACTORS
330
D5B79
102
}
330
D5B79
100
AcDbDimAssoc
330
D5B69
 90
        3
 70
     0
 71
     0
  1
AcDbOsnapPointRef
 72
     3
331
D5B1B
 73
     2
 91
        0
 40
0.0
 10
0.0
 20
0.0
 30
0.0
 75
     0
  1
AcDbOsnapPointRef
 72
     8
331
D5AC0
 73
     2
 91
        0
 40
1.570745680067174
 10
0.0
 20
0.0
 30
0.0
 75
     1
  1
AcDbOsnapPointRef
 72
     3
331
D5B1B
 73
     2
 91
        0
 40
0.0
 10
0.0
 20
0.0
 30
0.0
 75
     0
  0
DIMASSOC
  5
D5BAB
102
{ACAD_REACTORS
330
D5BA0
102
}
330
D5BA0
100
AcDbDimAssoc
330
D5B92
 90
        2
 70
     0
 71
     0
  1
AcDbOsnapPointRef
 72
     3
331
D5B19
 73
     2
 91
        0
 40
0.0
 10
0.0
 20
0.0
 30
0.0
 75
     0
  0
DIMASSOC
  5
D5C0F
102
{ACAD_REACTORS
330
D5C02
102
}
330
D5C02
100
AcDbDimAssoc
330
D5BF2
 90
        3
 70
     0
 71
     0
  1
AcDbOsnapPointRef
 72
     3
331
D5B1A
 73
     2
 91
        0
 40
0.0
 10
0.0
 20
0.0
 30
0.0
 75
     0
  1
AcDbOsnapPointRef
 72
     8
331
D5AC0
 73
     2
 91
        0
 40
0.000036512240426
 10
0.0
 20
0.0
 30
0.0
 75
     1
  1
AcDbOsnapPointRef
 72
     3
331
D5B1A
 73
     2
 91
        0
 40
0.0
 10
0.0
 20
0.0
 30
0.0
 75
     0
  0
DIMASSOC
  5
D5C42
102
{ACAD_REACTORS
330
D5C37
102
}
330
D5C37
100
AcDbDimAssoc
330
D5C29
 90
        1
 70
     0
 71
     0
  1
AcDbOsnapPointRef
 72
     3
331
D5B18
 73
     2
 91
        0
 40
0.0
 10
0.0
 20
0.0
 30
0.0
 75
     0
  0
XRECORD
  5
D5D13
102
{ACAD_REACTORS
330
D5D12
102
}
330
D5D12
100
AcDbXrecord
280
     1
 40
1.25
  0
XRECORD
  5
D5D14
102
{ACAD_REACTORS
330
D5D12
102
}
330
D5D12
100
AcDbXrecord
280
     1
 40
1.570796326794896
  0
XRECORD
  5
D5D15
102
{ACAD_REACTORS
330
D5D12
102
}
330
D5D12
100
AcDbXrecord
280
     1
340
15
  0
LAYOUT
  5
22
102
{ACAD_XDICTIONARY
360
D5D16
102
}
102
{ACAD_REACTORS
330
1A
102
}
330
1A
100
AcDbPlotSettings
  1

  2
\\PC-201204061032\Canon LBP2900
  4
A4
  6

 40
5.873749732971191
 41
6.805091857910156
 42
5.873748779296875
 43
4.857757568359375
 44
209.9733276367186
 45
296.9259948730469
 46
-5.889999999999998
 47
-5.87
 48
85766.02374884076
 49
-163980.7810393121
140
88736.02374884079
141
-161880.7810393122
142
1.0
143
10.0
 70
 11940
 72
     1
 73
     1
 74
     4
  7
monochrome.ctb
 75
     0
147
0.1
148
-85766.02374884076
149
163980.7810393121
100
AcDbLayout
  1
Model
 70
     1
 71
     0
 10
0.0
 20
0.0
 11
12.0
 21
9.0
 12
0.0
 22
0.0
 32
0.0
 14
0.0
 24
0.0
 34
0.0
 15
0.0
 25
0.0
 35
0.0
146
0.0
 13
0.0
 23
0.0
 33
0.0
 16
1.0
 26
0.0
 36
0.0
 17
0.0
 27
1.0
 37
0.0
 76
     0
330
1F
331
CED6D
  0
LAYOUT
  5
74
102
{ACAD_XDICTIONARY
360
D5D18
102
}
102
{ACAD_REACTORS
330
1A
102
}
330
1A
100
AcDbPlotSettings
  1

  2
\\ADSCCNDC1\hq601xrx1
  4

  6

 40
0.0
 41
0.0
 42
0.0
 43
0.0
 44
0.0
 45
0.0
 46
0.0
 47
0.0
 48
0.0
 49
0.0
140
0.0
141
0.0
142
1.0
143
1.0
 70
   688
 72
     0
 73
     0
 74
     5
  7
monochrome.ctb
 75
    16
147
1.0
148
0.0
149
0.0
100
AcDbLayout
  1
布局1
 70
     1
 71
     1
 10
0.0
 20
0.0
 11
12.0
 21
9.0
 12
0.0
 22
0.0
 32
0.0
 14
0.0
 24
0.0
 34
0.0
 15
0.0
 25
0.0
 35
0.0
146
0.0
 13
0.0
 23
0.0
 33
0.0
 16
1.0
 26
0.0
 36
0.0
 17
0.0
 27
1.0
 37
0.0
 76
     0
330
73
  0
LAYOUT
  5
79
102
{ACAD_XDICTIONARY
360
D5D1A
102
}
102
{ACAD_REACTORS
330
1A
102
}
330
1A
100
AcDbPlotSettings
  1

  2
\\ADSCCNDC1\hq601xrx1
  4

  6

 40
0.0
 41
0.0
 42
0.0
 43
0.0
 44
0.0
 45
0.0
 46
0.0
 47
0.0
 48
0.0
 49
0.0
140
0.0
141
0.0
142
1.0
143
1.0
 70
   688
 72
     0
 73
     0
 74
     5
  7
monochrome.ctb
 75
    16
147
1.0
148
0.0
149
0.0
100
AcDbLayout
  1
布局2
 70
     1
 71
     2
 10
0.0
 20
0.0
 11
12.0
 21
9.0
 12
0.0
 22
0.0
 32
0.0
 14
0.0
 24
0.0
 34
0.0
 15
0.0
 25
0.0
 35
0.0
146
0.0
 13
0.0
 23
0.0
 33
0.0
 16
1.0
 26
0.0
 36
0.0
 17
0.0
 27
1.0
 37
0.0
 76
     0
330
78
  0
MATERIAL
  5
CED77
102
{ACAD_XDICTIONARY
360
CED78
102
}
102
{ACAD_REACTORS
330
6B
102
}
330
6B
100
AcDbMaterial
  1
ByBlock
 72
     0
 43
0.0208333333333333
 43
0.0
 43
0.0
 43
0.0
 43
0.0
 43
0.0208333333333333
 43
0.0
 43
0.0
 43
0.0
 43
0.0
 43
1.0
 43
0.0
 43
0.0
 43
0.0
 43
0.0
 43
1.0
 77
     0
 47
0.0208333333333333
 47
0.0
 47
0.0
 47
0.0
 47
0.0
 47
0.0208333333333333
 47
0.0
 47
0.0
 47
0.0
 47
0.0
 47
1.0
 47
0.0
 47
0.0
 47
0.0
 47
0.0
 47
1.0
171
     0
 49
0.0208333333333333
 49
0.0
 49
0.0
 49
0.0
 49
0.0
 49
0.0208333333333333
 49
0.0
 49
0.0
 49
0.0
 49
0.0
 49
1.0
 49
0.0
 49
0.0
 49
0.0
 49
0.0
 49
1.0
175
     0
142
0.0208333333333333
142
0.0
142
0.0
142
0.0
142
0.0
142
0.0208333333333333
142
0.0
142
0.0
142
0.0
142
0.0
142
1.0
142
0.0
142
0.0
142
0.0
142
0.0
142
1.0
179
     0
144
0.0208333333333333
144
0.0
144
0.0
144
0.0
144
0.0
144
0.0208333333333333
144
0.0
144
0.0
144
0.0
144
0.0
144
1.0
144
0.0
144
0.0
144
0.0
144
0.0
144
1.0
147
0.0208333333333333
147
0.0
147
0.0
147
0.0
147
0.0
147
0.0208333333333333
147
0.0
147
0.0
147
0.0
147
0.0
147
1.0
147
0.0
147
0.0
147
0.0
147
0.0
147
1.0
  0
MATERIAL
  5
CED6F
102
{ACAD_XDICTIONARY
360
CED70
102
}
102
{ACAD_REACTORS
330
6B
102
}
330
6B
100
AcDbMaterial
  1
ByLayer
 72
     0
 43
0.0208333333333333
 43
0.0
 43
0.0
 43
0.0
 43
0.0
 43
0.0208333333333333
 43
0.0
 43
0.0
 43
0.0
 43
0.0
 43
1.0
 43
0.0
 43
0.0
 43
0.0
 43
0.0
 43
1.0
 77
     0
 47
0.0208333333333333
 47
0.0
 47
0.0
 47
0.0
 47
0.0
 47
0.0208333333333333
 47
0.0
 47
0.0
 47
0.0
 47
0.0
 47
1.0
 47
0.0
 47
0.0
 47
0.0
 47
0.0
 47
1.0
171
     0
 49
0.0208333333333333
 49
0.0
 49
0.0
 49
0.0
 49
0.0
 49
0.0208333333333333
 49
0.0
 49
0.0
 49
0.0
 49
0.0
 49
1.0
 49
0.0
 49
0.0
 49
0.0
 49
0.0
 49
1.0
175
     0
142
0.0208333333333333
142
0.0
142
0.0
142
0.0
142
0.0
142
0.0208333333333333
142
0.0
142
0.0
142
0.0
142
0.0
142
1.0
142
0.0
142
0.0
142
0.0
142
0.0
142
1.0
179
     0
144
0.0208333333333333
144
0.0
144
0.0
144
0.0
144
0.0
144
0.0208333333333333
144
0.0
144
0.0
144
0.0
144
0.0
144
1.0
144
0.0
144
0.0
144
0.0
144
0.0
144
1.0
147
0.0208333333333333
147
0.0
147
0.0
147
0.0
147
0.0
147
0.0208333333333333
147
0.0
147
0.0
147
0.0
147
0.0
147
1.0
147
0.0
147
0.0
147
0.0
147
0.0
147
1.0
  0
MATERIAL
  5
CED7F
102
{ACAD_XDICTIONARY
360
CED80
102
}
102
{ACAD_REACTORS
330
6B
102
}
330
6B
100
AcDbMaterial
  1
Global
 72
     0
 43
0.0208333333333333
 43
0.0
 43
0.0
 43
0.0
 43
0.0
 43
0.0208333333333333
 43
0.0
 43
0.0
 43
0.0
 43
0.0
 43
1.0
 43
0.0
 43
0.0
 43
0.0
 43
0.0
 43
1.0
 77
     0
 47
0.0208333333333333
 47
0.0
 47
0.0
 47
0.0
 47
0.0
 47
0.0208333333333333
 47
0.0
 47
0.0
 47
0.0
 47
0.0
 47
1.0
 47
0.0
 47
0.0
 47
0.0
 47
0.0
 47
1.0
171
     0
 49
0.0208333333333333
 49
0.0
 49
0.0
 49
0.0
 49
0.0
 49
0.0208333333333333
 49
0.0
 49
0.0
 49
0.0
 49
0.0
 49
1.0
 49
0.0
 49
0.0
 49
0.0
 49
0.0
 49
1.0
175
     0
142
0.0208333333333333
142
0.0
142
0.0
142
0.0
142
0.0
142
0.0208333333333333
142
0.0
142
0.0
142
0.0
142
0.0
142
1.0
142
0.0
142
0.0
142
0.0
142
0.0
142
1.0
179
     0
144
0.0208333333333333
144
0.0
144
0.0
144
0.0
144
0.0
144
0.0208333333333333
144
0.0
144
0.0
144
0.0
144
0.0
144
1.0
144
0.0
144
0.0
144
0.0
144
0.0
144
1.0
147
0.0208333333333333
147
0.0
147
0.0
147
0.0
147
0.0
147
0.0208333333333333
147
0.0
147
0.0
147
0.0
147
0.0
147
1.0
147
0.0
147
0.0
147
0.0
147
0.0
147
1.0
  0
MLEADERSTYLE
  5
CEDBB
102
{ACAD_REACTORS
330
CEDBA
102
}
330
CEDBA
100
AcDbMLeaderStyle
170
     2
171
     1
172
     0
 90
        2
 40
0.0
 41
0.0
173
     1
 91
-1056964608
340
14
 92
       -2
290
     1
 42
0.09
291
     1
 43
0.36
  3
Standard
 44
0.18
300

342
11
174
     1
178
     6
175
     1
176
     0
 93
-1056964608
 45
0.18
292
     0
297
     0
 46
0.18
 94
-1056964608
 47
1.0
 49
1.0
140
1.0
293
     1
141
0.0
294
     1
177
     0
142
1.0
295
     0
296
     0
143
0.125
1001
ACAD_MLEADERVER
1070
     2
  0
MLINESTYLE
  5
18
102
{ACAD_REACTORS
330
17
102
}
330
17
100
AcDbMlineStyle
  2
STANDARD
 70
     0
  3

 62
   256
 51
90.0
 52
90.0
 71
     2
 49
0.5
 62
   256
  6
BYLAYER
 49
-0.5
 62
   256
  6
BYLAYER
  0
ACDBPLACEHOLDER
  5
F
102
{ACAD_REACTORS
330
E
102
}
330
E
  0
SCALE
  5
CED99
102
{ACAD_REACTORS
330
CED98
102
}
330
CED98
100
AcDbScale
 70
     0
300
1:1
140
1.0
141
1.0
290
     1
  0
SCALE
  5
CED9A
102
{ACAD_REACTORS
330
CED98
102
}
330
CED98
100
AcDbScale
 70
     0
300
1:2
140
1.0
141
2.0
290
     0
  0
SCALE
  5
CED9B
102
{ACAD_REACTORS
330
CED98
102
}
330
CED98
100
AcDbScale
 70
     0
300
1:4
140
1.0
141
4.0
290
     0
  0
SCALE
  5
CED9C
102
{ACAD_REACTORS
330
CED98
102
}
330
CED98
100
AcDbScale
 70
     0
300
1:5
140
1.0
141
5.0
290
     0
  0
SCALE
  5
CED9D
102
{ACAD_REACTORS
330
CED98
102
}
330
CED98
100
AcDbScale
 70
     0
300
1:8
140
1.0
141
8.0
290
     0
  0
SCALE
  5
CED9E
102
{ACAD_REACTORS
330
CED98
102
}
330
CED98
100
AcDbScale
 70
     0
300
1:10
140
1.0
141
10.0
290
     0
  0
SCALE
  5
CED9F
102
{ACAD_REACTORS
330
CED98
102
}
330
CED98
100
AcDbScale
 70
     0
300
1:16
140
1.0
141
16.0
290
     0
  0
SCALE
  5
CEDA0
102
{ACAD_REACTORS
330
CED98
102
}
330
CED98
100
AcDbScale
 70
     0
300
1:20
140
1.0
141
20.0
290
     0
  0
SCALE
  5
CEDA1
102
{ACAD_REACTORS
330
CED98
102
}
330
CED98
100
AcDbScale
 70
     0
300
1:30
140
1.0
141
30.0
290
     0
  0
SCALE
  5
CEDA2
102
{ACAD_REACTORS
330
CED98
102
}
330
CED98
100
AcDbScale
 70
     0
300
1:40
140
1.0
141
40.0
290
     0
  0
SCALE
  5
CEDA3
102
{ACAD_REACTORS
330
CED98
102
}
330
CED98
100
AcDbScale
 70
     0
300
1:50
140
1.0
141
50.0
290
     0
  0
SCALE
  5
CEDA4
102
{ACAD_REACTORS
330
CED98
102
}
330
CED98
100
AcDbScale
 70
     0
300
1:100
140
1.0
141
100.0
290
     0
  0
SCALE
  5
CEDA5
102
{ACAD_REACTORS
330
CED98
102
}
330
CED98
100
AcDbScale
 70
     0
300
2:1
140
2.0
141
1.0
290
     0
  0
SCALE
  5
CEDA6
102
{ACAD_REACTORS
330
CED98
102
}
330
CED98
100
AcDbScale
 70
     0
300
4:1
140
4.0
141
1.0
290
     0
  0
SCALE
  5
CEDA7
102
{ACAD_REACTORS
330
CED98
102
}
330
CED98
100
AcDbScale
 70
     0
300
8:1
140
8.0
141
1.0
290
     0
  0
SCALE
  5
CEDA8
102
{ACAD_REACTORS
330
CED98
102
}
330
CED98
100
AcDbScale
 70
     0
300
10:1
140
10.0
141
1.0
290
     0
  0
SCALE
  5
CEDA9
102
{ACAD_REACTORS
330
CED98
102
}
330
CED98
100
AcDbScale
 70
     0
300
100:1
140
100.0
141
1.0
290
     0
  0
SCALE
  5
CEDAA
102
{ACAD_REACTORS
330
CED98
102
}
330
CED98
100
AcDbScale
 70
     0
300
1/128" = 1'-0"
140
0.0078125
141
12.0
290
     0
  0
SCALE
  5
CEDAB
102
{ACAD_REACTORS
330
CED98
102
}
330
CED98
100
AcDbScale
 70
     0
300
1/64" = 1'-0"
140
0.015625
141
12.0
290
     0
  0
SCALE
  5
CEDAC
102
{ACAD_REACTORS
330
CED98
102
}
330
CED98
100
AcDbScale
 70
     0
300
1/32" = 1'-0"
140
0.03125
141
12.0
290
     0
  0
SCALE
  5
CEDAD
102
{ACAD_REACTORS
330
CED98
102
}
330
CED98
100
AcDbScale
 70
     0
300
1/16" = 1'-0"
140
0.0625
141
12.0
290
     0
  0
SCALE
  5
CEDAE
102
{ACAD_REACTORS
330
CED98
102
}
330
CED98
100
AcDbScale
 70
     0
300
3/32" = 1'-0"
140
0.09375
141
12.0
290
     0
  0
SCALE
  5
CEDAF
102
{ACAD_REACTORS
330
CED98
102
}
330
CED98
100
AcDbScale
 70
     0
300
1/8" = 1'-0"
140
0.125
141
12.0
290
     0
  0
SCALE
  5
CEDB0
102
{ACAD_REACTORS
330
CED98
102
}
330
CED98
100
AcDbScale
 70
     0
300
3/16" = 1'-0"
140
0.1875
141
12.0
290
     0
  0
SCALE
  5
CEDB1
102
{ACAD_REACTORS
330
CED98
102
}
330
CED98
100
AcDbScale
 70
     0
300
1/4" = 1'-0"
140
0.25
141
12.0
290
     0
  0
SCALE
  5
CEDB2
102
{ACAD_REACTORS
330
CED98
102
}
330
CED98
100
AcDbScale
 70
     0
300
3/8" = 1'-0"
140
0.375
141
12.0
290
     0
  0
SCALE
  5
CEDB3
102
{ACAD_REACTORS
330
CED98
102
}
330
CED98
100
AcDbScale
 70
     0
300
1/2" = 1'-0"
140
0.5
141
12.0
290
     0
  0
SCALE
  5
CEDB4
102
{ACAD_REACTORS
330
CED98
102
}
330
CED98
100
AcDbScale
 70
     0
300
3/4" = 1'-0"
140
0.75
141
12.0
290
     0
  0
SCALE
  5
CEDB5
102
{ACAD_REACTORS
330
CED98
102
}
330
CED98
100
AcDbScale
 70
     0
300
1" = 1'-0"
140
1.0
141
12.0
290
     0
  0
SCALE
  5
CEDB6
102
{ACAD_REACTORS
330
CED98
102
}
330
CED98
100
AcDbScale
 70
     0
300
1-1/2" = 1'-0"
140
1.5
141
12.0
290
     0
  0
SCALE
  5
CEDB7
102
{ACAD_REACTORS
330
CED98
102
}
330
CED98
100
AcDbScale
 70
     0
300
3" = 1'-0"
140
3.0
141
12.0
290
     0
  0
SCALE
  5
CEDB8
102
{ACAD_REACTORS
330
CED98
102
}
330
CED98
100
AcDbScale
 70
     0
300
6" = 1'-0"
140
6.0
141
12.0
290
     0
  0
SCALE
  5
CEDB9
102
{ACAD_REACTORS
330
CED98
102
}
330
CED98
100
AcDbScale
 70
     0
300
1'-0" = 1'-0"
140
12.0
141
12.0
290
     0
  0
TABLESTYLE
  5
FB0
102
{ACAD_XDICTIONARY
360
D0C45
102
}
102
{ACAD_REACTORS
330
FAF
102
}
330
FAF
100
AcDbTableStyle
  3
Standard
 70
     0
 71
     0
 40
0.06
 41
0.06
280
     0
281
     0
  7
Standard
140
0.18
170
     2
 62
     0
 63
     7
283
     0
274
    -2
284
     1
 64
     0
275
    -2
285
     1
 65
     0
276
    -2
286
     1
 66
     0
277
    -2
287
     1
 67
     0
278
    -2
288
     1
 68
     0
279
    -2
289
     1
 69
     0
  7
Standard
140
0.25
170
     5
 62
     0
 63
     7
283
     0
274
    -2
284
     1
 64
     0
275
    -2
285
     1
 65
     0
276
    -2
286
     1
 66
     0
277
    -2
287
     1
 67
     0
278
    -2
288
     1
 68
     0
279
    -2
289
     1
 69
     0
  7
Standard
140
0.18
170
     5
 62
     0
 63
     7
283
     0
274
    -2
284
     1
 64
     0
275
    -2
285
     1
 65
     0
276
    -2
286
     1
 66
     0
277
    -2
287
     1
 67
     0
278
    -2
288
     1
 68
     0
279
    -2
289
     1
 69
     0
  0
VISUALSTYLE
  5
CED8D
102
{ACAD_REACTORS
330
CED87
102
}
330
CED87
100
AcDbVisualStyle
  2
2dWireframe
 70
     4
 71
     0
 72
     2
 73
     0
 90
        0
 40
-0.6
 41
-30.0
 62
     5
 63
     7
 74
     1
 91
        4
 64
     7
 65
   257
 75
     1
175
     1
 42
1.0
 92
        0
 66
   257
 43
1.0
 76
     1
 77
     6
 78
     2
 67
     7
 79
     5
170
     0
171
     0
290
     0
174
     0
 93
        1
 44
0.0
173
     0
291
     0
 45
0.0
1001
ACAD
1000
AcDbSavedByObjectVersion
1070
     0
1000
AcDbSavedByObjectVersion
1070
     0
  0
VISUALSTYLE
  5
CED8F
102
{ACAD_REACTORS
330
CED87
102
}
330
CED87
100
AcDbVisualStyle
  2
3D Hidden
 70
     6
 71
     1
 72
     2
 73
     2
 90
        0
 40
-0.6
 41
-30.0
 62
     5
 63
     7
 74
     2
 91
        2
 64
     7
 65
   257
 75
     2
175
     1
 42
40.0
 92
        0
 66
   257
 43
1.0
 76
     1
 77
     6
 78
     2
 67
     7
 79
     3
170
     0
171
     0
290
     0
174
     0
 93
        1
 44
0.0
173
     0
291
     0
 45
0.0
1001
ACAD
1000
AcDbSavedByObjectVersion
1070
     0
1000
AcDbSavedByObjectVersion
1070
     0
  0
VISUALSTYLE
  5
CED8E
102
{ACAD_REACTORS
330
CED87
102
}
330
CED87
100
AcDbVisualStyle
  2
3dWireframe
 70
     5
 71
     0
 72
     2
 73
     0
 90
        0
 40
-0.6
 41
-30.0
 62
     5
 63
     7
 74
     1
 91
        4
 64
     7
 65
   257
 75
     1
175
     1
 42
1.0
 92
        0
 66
   257
 43
1.0
 76
     1
 77
     6
 78
     2
 67
     7
 79
     5
170
     0
171
     0
290
     0
174
     0
 93
        1
 44
0.0
173
     0
291
     0
 45
0.0
1001
ACAD
1000
AcDbSavedByObjectVersion
1070
     0
1000
AcDbSavedByObjectVersion
1070
     0
  0
VISUALSTYLE
  5
CED8C
102
{ACAD_REACTORS
330
CED87
102
}
330
CED87
100
AcDbVisualStyle
  2
Basic
 70
     7
 71
     1
 72
     0
 73
     1
 90
        0
 40
-0.6
 41
-30.0
 62
     5
 63
     7
 74
     0
 91
        4
 64
     7
 65
   257
 75
     1
175
     1
 42
1.0
 92
        8
 66
     7
 43
1.0
 76
     1
 77
     6
 78
     2
 67
     7
 79
     5
170
     0
171
     0
290
     0
174
     0
 93
        1
 44
0.0
173
     0
291
     1
 45
0.0
1001
ACAD
1000
AcDbSavedByObjectVersion
1070
     0
1000
AcDbSavedByObjectVersion
1070
     0
  0
VISUALSTYLE
  5
CED93
102
{ACAD_REACTORS
330
CED87
102
}
330
CED87
100
AcDbVisualStyle
  2
Brighten
 70
    12
 71
     2
 72
     2
 73
     0
 90
        0
 40
-0.6
 41
-30.0
 62
     5
 63
     7
 74
     1
 91
        4
 64
     7
 65
   257
 75
     1
175
     1
 42
1.0
 92
        8
 66
     7
 43
1.0
 76
     1
 77
     6
 78
     2
 67
     7
 79
     5
170
     0
171
     0
290
     0
174
     0
 93
        1
 44
50.0
173
     0
291
     1
 45
0.0
1001
ACAD
1000
AcDbSavedByObjectVersion
1070
     0
1000
AcDbSavedByObjectVersion
1070
     0
  0
VISUALSTYLE
  5
CED97
102
{ACAD_REACTORS
330
CED87
102
}
330
CED87
100
AcDbVisualStyle
  2
ColorChange
 70
    16
 71
     2
 72
     2
 73
     3
 90
        0
 40
-0.6
 41
-30.0
 62
     5
 63
     8
 74
     1
 91
        4
 64
     7
 65
   257
 75
     1
175
     1
 42
1.0
 92
        8
 66
     8
 43
1.0
 76
     1
 77
     6
 78
     2
 67
     7
 79
     5
170
     0
171
     0
290
     0
174
     0
 93
        1
 44
0.0
173
     0
291
     1
 45
0.0
1001
ACAD
1000
AcDbSavedByObjectVersion
1070
     0
1000
AcDbSavedByObjectVersion
1070
     0
  0
VISUALSTYLE
  5
CED90
102
{ACAD_REACTORS
330
CED87
102
}
330
CED87
100
AcDbVisualStyle
  2
Conceptual
 70
     9
 71
     3
 72
     2
 73
     0
 90
        0
 40
-0.6
 41
-30.0
 62
     5
 63
     7
 74
     2
 91
        2
 64
     7
 65
   257
 75
     1
175
     1
 42
40.0
 92
        8
 66
     7
 43
1.0
 76
     1
 77
     6
 78
     2
 67
     7
 79
     3
170
     0
171
     0
290
     0
174
     0
 93
        1
 44
0.0
173
     0
291
     0
 45
0.0
1001
ACAD
1000
AcDbSavedByObjectVersion
1070
     0
1000
AcDbSavedByObjectVersion
1070
     0
  0
VISUALSTYLE
  5
CED92
102
{ACAD_REACTORS
330
CED87
102
}
330
CED87
100
AcDbVisualStyle
  2
Dim
 70
    11
 71
     2
 72
     2
 73
     0
 90
        0
 40
-0.6
 41
-30.0
 62
     5
 63
     7
 74
     1
 91
        4
 64
     7
 65
   257
 75
     1
175
     1
 42
1.0
 92
        8
 66
     7
 43
1.0
 76
     1
 77
     6
 78
     2
 67
     7
 79
     5
170
     0
171
     0
290
     0
174
     0
 93
        1
 44
-50.0
173
     0
291
     1
 45
0.0
1001
ACAD
1000
AcDbSavedByObjectVersion
1070
     0
1000
AcDbSavedByObjectVersion
1070
     0
  0
VISUALSTYLE
  5
CED96
102
{ACAD_REACTORS
330
CED87
102
}
330
CED87
100
AcDbVisualStyle
  2
Facepattern
 70
    15
 71
     2
 72
     2
 73
     0
 90
        0
 40
-0.6
 41
-30.0
 62
     5
 63
     7
 74
     1
 91
        4
 64
     7
 65
   257
 75
     1
175
     1
 42
1.0
 92
        8
 66
     7
 43
1.0
 76
     1
 77
     6
 78
     2
 67
     7
 79
     5
170
     0
171
     0
290
     0
174
     0
 93
        1
 44
0.0
173
     0
291
     1
 45
0.0
1001
ACAD
1000
AcDbSavedByObjectVersion
1070
     0
1000
AcDbSavedByObjectVersion
1070
     0
  0
VISUALSTYLE
  5
CED88
102
{ACAD_REACTORS
330
CED87
102
}
330
CED87
100
AcDbVisualStyle
  2
Flat
 70
     0
 71
     2
 72
     1
 73
     1
 90
        2
 40
-0.6
 41
30.0
 62
     5
 63
     7
 74
     0
 91
        4
 64
     7
 65
   257
 75
     1
175
     1
 42
1.0
 92
        8
 66
     7
 43
1.0
 76
     1
 77
     6
 78
     2
 67
     7
 79
     5
170
     0
171
     0
290
     0
174
     0
 93
       13
 44
0.0
173
     0
291
     1
 45
0.0
1001
ACAD
1000
AcDbSavedByObjectVersion
1070
     0
1000
AcDbSavedByObjectVersion
1070
     0
  0
VISUALSTYLE
  5
CED89
102
{ACAD_REACTORS
330
CED87
102
}
330
CED87
100
AcDbVisualStyle
  2
FlatWithEdges
 70
     1
 71
     2
 72
     1
 73
     1
 90
        2
 40
-0.6
 41
30.0
 62
     5
 63
     7
 74
     1
 91
        4
 64
     7
 65
   257
 75
     1
175
     1
 42
1.0
 92
        0
 66
   257
 43
1.0
 76
     1
 77
     6
 78
     2
 67
     7
 79
     5
170
     0
171
     0
290
     0
174
     0
 93
       13
 44
0.0
173
     0
291
     1
 45
0.0
1001
ACAD
1000
AcDbSavedByObjectVersion
1070
     0
1000
AcDbSavedByObjectVersion
1070
     0
  0
VISUALSTYLE
  5
CED8A
102
{ACAD_REACTORS
330
CED87
102
}
330
CED87
100
AcDbVisualStyle
  2
Gouraud
 70
     2
 71
     2
 72
     2
 73
     1
 90
        2
 40
-0.6
 41
30.0
 62
     5
 63
     7
 74
     0
 91
        4
 64
     7
 65
   257
 75
     1
175
     1
 42
1.0
 92
        0
 66
     7
 43
1.0
 76
     1
 77
     6
 78
     2
 67
     7
 79
     5
170
     0
171
     0
290
     0
174
     0
 93
       13
 44
0.0
173
     0
291
     1
 45
0.0
1001
ACAD
1000
AcDbSavedByObjectVersion
1070
     0
1000
AcDbSavedByObjectVersion
1070
     0
  0
VISUALSTYLE
  5
CED8B
102
{ACAD_REACTORS
330
CED87
102
}
330
CED87
100
AcDbVisualStyle
  2
GouraudWithEdges
 70
     3
 71
     2
 72
     2
 73
     1
 90
        2
 40
-0.6
 41
30.0
 62
     5
 63
     7
 74
     1
 91
        4
 64
     7
 65
   257
 75
     1
175
     1
 42
1.0
 92
        0
 66
   257
 43
1.0
 76
     1
 77
     6
 78
     2
 67
     7
 79
     5
170
     0
171
     0
290
     0
174
     0
 93
       13
 44
0.0
173
     0
291
     1
 45
0.0
1001
ACAD
1000
AcDbSavedByObjectVersion
1070
     0
1000
AcDbSavedByObjectVersion
1070
     0
  0
VISUALSTYLE
  5
CED95
102
{ACAD_REACTORS
330
CED87
102
}
330
CED87
100
AcDbVisualStyle
  2
Linepattern
 70
    14
 71
     2
 72
     2
 73
     0
 90
        0
 40
-0.6
 41
-30.0
 62
     5
 63
     7
 74
     1
 91
        4
 64
     7
 65
   257
 75
     7
175
     7
 42
1.0
 92
        8
 66
     7
 43
1.0
 76
     1
 77
     6
 78
     2
 67
     7
 79
     5
170
     0
171
     0
290
     0
174
     0
 93
        1
 44
0.0
173
     0
291
     1
 45
0.0
1001
ACAD
1000
AcDbSavedByObjectVersion
1070
     0
1000
AcDbSavedByObjectVersion
1070
     0
  0
VISUALSTYLE
  5
CED91
102
{ACAD_REACTORS
330
CED87
102
}
330
CED87
100
AcDbVisualStyle
  2
Realistic
 70
     8
 71
     2
 72
     2
 73
     0
 90
        0
 40
-0.6
 41
-30.0
 62
     5
 63
     7
 74
     1
 91
        0
 64
     7
 65
   257
 75
     1
175
     1
 42
1.0
 92
        8
 66
     8
 43
1.0
 76
     1
 77
     6
 78
     2
 67
     7
 79
     5
170
     0
171
     0
290
     0
174
     0
 93
       13
 44
0.0
173
     0
291
     0
 45
0.0
1001
ACAD
1000
AcDbSavedByObjectVersion
1070
     0
1000
AcDbSavedByObjectVersion
1070
     0
  0
VISUALSTYLE
  5
CED94
102
{ACAD_REACTORS
330
CED87
102
}
330
CED87
100
AcDbVisualStyle
  2
Thicken
 70
    13
 71
     2
 72
     2
 73
     0
 90
        0
 40
-0.6
 41
-30.0
 62
     5
 63
     7
 74
     1
 91
        4
 64
     7
 65
   257
 75
     1
175
     1
 42
1.0
 92
       12
 66
     7
 43
1.0
 76
     1
 77
     6
 78
     2
 67
     7
 79
     5
170
     0
171
     0
290
     0
174
     0
 93
        1
 44
0.0
173
     0
291
     1
 45
0.0
1001
ACAD
1000
AcDbSavedByObjectVersion
1070
     0
1000
AcDbSavedByObjectVersion
1070
     0
  0
DICTIONARYVAR
  5
D0C4F
102
{ACAD_REACTORS
330
59
102
}
330
59
100
DictionaryVariables
280
     0
  1
1:1
  0
DICTIONARYVAR
  5
D0C4D
102
{ACAD_REACTORS
330
59
102
}
330
59
100
DictionaryVariables
280
     0
  1
STANDARD
  0
DICTIONARYVAR
  5
100D
102
{ACAD_REACTORS
330
59
102
}
330
59
100
DictionaryVariables
280
     0
  1
STANDARD
  0
DICTIONARYVAR
  5
5A
102
{ACAD_REACTORS
330
59
102
}
330
59
100
DictionaryVariables
280
     0
  1
2
  0
DICTIONARYVAR
  5
5E
102
{ACAD_REACTORS
330
59
102
}
330
59
100
DictionaryVariables
280
     0
  1
1
  0
DICTIONARYVAR
  5
D5C9E
102
{ACAD_REACTORS
330
59
102
}
330
59
100
DictionaryVariables
280
     0
  1
0
  0
DICTIONARYVAR
  5
D0C50
102
{ACAD_REACTORS
330
59
102
}
330
59
100
DictionaryVariables
280
     0
  1
0
  0
DICTIONARYVAR
  5
D0C4E
102
{ACAD_REACTORS
330
59
102
}
330
59
100
DictionaryVariables
280
     0
  1
0
  0
DICTIONARYVAR
  5
D5C9D
102
{ACAD_REACTORS
330
59
102
}
330
59
100
DictionaryVariables
280
     0
  1
127
  0
XRECORD
  5
C2669
102
{ACAD_REACTORS
330
C2668
102
}
330
C2668
100
AcDbXrecord
280
     1
330
0
330
0
330
0
330
0
330
0
330
0
330
0
330
0
330
0
330
0
330
0
330
0
330
0
330
0
330
0
330
0
330
0
330
0
330
0
330
0
330
0
330
0
330
0
330
0
330
0
330
0
330
0
330
0
330
0
330
0
330
0
330
0
330
0
  0
VLO-VL
  5
A9D17
102
{ACAD_REACTORS
330
A9D16
102
}
330
A9D16
100
vlo_VL
 90
   -64512
 91
       12
 92
        1
 40
2.5
300
(&VLO-R . 0)
  0
DICTIONARY
  5
D5D16
330
22
100
AcDbDictionary
280
     1
281
     1
  3
ACAD_XREC_ROUNDTRIP
360
D5D17
  0
DICTIONARY
  5
D5D18
330
74
100
AcDbDictionary
280
     1
281
     1
  3
ACAD_XREC_ROUNDTRIP
360
D5D19
  0
DICTIONARY
  5
D5D1A
330
79
100
AcDbDictionary
280
     1
281
     1
  3
ACAD_XREC_ROUNDTRIP
360
D5D1B
  0
DICTIONARY
  5
CED78
330
CED77
100
AcDbDictionary
280
     1
281
     1
  3
ACAD_XREC_ROUNDTRIP
360
D5CC1
  3
BUMPTILE
360
CED7A
  3
DIFFUSETILE
360
CED79
  3
OPACITYTILE
360
CED7D
  3
REFLECTIONTILE
360
CED7C
  3
REFRACTIONTILE
360
CED7E
  3
SPECULARTILE
360
CED7B
  0
DICTIONARY
  5
CED70
330
CED6F
100
AcDbDictionary
280
     1
281
     1
  3
ACAD_XREC_ROUNDTRIP
360
D5CC0
  3
BUMPTILE
360
CED72
  3
DIFFUSETILE
360
CED71
  3
OPACITYTILE
360
CED75
  3
REFLECTIONTILE
360
CED74
  3
REFRACTIONTILE
360
CED76
  3
SPECULARTILE
360
CED73
  0
DICTIONARY
  5
CED80
330
CED7F
100
AcDbDictionary
280
     1
281
     1
  3
ACAD_XREC_ROUNDTRIP
360
D5CC2
  3
BUMPTILE
360
CED82
  3
DIFFUSETILE
360
CED81
  3
OPACITYTILE
360
CED85
  3
REFLECTIONTILE
360
CED84
  3
REFRACTIONTILE
360
CED86
  3
SPECULARTILE
360
CED83
  0
DICTIONARY
  5
D0C45
330
FB0
100
AcDbDictionary
280
     1
281
     1
  3
ACAD_ROUNDTRIP_2008_TABLESTYLE_CELLSTYLEMAP
360
D5D10
  3
ACAD_XREC_ROUNDTRIP
360
D5D1C
  0
XRECORD
  5
D5D17
102
{ACAD_REACTORS
330
D5D16
102
}
330
D5D16
100
AcDbXrecord
280
     1
102
SHADEPLOT
 70
     0
102
SHADEPLOTRESLEVEL
 70
     2
102
SHADEPLOTCUSTOMDPI
 70
   300
  0
XRECORD
  5
D5D19
102
{ACAD_REACTORS
330
D5D18
102
}
330
D5D18
100
AcDbXrecord
280
     1
102
SHADEPLOT
 70
     0
102
SHADEPLOTRESLEVEL
 70
     2
102
SHADEPLOTCUSTOMDPI
 70
   300
  0
XRECORD
  5
D5D1B
102
{ACAD_REACTORS
330
D5D1A
102
}
330
D5D1A
100
AcDbXrecord
280
     1
102
SHADEPLOT
 70
     0
102
SHADEPLOTRESLEVEL
 70
     2
102
SHADEPLOTCUSTOMDPI
 70
   300
  0
XRECORD
  5
D5CC1
102
{ACAD_REACTORS
330
CED78
102
}
330
CED78
100
AcDbXrecord
280
     1
102
MATERIAL
148
0.0
149
0.0
149
0.0
 93
        0
 94
      127
282
     0
 72
     0
 77
     0
171
     0
175
     0
179
     0
273
     0
  0
XRECORD
  5
CED7A
102
{ACAD_REACTORS
330
CED78
102
}
330
CED78
100
AcDbXrecord
280
     1
270
     1
271
     1
  0
XRECORD
  5
CED79
102
{ACAD_REACTORS
330
CED78
102
}
330
CED78
100
AcDbXrecord
280
     1
270
     1
271
     1
  0
XRECORD
  5
CED7D
102
{ACAD_REACTORS
330
CED78
102
}
330
CED78
100
AcDbXrecord
280
     1
270
     1
271
     1
  0
XRECORD
  5
CED7C
102
{ACAD_REACTORS
330
CED78
102
}
330
CED78
100
AcDbXrecord
280
     1
270
     1
271
     1
  0
XRECORD
  5
CED7E
102
{ACAD_REACTORS
330
CED78
102
}
330
CED78
100
AcDbXrecord
280
     1
270
     1
271
     1
  0
XRECORD
  5
CED7B
102
{ACAD_REACTORS
330
CED78
102
}
330
CED78
100
AcDbXrecord
280
     1
270
     1
271
     1
  0
XRECORD
  5
D5CC0
102
{ACAD_REACTORS
330
CED70
102
}
330
CED70
100
AcDbXrecord
280
     1
102
MATERIAL
148
0.0
149
0.0
149
0.0
 93
        0
 94
      127
282
     0
 72
     0
 77
     0
171
     0
175
     0
179
     0
273
     0
  0
XRECORD
  5
CED72
102
{ACAD_REACTORS
330
CED70
102
}
330
CED70
100
AcDbXrecord
280
     1
270
     1
271
     1
  0
XRECORD
  5
CED71
102
{ACAD_REACTORS
330
CED70
102
}
330
CED70
100
AcDbXrecord
280
     1
270
     1
271
     1
  0
XRECORD
  5
CED75
102
{ACAD_REACTORS
330
CED70
102
}
330
CED70
100
AcDbXrecord
280
     1
270
     1
271
     1
  0
XRECORD
  5
CED74
102
{ACAD_REACTORS
330
CED70
102
}
330
CED70
100
AcDbXrecord
280
     1
270
     1
271
     1
  0
XRECORD
  5
CED76
102
{ACAD_REACTORS
330
CED70
102
}
330
CED70
100
AcDbXrecord
280
     1
270
     1
271
     1
  0
XRECORD
  5
CED73
102
{ACAD_REACTORS
330
CED70
102
}
330
CED70
100
AcDbXrecord
280
     1
270
     1
271
     1
  0
XRECORD
  5
D5CC2
102
{ACAD_REACTORS
330
CED80
102
}
330
CED80
100
AcDbXrecord
280
     1
102
MATERIAL
148
0.0
149
0.0
149
0.0
 93
        0
 94
      127
282
     0
 72
     0
 77
     0
171
     0
175
     0
179
     0
273
     0
  0
XRECORD
  5
CED82
102
{ACAD_REACTORS
330
CED80
102
}
330
CED80
100
AcDbXrecord
280
     1
270
     1
271
     1
  0
XRECORD
  5
CED81
102
{ACAD_REACTORS
330
CED80
102
}
330
CED80
100
AcDbXrecord
280
     1
270
     1
271
     1
  0
XRECORD
  5
CED85
102
{ACAD_REACTORS
330
CED80
102
}
330
CED80
100
AcDbXrecord
280
     1
270
     1
271
     1
  0
XRECORD
  5
CED84
102
{ACAD_REACTORS
330
CED80
102
}
330
CED80
100
AcDbXrecord
280
     1
270
     1
271
     1
  0
XRECORD
  5
CED86
102
{ACAD_REACTORS
330
CED80
102
}
330
CED80
100
AcDbXrecord
280
     1
270
     1
271
     1
  0
XRECORD
  5
CED83
102
{ACAD_REACTORS
330
CED80
102
}
330
CED80
100
AcDbXrecord
280
     1
270
     1
271
     1
  0
CELLSTYLEMAP
  5
D5D10
102
{ACAD_REACTORS
330
D0C45
102
}
330
D0C45
100
AcDbCellStyleMap
 90
        3
300
CELLSTYLE
  1
TABLEFORMAT_BEGIN
 90
        5
170
     1
 91
        0
 92
    32768
 62
   257
 93
        1
300
CONTENTFORMAT
  1
CONTENTFORMAT_BEGIN
 90
        0
 91
        0
 92
        4
 93
        0
300

 40
0.0
140
1.0
 94
        5
 62
     0
340
11
144
0.25
309
CONTENTFORMAT_END
171
     1
301
MARGIN
  1
CELLMARGIN_BEGIN
 40
0.06
 40
0.06
 40
0.06
 40
0.06
 40
0.18
 40
0.18
309
CELLMARGIN_END
 94
        6
 95
        1
302
GRIDFORMAT
  1
GRIDFORMAT_BEGIN
 90
        0
 91
        1
 62
     0
 92
       -2
340
0
 93
        0
 40
0.045
309
GRIDFORMAT_END
 95
        2
302
GRIDFORMAT
  1
GRIDFORMAT_BEGIN
 90
        0
 91
        1
 62
     0
 92
       -2
340
0
 93
        0
 40
0.045
309
GRIDFORMAT_END
 95
        4
302
GRIDFORMAT
  1
GRIDFORMAT_BEGIN
 90
        0
 91
        1
 62
     0
 92
       -2
340
0
 93
        0
 40
0.045
309
GRIDFORMAT_END
 95
        8
302
GRIDFORMAT
  1
GRIDFORMAT_BEGIN
 90
        0
 91
        1
 62
     0
 92
       -2
340
0
 93
        0
 40
0.045
309
GRIDFORMAT_END
 95
       16
302
GRIDFORMAT
  1
GRIDFORMAT_BEGIN
 90
        0
 91
        1
 62
     0
 92
       -2
340
0
 93
        0
 40
0.045
309
GRIDFORMAT_END
 95
       32
302
GRIDFORMAT
  1
GRIDFORMAT_BEGIN
 90
        0
 91
        1
 62
     0
 92
       -2
340
0
 93
        0
 40
0.045
309
GRIDFORMAT_END
309
TABLEFORMAT_END
  1
CELLSTYLE_BEGIN
 90
        1
 91
        1
300
_TITLE
309
CELLSTYLE_END
300
CELLSTYLE
  1
TABLEFORMAT_BEGIN
 90
        5
170
     1
 91
        0
 92
        0
 62
   257
 93
        1
300
CONTENTFORMAT
  1
CONTENTFORMAT_BEGIN
 90
        0
 91
        0
 92
        4
 93
        0
300

 40
0.0
140
1.0
 94
        5
 62
     0
340
11
144
0.18
309
CONTENTFORMAT_END
171
     1
301
MARGIN
  1
CELLMARGIN_BEGIN
 40
0.06
 40
0.06
 40
0.06
 40
0.06
 40
0.18
 40
0.18
309
CELLMARGIN_END
 94
        6
 95
        1
302
GRIDFORMAT
  1
GRIDFORMAT_BEGIN
 90
        0
 91
        1
 62
     0
 92
       -2
340
0
 93
        0
 40
0.045
309
GRIDFORMAT_END
 95
        2
302
GRIDFORMAT
  1
GRIDFORMAT_BEGIN
 90
        0
 91
        1
 62
     0
 92
       -2
340
0
 93
        0
 40
0.045
309
GRIDFORMAT_END
 95
        4
302
GRIDFORMAT
  1
GRIDFORMAT_BEGIN
 90
        0
 91
        1
 62
     0
 92
       -2
340
0
 93
        0
 40
0.045
309
GRIDFORMAT_END
 95
        8
302
GRIDFORMAT
  1
GRIDFORMAT_BEGIN
 90
        0
 91
        1
 62
     0
 92
       -2
340
0
 93
        0
 40
0.045
309
GRIDFORMAT_END
 95
       16
302
GRIDFORMAT
  1
GRIDFORMAT_BEGIN
 90
        0
 91
        1
 62
     0
 92
       -2
340
0
 93
        0
 40
0.045
309
GRIDFORMAT_END
 95
       32
302
GRIDFORMAT
  1
GRIDFORMAT_BEGIN
 90
        0
 91
        1
 62
     0
 92
       -2
340
0
 93
        0
 40
0.045
309
GRIDFORMAT_END
309
TABLEFORMAT_END
  1
CELLSTYLE_BEGIN
 90
        2
 91
        1
300
_HEADER
309
CELLSTYLE_END
300
CELLSTYLE
  1
TABLEFORMAT_BEGIN
 90
        5
170
     1
 91
        0
 92
        0
 62
   257
 93
        1
300
CONTENTFORMAT
  1
CONTENTFORMAT_BEGIN
 90
        0
 91
        0
 92
        4
 93
        0
300

 40
0.0
140
1.0
 94
        2
 62
     0
340
11
144
0.18
309
CONTENTFORMAT_END
171
     1
301
MARGIN
  1
CELLMARGIN_BEGIN
 40
0.06
 40
0.06
 40
0.06
 40
0.06
 40
0.18
 40
0.18
309
CELLMARGIN_END
 94
        6
 95
        1
302
GRIDFORMAT
  1
GRIDFORMAT_BEGIN
 90
        0
 91
        1
 62
     0
 92
       -2
340
0
 93
        0
 40
0.045
309
GRIDFORMAT_END
 95
        2
302
GRIDFORMAT
  1
GRIDFORMAT_BEGIN
 90
        0
 91
        1
 62
     0
 92
       -2
340
0
 93
        0
 40
0.045
309
GRIDFORMAT_END
 95
        4
302
GRIDFORMAT
  1
GRIDFORMAT_BEGIN
 90
        0
 91
        1
 62
     0
 92
       -2
340
0
 93
        0
 40
0.045
309
GRIDFORMAT_END
 95
        8
302
GRIDFORMAT
  1
GRIDFORMAT_BEGIN
 90
        0
 91
        1
 62
     0
 92
       -2
340
0
 93
        0
 40
0.045
309
GRIDFORMAT_END
 95
       16
302
GRIDFORMAT
  1
GRIDFORMAT_BEGIN
 90
        0
 91
        1
 62
     0
 92
       -2
340
0
 93
        0
 40
0.045
309
GRIDFORMAT_END
 95
       32
302
GRIDFORMAT
  1
GRIDFORMAT_BEGIN
 90
        0
 91
        1
 62
     0
 92
       -2
340
0
 93
        0
 40
0.045
309
GRIDFORMAT_END
309
TABLEFORMAT_END
  1
CELLSTYLE_BEGIN
 90
        3
 91
        2
300
_DATA
309
CELLSTYLE_END
  0
XRECORD
  5
D5D1C
102
{ACAD_REACTORS
330
D0C45
102
}
330
D0C45
100
AcDbXrecord
280
     1
102
ACAD_ROUNDTRIP_PRE2007_TABLESTYLE
 90
        4
 91
        0
  1

 92
        4
 93
        0
  2

 94
        4
 95
        0
  3

  0
ENDSEC
  0
EOF
