  0
SECTION
  2
HEADER
  9
$ACADVER
  1
AC1015
  9
$ACADMAINTVER
 70
    20
  9
$DWGCODEPAGE
  3
ANSI_936
  9
$INSBASE
 10
0.0
 20
0.0
 30
0.0
  9
$EXTMIN
 10
101909.1466568311
 20
-169411.8354546571
 30
-0.0000000349181948
  9
$EXTMAX
 10
103826.0422448677
 20
-168209.3157129896
 30
0.0000000814935747
  9
$LIMMIN
 10
0.0
 20
0.0
  9
$LIMMAX
 10
12.0
 20
9.0
  9
$ORTHOMODE
 70
     1
  9
$REGENMODE
 70
     1
  9
$FILLMODE
 70
     1
  9
$QTEXTMODE
 70
     0
  9
$MIRRTEXT
 70
     0
  9
$LTSCALE
 40
1.0
  9
$ATTMODE
 70
     1
  9
$TEXTSIZE
 40
0.2
  9
$TRACEWID
 40
0.05
  9
$TEXTSTYLE
  7
Standard
  9
$CLAYER
  8
标注
  9
$CELTYPE
  6
ByLayer
  9
$CECOLOR
 62
   256
  9
$CELTSCALE
 40
5.0
  9
$DISPSILH
 70
     0
  9
$DIMSCALE
 40
1.0
  9
$DIMASZ
 40
16.0
  9
$DIMEXO
 40
7.0
  9
$DIMDLI
 40
0.38
  9
$DIMRND
 40
0.0
  9
$DIMDLE
 40
0.0
  9
$DIMEXE
 40
7.0
  9
$DIMTP
 40
0.0
  9
$DIMTM
 40
0.0
  9
$DIMTXT
 40
20.0
  9
$DIMCEN
 40
2.5
  9
$DIMTSZ
 40
0.0
  9
$DIMTOL
 70
     0
  9
$DIMLIM
 70
     0
  9
$DIMTIH
 70
     0
  9
$DIMTOH
 70
     0
  9
$DIMSE1
 70
     0
  9
$DIMSE2
 70
     0
  9
$DIMTAD
 70
     0
  9
$DIMZIN
 70
     8
  9
$DIMBLK
  1

  9
$DIMASO
 70
     1
  9
$DIMSHO
 70
     1
  9
$DIMPOST
  1

  9
$DIMAPOST
  1
"
  9
$DIMALT
 70
     0
  9
$DIMALTD
 70
     3
  9
$DIMALTF
 40
0.03937
  9
$DIMLFAC
 40
1.0
  9
$DIMTOFL
 70
     1
  9
$DIMTVP
 40
0.0
  9
$DIMTIX
 70
     0
  9
$DIMSOXD
 70
     0
  9
$DIMSAH
 70
     0
  9
$DIMBLK1
  1

  9
$DIMBLK2
  1

  9
$DIMSTYLE
  2
副本Standard
  9
$DIMCLRD
 70
   256
  9
$DIMCLRE
 70
   256
  9
$DIMCLRT
 70
   256
  9
$DIMTFAC
 40
1.0
  9
$DIMGAP
 40
1.0
  9
$DIMJUST
 70
     0
  9
$DIMSD1
 70
     0
  9
$DIMSD2
 70
     0
  9
$DIMTOLJ
 70
     1
  9
$DIMTZIN
 70
     0
  9
$DIMALTZ
 70
     0
  9
$DIMALTTZ
 70
     0
  9
$DIMUPT
 70
     0
  9
$DIMDEC
 70
     1
  9
$DIMTDEC
 70
     1
  9
$DIMALTU
 70
     7
  9
$DIMALTTD
 70
     3
  9
$DIMTXSTY
  7
Standard
  9
$DIMAUNIT
 70
     0
  9
$DIMADEC
 70
     1
  9
$DIMALTRND
 40
0.0
  9
$DIMAZIN
 70
     2
  9
$DIMDSEP
 70
    44
  9
$DIMATFIT
 70
     3
  9
$DIMFRAC
 70
     0
  9
$DIMLDRBLK
  1

  9
$DIMLUNIT
 70
     2
  9
$DIMLWD
 70
    -2
  9
$DIMLWE
 70
    -2
  9
$DIMTMOVE
 70
     0
  9
$LUNITS
 70
     2
  9
$LUPREC
 70
     4
  9
$SKETCHINC
 40
0.1
  9
$FILLETRAD
 40
90.0
  9
$AUNITS
 70
     0
  9
$AUPREC
 70
     0
  9
$MENU
  1
.
  9
$ELEVATION
 40
0.0
  9
$PELEVATION
 40
0.0
  9
$THICKNESS
 40
0.0
  9
$LIMCHECK
 70
     0
  9
$CHAMFERA
 40
26.6
  9
$CHAMFERB
 40
26.6
  9
$CHAMFERC
 40
0.0
  9
$CHAMFERD
 40
0.0
  9
$SKPOLY
 70
     0
  9
$TDCREATE
 40
2454355.343801713
  9
$TDUCREATE
 40
2454355.010468380
  9
$TDUPDATE
 40
2457938.594265289
  9
$TDUUPDATE
 40
2457938.260931956
  9
$TDINDWG
 40
8.7993804745
  9
$TDUSRTIMER
 40
8.7993803819
  9
$USRTIMER
 70
     1
  9
$ANGBASE
 50
0.0
  9
$ANGDIR
 70
     0
  9
$PDMODE
 70
     0
  9
$PDSIZE
 40
0.0
  9
$PLINEWID
 40
0.0
  9
$SPLFRAME
 70
     0
  9
$SPLINETYPE
 70
     6
  9
$SPLINESEGS
 70
     8
  9
$HANDSEED
  5
D7D75
  9
$SURFTAB1
 70
     6
  9
$SURFTAB2
 70
     6
  9
$SURFTYPE
 70
     6
  9
$SURFU
 70
     6
  9
$SURFV
 70
     6
  9
$UCSBASE
  2

  9
$UCSNAME
  2

  9
$UCSORG
 10
0.0
 20
0.0
 30
0.0
  9
$UCSXDIR
 10
1.0
 20
0.0
 30
0.0
  9
$UCSYDIR
 10
0.0
 20
1.0
 30
0.0
  9
$UCSORTHOREF
  2

  9
$UCSORTHOVIEW
 70
     0
  9
$UCSORGTOP
 10
0.0
 20
0.0
 30
0.0
  9
$UCSORGBOTTOM
 10
0.0
 20
0.0
 30
0.0
  9
$UCSORGLEFT
 10
0.0
 20
0.0
 30
0.0
  9
$UCSORGRIGHT
 10
0.0
 20
0.0
 30
0.0
  9
$UCSORGFRONT
 10
0.0
 20
0.0
 30
0.0
  9
$UCSORGBACK
 10
0.0
 20
0.0
 30
0.0
  9
$PUCSBASE
  2

  9
$PUCSNAME
  2

  9
$PUCSORG
 10
0.0
 20
0.0
 30
0.0
  9
$PUCSXDIR
 10
1.0
 20
0.0
 30
0.0
  9
$PUCSYDIR
 10
0.0
 20
1.0
 30
0.0
  9
$PUCSORTHOREF
  2

  9
$PUCSORTHOVIEW
 70
     0
  9
$PUCSORGTOP
 10
0.0
 20
0.0
 30
0.0
  9
$PUCSORGBOTTOM
 10
0.0
 20
0.0
 30
0.0
  9
$PUCSORGLEFT
 10
0.0
 20
0.0
 30
0.0
  9
$PUCSORGRIGHT
 10
0.0
 20
0.0
 30
0.0
  9
$PUCSORGFRONT
 10
0.0
 20
0.0
 30
0.0
  9
$PUCSORGBACK
 10
0.0
 20
0.0
 30
0.0
  9
$USERI1
 70
     0
  9
$USERI2
 70
     0
  9
$USERI3
 70
     0
  9
$USERI4
 70
     0
  9
$USERI5
 70
     0
  9
$USERR1
 40
0.0
  9
$USERR2
 40
0.0
  9
$USERR3
 40
0.0
  9
$USERR4
 40
0.0
  9
$USERR5
 40
2.5
  9
$WORLDVIEW
 70
     1
  9
$SHADEDGE
 70
     3
  9
$SHADEDIF
 70
    70
  9
$TILEMODE
 70
     1
  9
$MAXACTVP
 70
    64
  9
$PINSBASE
 10
0.0
 20
0.0
 30
0.0
  9
$PLIMCHECK
 70
     0
  9
$PEXTMIN
 10
0.0
 20
0.0
 30
0.0
  9
$PEXTMAX
 10
0.0
 20
0.0
 30
0.0
  9
$PLIMMIN
 10
0.0
 20
0.0
  9
$PLIMMAX
 10
12.0
 20
9.0
  9
$UNITMODE
 70
     0
  9
$VISRETAIN
 70
     1
  9
$PLINEGEN
 70
     0
  9
$PSLTSCALE
 70
     1
  9
$TREEDEPTH
 70
  3020
  9
$CMLSTYLE
  2
Standard
  9
$CMLJUST
 70
     0
  9
$CMLSCALE
 40
1.0
  9
$PROXYGRAPHICS
 70
     1
  9
$MEASUREMENT
 70
     0
  9
$CELWEIGHT
370
    -1
  9
$ENDCAPS
280
     0
  9
$JOINSTYLE
280
     0
  9
$LWDISPLAY
290
     0
  9
$INSUNITS
 70
     4
  9
$HYPERLINKBASE
  1

  9
$STYLESHEET
  1
MONOCHROME.CTB
  9
$XEDIT
290
     1
  9
$CEPSNTYPE
380
     0
  9
$PSTYLEMODE
290
     1
  9
$FINGERPRINTGUID
  2
{35BD88C0-9548-11D2-9A29-0060089B3A3F}
  9
$VERSIONGUID
  2
{DC087840-B82F-49A4-BEB7-5AABAE3BCC70}
  9
$EXTNAMES
290
     1
  9
$PSVPSCALE
 40
0.0
  9
$OLESTARTUP
290
     0
  0
ENDSEC
  0
SECTION
  2
CLASSES
  0
CLASS
  1
ACDBDICTIONARYWDFLT
  2
AcDbDictionaryWithDefault
  3
ObjectDBX Classes
 90
        0
280
     0
281
     0
  0
CLASS
  1
ACDBPLACEHOLDER
  2
AcDbPlaceHolder
  3
ObjectDBX Classes
 90
        0
280
     0
281
     0
  0
CLASS
  1
LAYOUT
  2
AcDbLayout
  3
ObjectDBX Classes
 90
        0
280
     0
281
     0
  0
CLASS
  1
DICTIONARYVAR
  2
AcDbDictionaryVar
  3
ObjectDBX Classes
 90
        0
280
     0
281
     0
  0
CLASS
  1
SORTENTSTABLE
  2
AcDbSortentsTable
  3
ObjectDBX Classes
 90
        0
280
     0
281
     0
  0
CLASS
  1
DIMASSOC
  2
AcDbDimAssoc
  3
"AcDbDimAssoc|Product Desc:     AcDim ARX App For Dimension|Company:          Autodesk, Inc.|WEB Address:      www.autodesk.com"
 90
        0
280
     0
281
     0
  0
CLASS
  1
TABLESTYLE
  2
AcDbTableStyle
  3
ObjectDBX Classes
 90
     4095
280
     0
281
     0
  0
CLASS
  1
VLO-VL
  2
vlo_VL
  3
VL|AutoLISP based application
 90
      129
280
     0
281
     0
  0
CLASS
  1
MATERIAL
  2
AcDbMaterial
  3
ObjectDBX Classes
 90
     1153
280
     0
281
     0
  0
CLASS
  1
VISUALSTYLE
  2
AcDbVisualStyle
  3
ObjectDBX Classes
 90
     4095
280
     0
281
     0
  0
CLASS
  1
SCALE
  2
AcDbScale
  3
ObjectDBX Classes
 90
     1153
280
     0
281
     0
  0
CLASS
  1
MLEADERSTYLE
  2
AcDbMLeaderStyle
  3
ACDB_MLEADERSTYLE_CLASS
 90
     4095
280
     0
281
     0
  0
CLASS
  1
CELLSTYLEMAP
  2
AcDbCellStyleMap
  3
ObjectDBX Classes
 90
     1152
280
     0
281
     0
  0
ENDSEC
  0
SECTION
  2
TABLES
  0
TABLE
  2
VPORT
  5
8
330
0
100
AcDbSymbolTable
 70
     1
  0
VPORT
  5
CED6D
330
8
100
AcDbSymbolTableRecord
100
AcDbViewportTableRecord
  2
*Active
 70
     0
 10
0.0
 20
0.0
 11
1.0
 21
1.0
 12
102867.5944508494
 22
-168810.5755838234
 13
0.0
 23
0.0
 14
0.5
 24
0.5
 15
0.5
 25
0.5
 16
0.0
 26
0.0
 36
1.0
 17
0.0
 27
0.0
 37
0.0
 40
1211.405355522234
 41
2.241676942046855
 42
50.0
 43
0.0
 44
0.0
 50
0.0
 51
0.0
 71
     0
 72
  1000
 73
     1
 74
     3
 75
     0
 76
     0
 77
     0
 78
     0
281
     0
 65
     1
110
0.0
120
0.0
130
0.0
111
1.0
121
0.0
131
0.0
112
0.0
122
1.0
132
0.0
 79
     0
146
0.0
  0
ENDTAB
  0
TABLE
  2
LTYPE
  5
5
330
0
100
AcDbSymbolTable
 70
     3
  0
LTYPE
  5
14
330
5
100
AcDbSymbolTableRecord
100
AcDbLinetypeTableRecord
  2
ByBlock
 70
     0
  3

 72
    65
 73
     0
 40
0.0
  0
LTYPE
  5
15
330
5
100
AcDbSymbolTableRecord
100
AcDbLinetypeTableRecord
  2
ByLayer
 70
     0
  3

 72
    65
 73
     0
 40
0.0
  0
LTYPE
  5
16
330
5
100
AcDbSymbolTableRecord
100
AcDbLinetypeTableRecord
  2
Continuous
 70
     0
  3
Solid line
 72
    65
 73
     0
 40
0.0
  0
LTYPE
  5
98
330
5
100
AcDbSymbolTableRecord
100
AcDbLinetypeTableRecord
  2
HIDDEN2
 70
     0
  3
Hidden (.5x) _ _ _ _ _ _ _ _ _ _ _ _ _ _ _ _ _
 72
    65
 73
     2
 40
4.762499999999998
 49
3.174999999999998
 74
     0
 49
-1.587499999999999
 74
     0
  0
ENDTAB
  0
TABLE
  2
LAYER
  5
2
102
{ACAD_XDICTIONARY
360
AB
102
}
330
0
100
AcDbSymbolTable
 70
     6
  0
LAYER
  5
10
102
{ACAD_XDICTIONARY
360
CF251
102
}
330
2
100
AcDbSymbolTableRecord
100
AcDbLayerTableRecord
  2
0
 70
     0
 62
     7
  6
Continuous
370
    18
390
F
  0
LAYER
  5
9D
102
{ACAD_XDICTIONARY
360
CF259
102
}
330
2
100
AcDbSymbolTableRecord
100
AcDbLayerTableRecord
  2
虚线
 70
     0
 62
     4
  6
HIDDEN2
370
    18
390
F
  0
LAYER
  5
582
330
2
100
AcDbSymbolTableRecord
100
AcDbLayerTableRecord
  2
Defpoints
 70
     0
 62
     7
  6
Continuous
290
     0
370
     9
390
F
  0
LAYER
  5
16DF9
102
{ACAD_XDICTIONARY
360
CF25D
102
}
330
2
100
AcDbSymbolTableRecord
100
AcDbLayerTableRecord
  2
标注
 70
     0
 62
    80
  6
Continuous
370
     5
390
F
1001
AcAecLayerStandard
1000

1000

  0
LAYER
  5
D5CE8
330
2
100
AcDbSymbolTableRecord
100
AcDbLayerTableRecord
  2
粗实线
 70
     0
 62
     7
  6
Continuous
370
    25
390
F
1001
AcAecLayerStandard
1000

1000

  0
ENDTAB
  0
TABLE
  2
STYLE
  5
3
330
0
100
AcDbSymbolTable
 70
     3
  0
STYLE
  5
11
330
3
100
AcDbSymbolTableRecord
100
AcDbTextStyleTableRecord
  2
Standard
 70
     0
 40
0.0
 41
1.0
 50
0.0
 71
     0
 42
0.2
  3
SimSun.ttf
  4

1001
ACAD
1000
SimSun
1071
    34306
  0
ENDTAB
  0
TABLE
  2
VIEW
  5
6
330
0
100
AcDbSymbolTable
 70
     0
  0
ENDTAB
  0
TABLE
  2
UCS
  5
7
330
0
100
AcDbSymbolTable
 70
     0
  0
ENDTAB
  0
TABLE
  2
APPID
  5
9
330
0
100
AcDbSymbolTable
 70
    20
  0
APPID
  5
12
330
9
100
AcDbSymbolTableRecord
100
AcDbRegAppTableRecord
  2
ACAD
 70
     0
  0
APPID
  5
A5
330
9
100
AcDbSymbolTableRecord
100
AcDbRegAppTableRecord
  2
AcAecLayerStandard
 70
     0
  0
APPID
  5
A6
330
9
100
AcDbSymbolTableRecord
100
AcDbRegAppTableRecord
  2
ACAD_DSTYLE_DIMEXT_LENGTH
 70
     0
  0
APPID
  5
A7
330
9
100
AcDbSymbolTableRecord
100
AcDbRegAppTableRecord
  2
ACAD_DSTYLE_DIMEXT_ENABLED
 70
     0
  0
APPID
  5
A8
330
9
100
AcDbSymbolTableRecord
100
AcDbRegAppTableRecord
  2
ACAD_DSTYLE_DIMJOGGED_JOGANGLE_SYMBOL
 70
     0
  0
APPID
  5
A9
330
9
100
AcDbSymbolTableRecord
100
AcDbRegAppTableRecord
  2
ACAD_DSTYLE_DIMARC_LENGTH_SYMBOL
 70
     0
  0
APPID
  5
AA
330
9
100
AcDbSymbolTableRecord
100
AcDbRegAppTableRecord
  2
ACAD_PSEXT
 70
     0
  0
APPID
  5
173
330
9
100
AcDbSymbolTableRecord
100
AcDbRegAppTableRecord
  2
DCO15
 70
     0
  0
APPID
  5
11D5
330
9
100
AcDbSymbolTableRecord
100
AcDbRegAppTableRecord
  2
ACAD_EXEMPT_FROM_CAD_STANDARDS
 70
     0
  0
APPID
  5
B456
330
9
100
AcDbSymbolTableRecord
100
AcDbRegAppTableRecord
  2
ACAD_DSTYLE_DIMTEXT_FILL
 70
     0
  0
APPID
  5
B459
330
9
100
AcDbSymbolTableRecord
100
AcDbRegAppTableRecord
  2
ACAD_DSTYLE_DIM_LINETYPE
 70
     0
  0
APPID
  5
B45A
330
9
100
AcDbSymbolTableRecord
100
AcDbRegAppTableRecord
  2
ACAD_DSTYLE_DIM_EXT1_LINETYPE
 70
     0
  0
APPID
  5
B45B
330
9
100
AcDbSymbolTableRecord
100
AcDbRegAppTableRecord
  2
ACAD_DSTYLE_DIM_EXT2_LINETYPE
 70
     0
  0
APPID
  5
CEDBC
330
9
100
AcDbSymbolTableRecord
100
AcDbRegAppTableRecord
  2
ACAD_MLEADERVER
 70
     0
  0
APPID
  5
CF35C
330
9
100
AcDbSymbolTableRecord
100
AcDbRegAppTableRecord
  2
ACAD_DSTYLE_DIMRADIAL_EXTENSION
 70
     0
  0
APPID
  5
CF43A
330
9
100
AcDbSymbolTableRecord
100
AcDbRegAppTableRecord
  2
ACAD_DSTYLE_DIMJAG
 70
     0
  0
APPID
  5
CF43B
330
9
100
AcDbSymbolTableRecord
100
AcDbRegAppTableRecord
  2
ACAD_DSTYLE_DIMTALN
 70
     0
  0
APPID
  5
D5B36
330
9
100
AcDbSymbolTableRecord
100
AcDbRegAppTableRecord
  2
AcDbBlockRepETag
 70
     0
  0
APPID
  5
D6F8C
330
9
100
AcDbSymbolTableRecord
100
AcDbRegAppTableRecord
  2
ACAD_DSTYLE_DIMBREAK
 70
     0
  0
APPID
  5
D773B
330
9
100
AcDbSymbolTableRecord
100
AcDbRegAppTableRecord
  2
ACAD_DSTYLE_DIMINSPECT
 70
     0
  0
ENDTAB
  0
TABLE
  2
DIMSTYLE
  5
A
330
0
100
AcDbSymbolTable
 70
    11
100
AcDbDimStyleTable
 71
     2
340
3BDB5
340
27
  0
DIMSTYLE
105
27
330
A
100
AcDbSymbolTableRecord
100
AcDbDimStyleTableRecord
  2
Standard
 70
     0
 41
20.0
 42
25.0
 44
8.0
 73
     0
 74
     0
 78
     8
 79
     2
140
20.0
147
5.0
172
     1
176
     3
177
     3
178
     3
179
     1
271
     1
272
     1
278
    44
340
11
1001
ACAD_DSTYLE_DIMJOGGED_JOGANGLE_SYMBOL
1070
   384
1040
0.7853981633974483
1001
ACAD_DSTYLE_DIMEXT_LENGTH
1070
   378
1040
8.0
  0
DIMSTYLE
105
3BDB5
102
{ACAD_REACTORS
330
D795B
330
D7975
330
D798F
330
D799C
330
D79B6
330
D79D0
330
D79DD
330
D79ED
330
D79FD
330
D7A0D
330
D7A1D
330
D7A2D
330
D7A3D
330
D7A4D
330
D7A5D
330
D7A6D
330
D7A7D
330
D7A99
330
D7AB3
330
D7AD7
330
D7AF3
330
D7B22
330
D7CE5
102
}
330
A
100
AcDbSymbolTableRecord
100
AcDbDimStyleTableRecord
  2
副本Standard
 70
     0
  4
"
 41
16.0
 42
7.0
 44
7.0
 73
     0
 74
     0
 78
     8
 79
     2
140
20.0
141
2.5
143
0.03937
147
1.0
171
     3
172
     1
176
   256
177
   256
178
   256
179
     1
271
     1
272
     1
273
     7
274
     3
278
    44
340
11
1001
ACAD_DSTYLE_DIMJAG
1070
   388
1040
1.5
1001
ACAD_DSTYLE_DIMTALN
1070
   392
1070
     0
  0
ENDTAB
  0
TABLE
  2
BLOCK_RECORD
  5
1
330
0
100
AcDbSymbolTable
 70
    25
  0
BLOCK_RECORD
  5
1F
102
{ACAD_XDICTIONARY
360
118B
102
}
330
1
100
AcDbSymbolTableRecord
100
AcDbBlockTableRecord
  2
*Model_Space
340
22
  0
BLOCK_RECORD
  5
73
330
1
100
AcDbSymbolTableRecord
100
AcDbBlockTableRecord
  2
*Paper_Space
340
74
  0
BLOCK_RECORD
  5
78
330
1
100
AcDbSymbolTableRecord
100
AcDbBlockTableRecord
  2
*Paper_Space0
340
79
  0
BLOCK_RECORD
  5
D795C
330
1
100
AcDbSymbolTableRecord
100
AcDbBlockTableRecord
  2
*D2
340
0
  0
BLOCK_RECORD
  5
D7976
330
1
100
AcDbSymbolTableRecord
100
AcDbBlockTableRecord
  2
*D3
340
0
  0
BLOCK_RECORD
  5
D7990
330
1
100
AcDbSymbolTableRecord
100
AcDbBlockTableRecord
  2
*D4
340
0
  0
BLOCK_RECORD
  5
D799D
330
1
100
AcDbSymbolTableRecord
100
AcDbBlockTableRecord
  2
*D5
340
0
  0
BLOCK_RECORD
  5
D79B7
330
1
100
AcDbSymbolTableRecord
100
AcDbBlockTableRecord
  2
*D6
340
0
  0
BLOCK_RECORD
  5
D79D1
330
1
100
AcDbSymbolTableRecord
100
AcDbBlockTableRecord
  2
*D7
340
0
  0
BLOCK_RECORD
  5
D79DE
330
1
100
AcDbSymbolTableRecord
100
AcDbBlockTableRecord
  2
*D8
340
0
  0
BLOCK_RECORD
  5
D79EE
330
1
100
AcDbSymbolTableRecord
100
AcDbBlockTableRecord
  2
*D9
340
0
  0
BLOCK_RECORD
  5
D79FE
330
1
100
AcDbSymbolTableRecord
100
AcDbBlockTableRecord
  2
*D10
340
0
  0
BLOCK_RECORD
  5
D7A0E
330
1
100
AcDbSymbolTableRecord
100
AcDbBlockTableRecord
  2
*D11
340
0
  0
BLOCK_RECORD
  5
D7A1E
330
1
100
AcDbSymbolTableRecord
100
AcDbBlockTableRecord
  2
*D12
340
0
  0
BLOCK_RECORD
  5
D7A2E
330
1
100
AcDbSymbolTableRecord
100
AcDbBlockTableRecord
  2
*D13
340
0
  0
BLOCK_RECORD
  5
D7A3E
330
1
100
AcDbSymbolTableRecord
100
AcDbBlockTableRecord
  2
*D14
340
0
  0
BLOCK_RECORD
  5
D7A4E
330
1
100
AcDbSymbolTableRecord
100
AcDbBlockTableRecord
  2
*D15
340
0
  0
BLOCK_RECORD
  5
D7A5E
330
1
100
AcDbSymbolTableRecord
100
AcDbBlockTableRecord
  2
*D16
340
0
  0
BLOCK_RECORD
  5
D7A6E
330
1
100
AcDbSymbolTableRecord
100
AcDbBlockTableRecord
  2
*D17
340
0
  0
BLOCK_RECORD
  5
D7A7E
330
1
100
AcDbSymbolTableRecord
100
AcDbBlockTableRecord
  2
*D18
340
0
  0
BLOCK_RECORD
  5
D7A9A
330
1
100
AcDbSymbolTableRecord
100
AcDbBlockTableRecord
  2
*D19
340
0
  0
BLOCK_RECORD
  5
D7AB4
330
1
100
AcDbSymbolTableRecord
100
AcDbBlockTableRecord
  2
*D20
340
0
  0
BLOCK_RECORD
  5
D7AD8
330
1
100
AcDbSymbolTableRecord
100
AcDbBlockTableRecord
  2
*D21
340
0
  0
BLOCK_RECORD
  5
D7AF4
330
1
100
AcDbSymbolTableRecord
100
AcDbBlockTableRecord
  2
*D22
340
0
  0
BLOCK_RECORD
  5
D7B23
330
1
100
AcDbSymbolTableRecord
100
AcDbBlockTableRecord
  2
*D23
340
0
  0
BLOCK_RECORD
  5
D7CE6
330
1
100
AcDbSymbolTableRecord
100
AcDbBlockTableRecord
  2
*D24
340
0
  0
ENDTAB
  0
ENDSEC
  0
SECTION
  2
BLOCKS
  0
BLOCK
  5
20
330
1F
100
AcDbEntity
  8
0
100
AcDbBlockBegin
  2
*Model_Space
 70
     0
 10
0.0
 20
0.0
 30
0.0
  3
*Model_Space
  1

  0
ENDBLK
  5
21
330
1F
100
AcDbEntity
  8
0
100
AcDbBlockEnd
  0
BLOCK
  5
75
330
73
100
AcDbEntity
 67
     1
  8
0
100
AcDbBlockBegin
  2
*Paper_Space
 70
     0
 10
0.0
 20
0.0
 30
0.0
  3
*Paper_Space
  1

  0
ENDBLK
  5
76
330
73
100
AcDbEntity
 67
     1
  8
0
100
AcDbBlockEnd
  0
BLOCK
  5
7A
330
78
100
AcDbEntity
 67
     1
  8
0
100
AcDbBlockBegin
  2
*Paper_Space0
 70
     0
 10
0.0
 20
0.0
 30
0.0
  3
*Paper_Space0
  1

  0
ENDBLK
  5
7B
330
78
100
AcDbEntity
 67
     1
  8
0
100
AcDbBlockEnd
  0
BLOCK
  5
D795D
330
D795C
100
AcDbEntity
  8
0
 48
5.0
100
AcDbBlockBegin
  2
*D2
 70
     1
 10
0.0
 20
0.0
 30
0.0
  3
*D2
  1

  0
LINE
  5
D7C19
330
D795C
100
AcDbEntity
  8
标注
 48
5.0
370
    -2
100
AcDbLine
 10
102519.7050127904
 20
-168817.8314829117
 30
0.0
 11
102519.7050127904
 21
-169073.6295167763
 31
0.0
  0
LINE
  5
D7C1A
330
D795C
100
AcDbEntity
  8
标注
 48
5.0
370
    -2
100
AcDbLine
 10
103214.7050127904
 20
-168817.8314829117
 30
0.0
 11
103214.7050127904
 21
-169073.6295167763
 31
0.0
  0
LINE
  5
D7C1B
330
D795C
100
AcDbEntity
  8
标注
 48
5.0
370
    -2
100
AcDbLine
 10
102535.7050127904
 20
-169066.6295167763
 30
0.0
 11
102846.4272350126
 21
-169066.6295167763
 31
0.0
  0
LINE
  5
D7C1C
330
D795C
100
AcDbEntity
  8
标注
 48
5.0
370
    -2
100
AcDbLine
 10
103198.7050127904
 20
-169066.6295167763
 30
0.0
 11
102887.9827905682
 21
-169066.6295167763
 31
0.0
  0
SOLID
  5
D7C1D
330
D795C
100
AcDbEntity
  8
标注
 48
5.0
100
AcDbTrace
 10
102535.7050127904
 20
-169063.9628501096
 30
0.0
 11
102535.7050127904
 21
-169069.296183443
 31
0.0
 12
102519.7050127904
 22
-169066.6295167763
 32
0.0
 13
102519.7050127904
 23
-169066.6295167763
 33
0.0
  0
SOLID
  5
D7C1E
330
D795C
100
AcDbEntity
  8
标注
 48
5.0
100
AcDbTrace
 10
103198.7050127904
 20
-169063.9628501096
 30
0.0
 11
103198.7050127904
 21
-169069.296183443
 31
0.0
 12
103214.7050127904
 22
-169066.6295167763
 32
0.0
 13
103214.7050127904
 23
-169066.6295167763
 33
0.0
  0
MTEXT
  5
D7C1F
330
D795C
100
AcDbEntity
  8
标注
 48
5.0
100
AcDbMText
 10
102867.2050127904
 20
-169066.6295167763
 30
0.0
 40
20.0
 41
0.0
 71
     5
 72
     1
  1
\A1;695
 73
     1
 44
1.0
1001
ACAD
1000
MTEXTBEGIN
1070
    73
1070
     1
1070
    44
1040
1.0
1070
    74
1070
     0
1000
MTEXTEND
  0
POINT
  5
D7C20
330
D795C
100
AcDbEntity
  8
Defpoints
 62
     0
 48
5.0
100
AcDbPoint
 10
102519.7050127904
 20
-168810.8314829117
 30
0.0
  0
POINT
  5
D7C21
330
D795C
100
AcDbEntity
  8
Defpoints
 62
     0
 48
5.0
100
AcDbPoint
 10
103214.7050127904
 20
-168810.8314829117
 30
0.0
  0
POINT
  5
D7C22
330
D795C
100
AcDbEntity
  8
Defpoints
 62
     0
 48
5.0
100
AcDbPoint
 10
103214.7050127904
 20
-169066.6295167763
 30
0.0
  0
ENDBLK
  5
D795E
330
D795C
100
AcDbEntity
  8
0
 48
5.0
100
AcDbBlockEnd
  0
BLOCK
  5
D7977
330
D7976
100
AcDbEntity
  8
0
 48
5.0
100
AcDbBlockBegin
  2
*D3
 70
     1
 10
0.0
 20
0.0
 30
0.0
  3
*D3
  1

  0
LINE
  5
D7C23
330
D7976
100
AcDbEntity
  8
标注
 48
5.0
370
    -2
100
AcDbLine
 10
102515.7050127904
 20
-168817.8314829117
 30
0.0
 11
102515.7050127904
 21
-169116.0178957573
 31
0.0
  0
LINE
  5
D7C24
330
D7976
100
AcDbEntity
  8
标注
 48
5.0
370
    -2
100
AcDbLine
 10
103218.7050127904
 20
-168817.8314829117
 30
0.0
 11
103218.7050127904
 21
-169116.0178957573
 31
0.0
  0
LINE
  5
D7C25
330
D7976
100
AcDbEntity
  8
标注
 48
5.0
370
    -2
100
AcDbLine
 10
102531.7050127904
 20
-169109.0178957573
 30
0.0
 11
102846.6494572348
 21
-169109.0178957573
 31
0.0
  0
LINE
  5
D7C26
330
D7976
100
AcDbEntity
  8
标注
 48
5.0
370
    -2
100
AcDbLine
 10
103202.7050127904
 20
-169109.0178957573
 30
0.0
 11
102887.760568346
 21
-169109.0178957573
 31
0.0
  0
SOLID
  5
D7C27
330
D7976
100
AcDbEntity
  8
标注
 48
5.0
100
AcDbTrace
 10
102531.7050127904
 20
-169106.3512290907
 30
0.0
 11
102531.7050127904
 21
-169111.684562424
 31
0.0
 12
102515.7050127904
 22
-169109.0178957573
 32
0.0
 13
102515.7050127904
 23
-169109.0178957573
 33
0.0
  0
SOLID
  5
D7C28
330
D7976
100
AcDbEntity
  8
标注
 48
5.0
100
AcDbTrace
 10
103202.7050127904
 20
-169106.3512290907
 30
0.0
 11
103202.7050127904
 21
-169111.684562424
 31
0.0
 12
103218.7050127904
 22
-169109.0178957573
 32
0.0
 13
103218.7050127904
 23
-169109.0178957573
 33
0.0
  0
MTEXT
  5
D7C29
330
D7976
100
AcDbEntity
  8
标注
 48
5.0
100
AcDbMText
 10
102867.2050127904
 20
-169109.0178957573
 30
0.0
 40
20.0
 41
0.0
 71
     5
 72
     1
  1
\A1;703
 73
     1
 44
1.0
1001
ACAD
1000
MTEXTBEGIN
1070
    73
1070
     1
1070
    44
1040
1.0
1070
    74
1070
     0
1000
MTEXTEND
  0
POINT
  5
D7C2A
330
D7976
100
AcDbEntity
  8
Defpoints
 62
     0
 48
5.0
100
AcDbPoint
 10
102515.7050127904
 20
-168810.8314829117
 30
0.0
  0
POINT
  5
D7C2B
330
D7976
100
AcDbEntity
  8
Defpoints
 62
     0
 48
5.0
100
AcDbPoint
 10
103218.7050127904
 20
-168810.8314829117
 30
0.0
  0
POINT
  5
D7C2C
330
D7976
100
AcDbEntity
  8
Defpoints
 62
     0
 48
5.0
100
AcDbPoint
 10
103218.7050127904
 20
-169109.0178957573
 30
0.0
  0
ENDBLK
  5
D7978
330
D7976
100
AcDbEntity
  8
0
 48
5.0
100
AcDbBlockEnd
  0
BLOCK
  5
D7991
330
D7990
100
AcDbEntity
  8
0
 48
5.0
100
AcDbBlockBegin
  2
*D4
 70
     1
 10
0.0
 20
0.0
 30
0.0
  3
*D4
  1

  0
LINE
  5
D7C2D
330
D7990
100
AcDbEntity
  8
标注
 48
5.0
370
    -2
100
AcDbLine
 10
103198.7050127904
 20
-169066.6295167763
 30
0.0
 11
103182.7050127904
 21
-169066.6295167763
 31
0.0
  0
LINE
  5
D7C2E
330
D7990
100
AcDbEntity
  8
标注
 48
5.0
370
    -2
100
AcDbLine
 10
103234.7050127904
 20
-169066.6295167763
 30
0.0
 11
103250.7050127904
 21
-169066.6295167763
 31
0.0
  0
LINE
  5
D7C2F
330
D7990
100
AcDbEntity
  8
标注
 48
5.0
370
    -2
100
AcDbLine
 10
103214.7050127904
 20
-169066.6295167763
 30
0.0
 11
103218.7050127904
 21
-169066.6295167763
 31
0.0
  0
SOLID
  5
D7C30
330
D7990
100
AcDbEntity
  8
标注
 48
5.0
100
AcDbTrace
 10
103198.7050127904
 20
-169063.9628501096
 30
0.0
 11
103198.7050127904
 21
-169069.296183443
 31
0.0
 12
103214.7050127904
 22
-169066.6295167763
 32
0.0
 13
103214.7050127904
 23
-169066.6295167763
 33
0.0
  0
SOLID
  5
D7C31
330
D7990
100
AcDbEntity
  8
标注
 48
5.0
100
AcDbTrace
 10
103234.7050127904
 20
-169063.9628501096
 30
0.0
 11
103234.7050127904
 21
-169069.296183443
 31
0.0
 12
103218.7050127904
 22
-169066.6295167763
 32
0.0
 13
103218.7050127904
 23
-169066.6295167763
 33
0.0
  0
MTEXT
  5
D7C32
330
D7990
100
AcDbEntity
  8
标注
 48
5.0
100
AcDbMText
 10
103257.8161239015
 20
-169066.6295167763
 30
0.0
 40
20.0
 41
0.0
 71
     5
 72
     1
  1
\A1;4
 73
     1
 44
1.0
1001
ACAD
1000
MTEXTBEGIN
1070
    73
1070
     1
1070
    44
1040
1.0
1070
    74
1070
     0
1000
MTEXTEND
  0
POINT
  5
D7C33
330
D7990
100
AcDbEntity
  8
Defpoints
 62
     0
 48
5.0
100
AcDbPoint
 10
103214.7050127904
 20
-169066.6295167763
 30
0.0
  0
POINT
  5
D7C34
330
D7990
100
AcDbEntity
  8
Defpoints
 62
     0
 48
5.0
100
AcDbPoint
 10
103218.7050127904
 20
-169066.6295167763
 30
0.0
  0
POINT
  5
D7C35
330
D7990
100
AcDbEntity
  8
Defpoints
 62
     0
 48
5.0
100
AcDbPoint
 10
103218.7050127904
 20
-169066.6295167763
 30
0.0
  0
ENDBLK
  5
D7992
330
D7990
100
AcDbEntity
  8
0
 48
5.0
100
AcDbBlockEnd
  0
BLOCK
  5
D799E
330
D799D
100
AcDbEntity
  8
0
 48
5.0
100
AcDbBlockBegin
  2
*D5
 70
     1
 10
0.0
 20
0.0
 30
0.0
  3
*D5
  1

  0
LINE
  5
D7C36
330
D799D
100
AcDbEntity
  8
标注
 48
5.0
370
    -2
100
AcDbLine
 10
103056.2050127904
 20
-169021.3314829117
 30
0.0
 11
103264.6284016925
 21
-169021.3314829117
 31
0.0
  0
LINE
  5
D7C37
330
D799D
100
AcDbEntity
  8
标注
 48
5.0
370
    -2
100
AcDbLine
 10
103056.2050127912
 20
-168600.3314829118
 30
0.0
 11
103264.6284016925
 21
-168600.3314829118
 31
0.0
  0
LINE
  5
D7C38
330
D799D
100
AcDbEntity
  8
标注
 48
5.0
370
    -2
100
AcDbLine
 10
103257.6284016925
 20
-169005.3314829117
 30
0.0
 11
103257.6284016925
 21
-168831.2203718006
 31
0.0
  0
LINE
  5
D7C39
330
D799D
100
AcDbEntity
  8
标注
 48
5.0
370
    -2
100
AcDbLine
 10
103257.6284016925
 20
-168616.3314829118
 30
0.0
 11
103257.6284016925
 21
-168790.4425940229
 31
0.0
  0
SOLID
  5
D7C3A
330
D799D
100
AcDbEntity
  8
标注
 48
5.0
100
AcDbTrace
 10
103254.9617350259
 20
-169005.3314829117
 30
0.0
 11
103260.2950683592
 21
-169005.3314829117
 31
0.0
 12
103257.6284016925
 22
-169021.3314829117
 32
0.0
 13
103257.6284016925
 23
-169021.3314829117
 33
0.0
  0
SOLID
  5
D7C3B
330
D799D
100
AcDbEntity
  8
标注
 48
5.0
100
AcDbTrace
 10
103254.9617350259
 20
-168616.3314829118
 30
0.0
 11
103260.2950683592
 21
-168616.3314829118
 31
0.0
 12
103257.6284016925
 22
-168600.3314829118
 32
0.0
 13
103257.6284016925
 23
-168600.3314829118
 33
0.0
  0
MTEXT
  5
D7C3C
330
D799D
100
AcDbEntity
  8
标注
 48
5.0
100
AcDbMText
 10
103257.6284016926
 20
-168810.8314829117
 30
0.0
 40
20.0
 41
0.0
 71
     5
 72
     1
  1
\A1;421
 11
0.0000000000000001
 21
1.0
 31
0.0
 73
     1
 44
1.0
1001
ACAD
1000
MTEXTBEGIN
1070
    73
1070
     1
1070
    44
1040
1.0
1070
    74
1070
     0
1000
MTEXTEND
  0
POINT
  5
D7C3D
330
D799D
100
AcDbEntity
  8
Defpoints
 62
     0
 48
5.0
100
AcDbPoint
 10
103049.2050127904
 20
-169021.3314829117
 30
0.0
  0
POINT
  5
D7C3E
330
D799D
100
AcDbEntity
  8
Defpoints
 62
     0
 48
5.0
100
AcDbPoint
 10
103049.2050127912
 20
-168600.3314829118
 30
0.0
  0
POINT
  5
D7C3F
330
D799D
100
AcDbEntity
  8
Defpoints
 62
     0
 48
5.0
100
AcDbPoint
 10
103257.6284016925
 20
-168600.3314829118
 30
0.0
  0
ENDBLK
  5
D799F
330
D799D
100
AcDbEntity
  8
0
 48
5.0
100
AcDbBlockEnd
  0
BLOCK
  5
D79B8
330
D79B7
100
AcDbEntity
  8
0
 48
5.0
100
AcDbBlockBegin
  2
*D6
 70
     1
 10
0.0
 20
0.0
 30
0.0
  3
*D6
  1

  0
LINE
  5
D7C40
330
D79B7
100
AcDbEntity
  8
标注
 48
5.0
370
    -2
100
AcDbLine
 10
103056.2050127902
 20
-169025.3314829117
 30
0.0
 11
103306.3352317085
 21
-169025.3314829117
 31
0.0
  0
LINE
  5
D7C41
330
D79B7
100
AcDbEntity
  8
标注
 48
5.0
370
    -2
100
AcDbLine
 10
103056.2050127905
 20
-168596.3314829117
 30
0.0
 11
103306.3352317085
 21
-168596.3314829117
 31
0.0
  0
LINE
  5
D7C42
330
D79B7
100
AcDbEntity
  8
标注
 48
5.0
370
    -2
100
AcDbLine
 10
103299.3352317085
 20
-169009.3314829117
 30
0.0
 11
103299.3352317085
 21
-168831.8870384673
 31
0.0
  0
LINE
  5
D7C43
330
D79B7
100
AcDbEntity
  8
标注
 48
5.0
370
    -2
100
AcDbLine
 10
103299.3352317085
 20
-168612.3314829117
 30
0.0
 11
103299.3352317085
 21
-168789.7759273562
 31
0.0
  0
SOLID
  5
D7C44
330
D79B7
100
AcDbEntity
  8
标注
 48
5.0
100
AcDbTrace
 10
103296.6685650418
 20
-169009.3314829117
 30
0.0
 11
103302.0018983752
 21
-169009.3314829117
 31
0.0
 12
103299.3352317085
 22
-169025.3314829117
 32
0.0
 13
103299.3352317085
 23
-169025.3314829117
 33
0.0
  0
SOLID
  5
D7C45
330
D79B7
100
AcDbEntity
  8
标注
 48
5.0
100
AcDbTrace
 10
103296.6685650418
 20
-168612.3314829117
 30
0.0
 11
103302.0018983752
 21
-168612.3314829117
 31
0.0
 12
103299.3352317085
 22
-168596.3314829117
 32
0.0
 13
103299.3352317085
 23
-168596.3314829117
 33
0.0
  0
MTEXT
  5
D7C46
330
D79B7
100
AcDbEntity
  8
标注
 48
5.0
100
AcDbMText
 10
103299.3352317085
 20
-168810.8314829117
 30
0.0
 40
20.0
 41
0.0
 71
     5
 72
     1
  1
\A1;429
 11
0.0000000000000001
 21
1.0
 31
0.0
 73
     1
 44
1.0
1001
ACAD
1000
MTEXTBEGIN
1070
    73
1070
     1
1070
    44
1040
1.0
1070
    74
1070
     0
1000
MTEXTEND
  0
POINT
  5
D7C47
330
D79B7
100
AcDbEntity
  8
Defpoints
 62
     0
 48
5.0
100
AcDbPoint
 10
103049.2050127902
 20
-169025.3314829117
 30
0.0
  0
POINT
  5
D7C48
330
D79B7
100
AcDbEntity
  8
Defpoints
 62
     0
 48
5.0
100
AcDbPoint
 10
103049.2050127905
 20
-168596.3314829117
 30
0.0
  0
POINT
  5
D7C49
330
D79B7
100
AcDbEntity
  8
Defpoints
 62
     0
 48
5.0
100
AcDbPoint
 10
103299.3352317085
 20
-168596.3314829117
 30
0.0
  0
ENDBLK
  5
D79B9
330
D79B7
100
AcDbEntity
  8
0
 48
5.0
100
AcDbBlockEnd
  0
BLOCK
  5
D79D2
330
D79D1
100
AcDbEntity
  8
0
 48
5.0
100
AcDbBlockBegin
  2
*D7
 70
     1
 10
0.0
 20
0.0
 30
0.0
  3
*D7
  1

  0
LINE
  5
D7C4A
330
D79D1
100
AcDbEntity
  8
标注
 48
5.0
370
    -2
100
AcDbLine
 10
103257.6284016925
 20
-168616.3314829118
 30
0.0
 11
103257.6284016925
 21
-168632.3314829118
 31
0.0
  0
LINE
  5
D7C4B
330
D79D1
100
AcDbEntity
  8
标注
 48
5.0
370
    -2
100
AcDbLine
 10
103257.6284016925
 20
-168580.3314829118
 30
0.0
 11
103257.6284016925
 21
-168564.3314829118
 31
0.0
  0
LINE
  5
D7C4C
330
D79D1
100
AcDbEntity
  8
标注
 48
5.0
370
    -2
100
AcDbLine
 10
103257.6284016925
 20
-168600.3314829118
 30
0.0
 11
103257.6284016925
 21
-168596.3314829117
 31
0.0
  0
SOLID
  5
D7C4D
330
D79D1
100
AcDbEntity
  8
标注
 48
5.0
100
AcDbTrace
 10
103254.9617350259
 20
-168616.3314829118
 30
0.0
 11
103260.2950683592
 21
-168616.3314829118
 31
0.0
 12
103257.6284016925
 22
-168600.3314829118
 32
0.0
 13
103257.6284016925
 23
-168600.3314829118
 33
0.0
  0
SOLID
  5
D7C4E
330
D79D1
100
AcDbEntity
  8
标注
 48
5.0
100
AcDbTrace
 10
103254.9617350259
 20
-168580.3314829118
 30
0.0
 11
103260.2950683592
 21
-168580.3314829118
 31
0.0
 12
103257.6284016925
 22
-168596.3314829117
 32
0.0
 13
103257.6284016925
 23
-168596.3314829117
 33
0.0
  0
MTEXT
  5
D7C4F
330
D79D1
100
AcDbEntity
  8
标注
 48
5.0
100
AcDbMText
 10
103257.6284016926
 20
-168557.2203718006
 30
0.0
 40
20.0
 41
0.0
 71
     5
 72
     1
  1
\A1;4
 11
0.0000000000000001
 21
1.0
 31
0.0
 73
     1
 44
1.0
1001
ACAD
1000
MTEXTBEGIN
1070
    73
1070
     1
1070
    44
1040
1.0
1070
    74
1070
     0
1000
MTEXTEND
  0
POINT
  5
D7C50
330
D79D1
100
AcDbEntity
  8
Defpoints
 62
     0
 48
5.0
100
AcDbPoint
 10
103257.6284016925
 20
-168600.3314829118
 30
0.0
  0
POINT
  5
D7C51
330
D79D1
100
AcDbEntity
  8
Defpoints
 62
     0
 48
5.0
100
AcDbPoint
 10
103257.6284016925
 20
-168596.3314829117
 30
0.0
  0
POINT
  5
D7C52
330
D79D1
100
AcDbEntity
  8
Defpoints
 62
     0
 48
5.0
100
AcDbPoint
 10
103257.6284016925
 20
-168596.3314829117
 30
0.0
  0
ENDBLK
  5
D79D3
330
D79D1
100
AcDbEntity
  8
0
 48
5.0
100
AcDbBlockEnd
  0
BLOCK
  5
D79DF
330
D79DE
100
AcDbEntity
  8
0
 48
5.0
100
AcDbBlockBegin
  2
*D8
 70
     1
 10
0.0
 20
0.0
 30
0.0
  3
*D8
  1

  0
LINE
  5
D7CB3
330
D79DE
100
AcDbEntity
  8
标注
 48
5.0
370
    -2
100
AcDbLine
 10
102656.4036505098
 20
-168632.8717240116
 30
0.0
 11
102655.803622129
 21
-168616.8829790344
 31
0.0
  0
MTEXT
  5
D7CB4
330
D79DE
100
AcDbEntity
  8
标注
 48
5.0
100
AcDbMText
 10
102657.4641173357
 20
-168661.1296100996
 30
0.0
 40
20.0
 41
0.0
 71
     5
 72
     1
  1
\A1;R800
 11
0.0375017738030973
 21
-0.9992965610676449
 31
0.0
 73
     1
 44
1.0
1001
ACAD
1000
MTEXTBEGIN
1070
    73
1070
     1
1070
    44
1040
1.0
1070
    74
1070
     0
1000
MTEXTEND
  0
SOLID
  5
D7CB5
330
D79DE
100
AcDbEntity
  8
标注
 48
5.0
100
AcDbTrace
 10
102658.4684129585
 20
-168616.7829743043
 30
0.0
 11
102653.1388312994
 21
-168616.9829837646
 31
0.0
 12
102655.2035937481
 22
-168600.8942340574
 32
0.0
 13
102655.2035937481
 23
-168600.8942340574
 33
0.0
  0
POINT
  5
D7CB6
330
D79DE
100
AcDbEntity
  8
Defpoints
 62
     0
 48
5.0
100
AcDbPoint
 10
102655.2035937481
 20
-168600.8942340574
 30
0.0
  0
POINT
  5
D7CB7
330
D79DE
100
AcDbEntity
  8
Defpoints
 62
     0
 48
5.0
100
AcDbPoint
 10
102685.2050127907
 20
-169400.3314829124
 30
0.0
  0
ENDBLK
  5
D79E0
330
D79DE
100
AcDbEntity
  8
0
 48
5.0
100
AcDbBlockEnd
  0
BLOCK
  5
D79EF
330
D79EE
100
AcDbEntity
  8
0
 48
5.0
100
AcDbBlockBegin
  2
*D9
 70
     1
 10
0.0
 20
0.0
 30
0.0
  3
*D9
  1

  0
LINE
  5
D7CB8
330
D79EE
100
AcDbEntity
  8
标注
 48
5.0
370
    -2
100
AcDbLine
 10
102582.3851393049
 20
-168646.0731201281
 30
0.0
 11
102573.2829520859
 21
-168632.914465644
 31
0.0
  0
MTEXT
  5
D7CB9
330
D79EE
100
AcDbEntity
  8
标注
 48
5.0
100
AcDbMText
 10
102594.42657448
 20
-168663.4809234559
 30
0.0
 40
20.0
 41
0.0
 71
     5
 72
     1
  1
\A1;R90
 11
0.5688867011869884
 21
-0.8224159052526806
 31
0.0
 73
     1
 44
1.0
1001
ACAD
1000
MTEXTBEGIN
1070
    73
1070
     1
1070
    44
1040
1.0
1070
    74
1070
     0
1000
MTEXTEND
  0
SOLID
  5
D7CBA
330
D79EE
100
AcDbEntity
  8
标注
 48
5.0
100
AcDbTrace
 10
102575.4760611666
 20
-168631.3974344409
 30
0.0
 11
102571.0898430052
 21
-168634.4314968472
 31
0.0
 12
102564.1807648669
 22
-168619.75581116
 32
0.0
 13
102564.1807648669
 23
-168619.75581116
 33
0.0
  0
POINT
  5
D7CBB
330
D79EE
100
AcDbEntity
  8
Defpoints
 62
     0
 48
5.0
100
AcDbPoint
 10
102564.1807648669
 20
-168619.75581116
 30
0.0
  0
POINT
  5
D7CBC
330
D79EE
100
AcDbEntity
  8
Defpoints
 62
     0
 48
5.0
100
AcDbPoint
 10
102615.3805679738
 20
-168693.7732426328
 30
0.0
  0
ENDBLK
  5
D79F0
330
D79EE
100
AcDbEntity
  8
0
 48
5.0
100
AcDbBlockEnd
  0
BLOCK
  5
D79FF
330
D79FE
100
AcDbEntity
  8
0
 48
5.0
100
AcDbBlockBegin
  2
*D10
 70
     1
 10
0.0
 20
0.0
 30
0.0
  3
*D10
  1

  0
LINE
  5
D7CBD
330
D79FE
100
AcDbEntity
  8
标注
 48
5.0
370
    -2
100
AcDbLine
 10
102552.7094113056
 20
-168760.3721347385
 30
0.0
 11
102536.7220851038
 21
-168759.7354237205
 31
0.0
  0
MTEXT
  5
D7CBE
330
D79FE
100
AcDbEntity
  8
标注
 48
5.0
100
AcDbMText
 10
102588.070268217
 20
-168761.7804157053
 30
0.0
 40
20.0
 41
0.0
 71
     5
 72
     1
  1
\A1;R1300
 11
0.9992078876063413
 21
-0.0397944386224138
 31
0.0
 73
     1
 44
1.0
1001
ACAD
1000
MTEXTBEGIN
1070
    73
1070
     1
1070
    44
1040
1.0
1070
    74
1070
     0
1000
MTEXTEND
  0
SOLID
  5
D7CBF
330
D79FE
100
AcDbEntity
  8
标注
 48
5.0
100
AcDbTrace
 10
102536.8282036068
 20
-168757.0708693536
 30
0.0
 11
102536.6159666009
 21
-168762.3999780874
 31
0.0
 12
102520.7347589022
 22
-168759.0987127026
 32
0.0
 13
102520.7347589022
 23
-168759.0987127026
 33
0.0
  0
POINT
  5
D7CC0
330
D79FE
100
AcDbEntity
  8
Defpoints
 62
     0
 48
5.0
100
AcDbPoint
 10
102520.7347589022
 20
-168759.0987127026
 30
0.0
  0
POINT
  5
D7CC1
330
D79FE
100
AcDbEntity
  8
Defpoints
 62
     0
 48
5.0
100
AcDbPoint
 10
103819.7050127905
 20
-168810.8314829117
 30
0.0
  0
ENDBLK
  5
D7A00
330
D79FE
100
AcDbEntity
  8
0
 48
5.0
100
AcDbBlockEnd
  0
BLOCK
  5
D7A0F
330
D7A0E
100
AcDbEntity
  8
0
 48
5.0
100
AcDbBlockBegin
  2
*D11
 70
     1
 10
0.0
 20
0.0
 30
0.0
  3
*D11
  1

  0
LINE
  5
D7CC2
330
D7A0E
100
AcDbEntity
  8
标注
 48
5.0
370
    -2
100
AcDbLine
 10
102567.5808964965
 20
-168960.7407719817
 30
0.0
 11
102554.3947802269
 21
-168969.8031302689
 31
0.0
  0
MTEXT
  5
D7CC3
330
D7A0E
100
AcDbEntity
  8
标注
 48
5.0
100
AcDbMText
 10
102585.0250294781
 20
-168948.7520271643
 30
0.0
 40
20.0
 41
0.0
 71
     5
 72
     1
  1
\A1;R90
 11
0.824132266847981
 21
0.566397392949516
 31
0.0
 73
     1
 44
1.0
1001
ACAD
1000
MTEXTBEGIN
1070
    73
1070
     1
1070
    44
1040
1.0
1070
    74
1070
     0
1000
MTEXTEND
  0
SOLID
  5
D7CC4
330
D7A0E
100
AcDbEntity
  8
标注
 48
5.0
100
AcDbTrace
 10
102552.8843871791
 20
-168967.605444224
 30
0.0
 11
102555.9051732748
 21
-168972.0008163138
 31
0.0
 12
102541.2086639574
 22
-168978.8654885561
 32
0.0
 13
102541.2086639574
 23
-168978.8654885561
 33
0.0
  0
POINT
  5
D7CC5
330
D7A0E
100
AcDbEntity
  8
Defpoints
 62
     0
 48
5.0
100
AcDbPoint
 10
102541.2086639574
 20
-168978.8654885561
 30
0.0
  0
POINT
  5
D7CC6
330
D7A0E
100
AcDbEntity
  8
Defpoints
 62
     0
 48
5.0
100
AcDbPoint
 10
102615.3805679738
 20
-168927.8897231905
 30
0.0
  0
ENDBLK
  5
D7A10
330
D7A0E
100
AcDbEntity
  8
0
 48
5.0
100
AcDbBlockEnd
  0
BLOCK
  5
D7A1F
330
D7A1E
100
AcDbEntity
  8
0
 48
5.0
100
AcDbBlockBegin
  2
*D12
 70
     1
 10
0.0
 20
0.0
 30
0.0
  3
*D12
  1

  0
LINE
  5
D7CC7
330
D7A1E
100
AcDbEntity
  8
标注
 48
5.0
370
    -2
100
AcDbLine
 10
102636.7760761886
 20
-168987.8030336553
 30
0.0
 11
102635.7671400094
 21
-169003.7711909625
 31
0.0
  0
MTEXT
  5
D7CC8
330
D7A1E
100
AcDbEntity
  8
标注
 48
5.0
100
AcDbMText
 10
102638.5592307553
 20
-168959.5815334145
 30
0.0
 40
20.0
 41
0.0
 71
     5
 72
     1
  1
\A1;R800
 11
0.0630585112002564
 21
0.9980098316976677
 31
0.0
 73
     1
 44
1.0
1001
ACAD
1000
MTEXTBEGIN
1070
    73
1070
     1
1070
    44
1040
1.0
1070
    74
1070
     0
1000
MTEXTEND
  0
SOLID
  5
D7CC9
330
D7A1E
100
AcDbEntity
  8
标注
 48
5.0
100
AcDbTrace
 10
102633.1057804582
 20
-169003.6030349326
 30
0.0
 11
102638.4284995605
 21
-169003.9393469924
 31
0.0
 12
102634.7582038302
 22
-169019.7393482697
 32
0.0
 13
102634.7582038302
 23
-169019.7393482697
 33
0.0
  0
POINT
  5
D7CCA
330
D7A1E
100
AcDbEntity
  8
Defpoints
 62
     0
 48
5.0
100
AcDbPoint
 10
102634.7582038302
 20
-169019.7393482697
 30
0.0
  0
POINT
  5
D7CCB
330
D7A1E
100
AcDbEntity
  8
Defpoints
 62
     0
 48
5.0
100
AcDbPoint
 10
102685.2050127904
 20
-168221.3314829111
 30
0.0
  0
ENDBLK
  5
D7A20
330
D7A1E
100
AcDbEntity
  8
0
 48
5.0
100
AcDbBlockEnd
  0
BLOCK
  5
D7A2F
330
D7A2E
100
AcDbEntity
  8
0
 48
5.0
100
AcDbBlockBegin
  2
*D13
 70
     1
 10
0.0
 20
0.0
 30
0.0
  3
*D13
  1

  0
LINE
  5
D7CCC
330
D7A2E
100
AcDbEntity
  8
标注
 48
5.0
370
    -2
100
AcDbLine
 10
103082.1800594321
 20
-168633.0397220415
 30
0.0
 11
103082.8670395705
 21
-168617.0544770234
 31
0.0
  0
MTEXT
  5
D7CCD
330
D7A2E
100
AcDbEntity
  8
标注
 48
5.0
100
AcDbMText
 10
103080.9659174515
 20
-168661.2914224382
 30
0.0
 40
20.0
 41
0.0
 71
     5
 72
     1
  1
\A1;R800
 11
0.0429362586472653
 21
0.9990778136328396
 31
0.0
 73
     1
 44
1.0
1001
ACAD
1000
MTEXTBEGIN
1070
    73
1070
     1
1070
    44
1040
1.0
1070
    74
1070
     0
1000
MTEXTEND
  0
SOLID
  5
D7CCE
330
D7A2E
100
AcDbEntity
  8
标注
 48
5.0
100
AcDbTrace
 10
103080.2028320674
 20
-168616.9399803337
 30
0.0
 11
103085.5312470735
 21
-168617.1689737132
 31
0.0
 12
103083.5540197088
 22
-168601.0692320053
 32
0.0
 13
103083.5540197088
 23
-168601.0692320053
 33
0.0
  0
POINT
  5
D7CCF
330
D7A2E
100
AcDbEntity
  8
Defpoints
 62
     0
 48
5.0
100
AcDbPoint
 10
103083.5540197088
 20
-168601.0692320053
 30
0.0
  0
POINT
  5
D7CD0
330
D7A2E
100
AcDbEntity
  8
Defpoints
 62
     0
 48
5.0
100
AcDbPoint
 10
103049.205012791
 20
-169400.3314829112
 30
0.0
  0
ENDBLK
  5
D7A30
330
D7A2E
100
AcDbEntity
  8
0
 48
5.0
100
AcDbBlockEnd
  0
BLOCK
  5
D7A3F
330
D7A3E
100
AcDbEntity
  8
0
 48
5.0
100
AcDbBlockBegin
  2
*D14
 70
     1
 10
0.0
 20
0.0
 30
0.0
  3
*D14
  1

  0
LINE
  5
D7CD1
330
D7A3E
100
AcDbEntity
  8
标注
 48
5.0
370
    -2
100
AcDbLine
 10
103154.2350136684
 20
-168647.6801973612
 30
0.0
 11
103163.9468912026
 21
-168634.9648745277
 31
0.0
  0
MTEXT
  5
D7CD2
330
D7A3E
100
AcDbEntity
  8
标注
 48
5.0
100
AcDbMText
 10
103141.3870090138
 20
-168664.5015098598
 30
0.0
 40
20.0
 41
0.0
 71
     5
 72
     1
  1
\A1;R90
 11
0.606992345886723
 21
0.7947076770957563
 31
0.0
 73
     1
 44
1.0
1001
ACAD
1000
MTEXTBEGIN
1070
    73
1070
     1
1070
    44
1040
1.0
1070
    74
1070
     0
1000
MTEXTEND
  0
SOLID
  5
D7CD3
330
D7A3E
100
AcDbEntity
  8
标注
 48
5.0
100
AcDbTrace
 10
103161.8276707303
 20
-168633.346228272
 30
0.0
 11
103166.0661116748
 21
-168636.5835207834
 31
0.0
 12
103173.6587687368
 22
-168622.2495516942
 32
0.0
 13
103173.6587687368
 23
-168622.2495516942
 33
0.0
  0
POINT
  5
D7CD4
330
D7A3E
100
AcDbEntity
  8
Defpoints
 62
     0
 48
5.0
100
AcDbPoint
 10
103173.6587687368
 20
-168622.2495516942
 30
0.0
  0
POINT
  5
D7CD5
330
D7A3E
100
AcDbEntity
  8
Defpoints
 62
     0
 48
5.0
100
AcDbPoint
 10
103119.0294576069
 20
-168693.7732426329
 30
0.0
  0
ENDBLK
  5
D7A40
330
D7A3E
100
AcDbEntity
  8
0
 48
5.0
100
AcDbBlockEnd
  0
BLOCK
  5
D7A4F
330
D7A4E
100
AcDbEntity
  8
0
 48
5.0
100
AcDbBlockBegin
  2
*D15
 70
     1
 10
0.0
 20
0.0
 30
0.0
  3
*D15
  1

  0
LINE
  5
D7CD6
330
D7A4E
100
AcDbEntity
  8
标注
 48
5.0
370
    -2
100
AcDbLine
 10
103182.3243255798
 20
-168779.7625620575
 30
0.0
 11
103198.3195219557
 21
-168779.3705252013
 31
0.0
  0
MTEXT
  5
D7CD7
330
D7A4E
100
AcDbEntity
  8
标注
 48
5.0
100
AcDbMText
 10
103146.9460613734
 20
-168780.629671354
 30
0.0
 40
20.0
 41
0.0
 71
     5
 72
     1
  1
\A1;R1300
 11
0.9996997734933062
 21
0.0245023035127764
 31
0.0
 73
     1
 44
1.0
1001
ACAD
1000
MTEXTBEGIN
1070
    73
1070
     1
1070
    44
1040
1.0
1070
    74
1070
     0
1000
MTEXTEND
  0
SOLID
  5
D7CD8
330
D7A4E
100
AcDbEntity
  8
标注
 48
5.0
100
AcDbTrace
 10
103198.2541824796
 20
-168776.7046591386
 30
0.0
 11
103198.3848614317
 21
-168782.0363912639
 31
0.0
 12
103214.3147183316
 22
-168778.9784883451
 32
0.0
 13
103214.3147183316
 23
-168778.9784883451
 33
0.0
  0
POINT
  5
D7CD9
330
D7A4E
100
AcDbEntity
  8
Defpoints
 62
     0
 48
5.0
100
AcDbPoint
 10
103214.3147183316
 20
-168778.9784883451
 30
0.0
  0
POINT
  5
D7CDA
330
D7A4E
100
AcDbEntity
  8
Defpoints
 62
     0
 48
5.0
100
AcDbPoint
 10
101914.7050127903
 20
-168810.8314829117
 30
0.0
  0
ENDBLK
  5
D7A50
330
D7A4E
100
AcDbEntity
  8
0
 48
5.0
100
AcDbBlockEnd
  0
BLOCK
  5
D7A5F
330
D7A5E
100
AcDbEntity
  8
0
 48
5.0
100
AcDbBlockBegin
  2
*D16
 70
     1
 10
0.0
 20
0.0
 30
0.0
  3
*D16
  1

  0
LINE
  5
D7CDB
330
D7A5E
100
AcDbEntity
  8
标注
 48
5.0
370
    -2
100
AcDbLine
 10
103159.4112354234
 20
-168969.522787219
 30
0.0
 11
103170.5510362004
 21
-168981.0077703993
 31
0.0
  0
MTEXT
  5
D7CDC
330
D7A5E
100
AcDbEntity
  8
标注
 48
5.0
100
AcDbMText
 10
103144.6742073123
 20
-168954.3291115535
 30
0.0
 40
20.0
 41
0.0
 71
     5
 72
     1
  1
\A1;R90
 11
0.6962375485582976
 21
-0.717811448764599
 31
0.0
 73
     1
 44
1.0
1001
ACAD
1000
MTEXTBEGIN
1070
    73
1070
     1
1070
    44
1040
1.0
1070
    74
1070
     0
1000
MTEXTEND
  0
SOLID
  5
D7CDD
330
D7A5E
100
AcDbEntity
  8
标注
 48
5.0
100
AcDbTrace
 10
103172.4652000638
 20
-168979.1511369365
 30
0.0
 11
103168.636872337
 21
-168982.8644038621
 31
0.0
 12
103181.6908369773
 22
-168992.4927535795
 32
0.0
 13
103181.6908369773
 23
-168992.4927535795
 33
0.0
  0
POINT
  5
D7CDE
330
D7A5E
100
AcDbEntity
  8
Defpoints
 62
     0
 48
5.0
100
AcDbPoint
 10
103181.6908369773
 20
-168992.4927535795
 30
0.0
  0
POINT
  5
D7CDF
330
D7A5E
100
AcDbEntity
  8
Defpoints
 62
     0
 48
5.0
100
AcDbPoint
 10
103119.029457607
 20
-168927.8897231906
 30
0.0
  0
ENDBLK
  5
D7A60
330
D7A5E
100
AcDbEntity
  8
0
 48
5.0
100
AcDbBlockEnd
  0
BLOCK
  5
D7A6F
330
D7A6E
100
AcDbEntity
  8
0
 48
5.0
100
AcDbBlockBegin
  2
*D17
 70
     1
 10
0.0
 20
0.0
 30
0.0
  3
*D17
  1

  0
LINE
  5
D7CE0
330
D7A6E
100
AcDbEntity
  8
标注
 48
5.0
370
    -2
100
AcDbLine
 10
103092.1105593828
 20
-168988.1320528589
 30
0.0
 11
103093.0044249369
 21
-169004.1070647329
 31
0.0
  0
MTEXT
  5
D7CE1
330
D7A6E
100
AcDbEntity
  8
标注
 48
5.0
100
AcDbMText
 10
103090.5307761641
 20
-168959.8984381235
 30
0.0
 40
20.0
 41
0.0
 71
     5
 72
     1
  1
\A1;R800
 11
0.0558665971258676
 21
-0.9984382421189486
 31
0.0
 73
     1
 44
1.0
1001
ACAD
1000
MTEXTBEGIN
1070
    73
1070
     1
1070
    44
1040
1.0
1070
    74
1070
     0
1000
MTEXTEND
  0
SOLID
  5
D7CE2
330
D7A6E
100
AcDbEntity
  8
标注
 48
5.0
100
AcDbTrace
 10
103095.6669269159
 20
-169003.9580871406
 30
0.0
 11
103090.3419229579
 21
-169004.2560423253
 31
0.0
 12
103093.8982904909
 22
-169020.0820766068
 32
0.0
 13
103093.8982904909
 23
-169020.0820766068
 33
0.0
  0
POINT
  5
D7CE3
330
D7A6E
100
AcDbEntity
  8
Defpoints
 62
     0
 48
5.0
100
AcDbPoint
 10
103093.8982904909
 20
-169020.0820766068
 30
0.0
  0
POINT
  5
D7CE4
330
D7A6E
100
AcDbEntity
  8
Defpoints
 62
     0
 48
5.0
100
AcDbPoint
 10
103049.2050127902
 20
-168221.331482911
 30
0.0
  0
ENDBLK
  5
D7A70
330
D7A6E
100
AcDbEntity
  8
0
 48
5.0
100
AcDbBlockEnd
  0
BLOCK
  5
D7A7F
330
D7A7E
100
AcDbEntity
  8
0
 48
5.0
100
AcDbBlockBegin
  2
*D18
 70
     1
 10
0.0
 20
0.0
 30
0.0
  3
*D18
  1

  0
LINE
  5
D7C76
330
D7A7E
100
AcDbEntity
  8
标注
 48
5.0
370
    -2
100
AcDbLine
 10
102533.7050127804
 20
-168817.8314829117
 30
0.0
 11
102533.7050127804
 21
-168847.079243985
 31
0.0
  0
LINE
  5
D7C77
330
D7A7E
100
AcDbEntity
  8
标注
 48
5.0
370
    -2
100
AcDbLine
 10
102515.7050127904
 20
-168817.8314829117
 30
0.0
 11
102515.7050127904
 21
-168847.079243985
 31
0.0
  0
LINE
  5
D7C78
330
D7A7E
100
AcDbEntity
  8
标注
 48
5.0
370
    -2
100
AcDbLine
 10
102549.7050127804
 20
-168840.079243985
 30
0.0
 11
102565.7050127804
 21
-168840.079243985
 31
0.0
  0
LINE
  5
D7C79
330
D7A7E
100
AcDbEntity
  8
标注
 48
5.0
370
    -2
100
AcDbLine
 10
102499.7050127904
 20
-168840.079243985
 30
0.0
 11
102483.7050127904
 21
-168840.079243985
 31
0.0
  0
LINE
  5
D7C7A
330
D7A7E
100
AcDbEntity
  8
标注
 48
5.0
370
    -2
100
AcDbLine
 10
102533.7050127804
 20
-168840.079243985
 30
0.0
 11
102515.7050127904
 21
-168840.079243985
 31
0.0
  0
SOLID
  5
D7C7B
330
D7A7E
100
AcDbEntity
  8
标注
 48
5.0
100
AcDbTrace
 10
102549.7050127804
 20
-168837.4125773183
 30
0.0
 11
102549.7050127804
 21
-168842.7459106516
 31
0.0
 12
102533.7050127804
 22
-168840.079243985
 32
0.0
 13
102533.7050127804
 23
-168840.079243985
 33
0.0
  0
SOLID
  5
D7C7C
330
D7A7E
100
AcDbEntity
  8
标注
 48
5.0
100
AcDbTrace
 10
102499.7050127904
 20
-168837.4125773183
 30
0.0
 11
102499.7050127904
 21
-168842.7459106516
 31
0.0
 12
102515.7050127904
 22
-168840.079243985
 32
0.0
 13
102515.7050127904
 23
-168840.079243985
 33
0.0
  0
MTEXT
  5
D7C7D
330
D7A7E
100
AcDbEntity
  8
标注
 48
5.0
100
AcDbMText
 10
102470.9272350126
 20
-168840.079243985
 30
0.0
 40
20.0
 41
0.0
 71
     5
 72
     1
  1
\A1;18
 73
     1
 44
1.0
1001
ACAD
1000
MTEXTBEGIN
1070
    73
1070
     1
1070
    44
1040
1.0
1070
    74
1070
     0
1000
MTEXTEND
  0
POINT
  5
D7C7E
330
D7A7E
100
AcDbEntity
  8
Defpoints
 62
     0
 48
5.0
100
AcDbPoint
 10
102533.7050127804
 20
-168810.8314829117
 30
0.0
  0
POINT
  5
D7C7F
330
D7A7E
100
AcDbEntity
  8
Defpoints
 62
     0
 48
5.0
100
AcDbPoint
 10
102515.7050127904
 20
-168810.8314829117
 30
0.0
  0
POINT
  5
D7C80
330
D7A7E
100
AcDbEntity
  8
Defpoints
 62
     0
 48
5.0
100
AcDbPoint
 10
102515.7050127904
 20
-168840.079243985
 30
0.0
  0
ENDBLK
  5
D7A80
330
D7A7E
100
AcDbEntity
  8
0
 48
5.0
100
AcDbBlockEnd
  0
BLOCK
  5
D7A9B
330
D7A9A
100
AcDbEntity
  8
0
 48
5.0
100
AcDbBlockBegin
  2
*D19
 70
     1
 10
0.0
 20
0.0
 30
0.0
  3
*D19
  1

  0
LINE
  5
D7C81
330
D7A9A
100
AcDbEntity
  8
标注
 48
5.0
370
    -2
100
AcDbLine
 10
102533.7050127804
 20
-168817.8314829117
 30
0.0
 11
102533.7050127804
 21
-168847.079243985
 31
0.0
  0
LINE
  5
D7C82
330
D7A9A
100
AcDbEntity
  8
标注
 48
5.0
370
    -2
100
AcDbLine
 10
102867.2050127904
 20
-168817.8314829117
 30
0.0
 11
102867.2050127904
 21
-168847.079243985
 31
0.0
  0
LINE
  5
D7C83
330
D7A9A
100
AcDbEntity
  8
标注
 48
5.0
370
    -2
100
AcDbLine
 10
102549.7050127804
 20
-168840.079243985
 30
0.0
 11
102665.6216794521
 21
-168840.079243985
 31
0.0
  0
LINE
  5
D7C84
330
D7A9A
100
AcDbEntity
  8
标注
 48
5.0
370
    -2
100
AcDbLine
 10
102851.2050127904
 20
-168840.079243985
 30
0.0
 11
102735.2883461187
 21
-168840.079243985
 31
0.0
  0
SOLID
  5
D7C85
330
D7A9A
100
AcDbEntity
  8
标注
 48
5.0
100
AcDbTrace
 10
102549.7050127804
 20
-168837.4125773183
 30
0.0
 11
102549.7050127804
 21
-168842.7459106516
 31
0.0
 12
102533.7050127804
 22
-168840.079243985
 32
0.0
 13
102533.7050127804
 23
-168840.079243985
 33
0.0
  0
SOLID
  5
D7C86
330
D7A9A
100
AcDbEntity
  8
标注
 48
5.0
100
AcDbTrace
 10
102851.2050127904
 20
-168837.4125773183
 30
0.0
 11
102851.2050127904
 21
-168842.7459106516
 31
0.0
 12
102867.2050127904
 22
-168840.079243985
 32
0.0
 13
102867.2050127904
 23
-168840.079243985
 33
0.0
  0
MTEXT
  5
D7C87
330
D7A9A
100
AcDbEntity
  8
标注
 48
5.0
100
AcDbMText
 10
102700.4550127854
 20
-168840.079243985
 30
0.0
 40
20.0
 41
0.0
 71
     5
 72
     1
  1
\A1;333,5
 73
     1
 44
1.0
1001
ACAD
1000
MTEXTBEGIN
1070
    73
1070
     1
1070
    44
1040
1.0
1070
    74
1070
     0
1000
MTEXTEND
  0
POINT
  5
D7C88
330
D7A9A
100
AcDbEntity
  8
Defpoints
 62
     0
 48
5.0
100
AcDbPoint
 10
102533.7050127804
 20
-168810.8314829117
 30
0.0
  0
POINT
  5
D7C89
330
D7A9A
100
AcDbEntity
  8
Defpoints
 62
     0
 48
5.0
100
AcDbPoint
 10
102867.2050127904
 20
-168810.8314829117
 30
0.0
  0
POINT
  5
D7C8A
330
D7A9A
100
AcDbEntity
  8
Defpoints
 62
     0
 48
5.0
100
AcDbPoint
 10
102867.2050127904
 20
-168840.079243985
 30
0.0
  0
ENDBLK
  5
D7A9C
330
D7A9A
100
AcDbEntity
  8
0
 48
5.0
100
AcDbBlockEnd
  0
BLOCK
  5
D7AB5
330
D7AB4
100
AcDbEntity
  8
0
 48
5.0
100
AcDbBlockBegin
  2
*D20
 70
     1
 10
0.0
 20
0.0
 30
0.0
  3
*D20
  1

  0
LINE
  5
D7C8B
330
D7AB4
100
AcDbEntity
  8
标注
 48
5.0
370
    -2
100
AcDbLine
 10
102533.7050127804
 20
-168817.8314829117
 30
0.0
 11
102533.7050127804
 21
-168889.6673402132
 31
0.0
  0
LINE
  5
D7C8C
330
D7AB4
100
AcDbEntity
  8
标注
 48
5.0
370
    -2
100
AcDbLine
 10
103200.7050128004
 20
-168817.8314829117
 30
0.0
 11
103200.7050128004
 21
-168889.6673402132
 31
0.0
  0
LINE
  5
D7C8D
330
D7AB4
100
AcDbEntity
  8
标注
 48
5.0
370
    -2
100
AcDbLine
 10
102549.7050127804
 20
-168882.6673402131
 30
0.0
 11
102677.2050127854
 21
-168882.6673402131
 31
0.0
  0
LINE
  5
D7C8E
330
D7AB4
100
AcDbEntity
  8
标注
 48
5.0
370
    -2
100
AcDbLine
 10
103184.7050128004
 20
-168882.6673402131
 30
0.0
 11
102718.8716794521
 21
-168882.6673402131
 31
0.0
  0
SOLID
  5
D7C8F
330
D7AB4
100
AcDbEntity
  8
标注
 48
5.0
100
AcDbTrace
 10
102549.7050127804
 20
-168880.0006735465
 30
0.0
 11
102549.7050127804
 21
-168885.3340068798
 31
0.0
 12
102533.7050127804
 22
-168882.6673402131
 32
0.0
 13
102533.7050127804
 23
-168882.6673402131
 33
0.0
  0
SOLID
  5
D7C90
330
D7AB4
100
AcDbEntity
  8
标注
 48
5.0
100
AcDbTrace
 10
103184.7050128004
 20
-168880.0006735465
 30
0.0
 11
103184.7050128004
 21
-168885.3340068798
 31
0.0
 12
103200.7050128004
 22
-168882.6673402131
 32
0.0
 13
103200.7050128004
 23
-168882.6673402131
 33
0.0
  0
MTEXT
  5
D7C91
330
D7AB4
100
AcDbEntity
  8
标注
 48
5.0
100
AcDbMText
 10
102698.0383461187
 20
-168882.6673402131
 30
0.0
 40
20.0
 41
0.0
 71
     5
 72
     1
  1
\A1;667
 73
     1
 44
1.0
1001
ACAD
1000
MTEXTBEGIN
1070
    73
1070
     1
1070
    44
1040
1.0
1070
    74
1070
     0
1000
MTEXTEND
  0
POINT
  5
D7C92
330
D7AB4
100
AcDbEntity
  8
Defpoints
 62
     0
 48
5.0
100
AcDbPoint
 10
102533.7050127804
 20
-168810.8314829117
 30
0.0
  0
POINT
  5
D7C93
330
D7AB4
100
AcDbEntity
  8
Defpoints
 62
     0
 48
5.0
100
AcDbPoint
 10
103200.7050128004
 20
-168810.8314829117
 30
0.0
  0
POINT
  5
D7C94
330
D7AB4
100
AcDbEntity
  8
Defpoints
 62
     0
 48
5.0
100
AcDbPoint
 10
103200.7050128004
 20
-168882.6673402131
 30
0.0
  0
ENDBLK
  5
D7AB6
330
D7AB4
100
AcDbEntity
  8
0
 48
5.0
100
AcDbBlockEnd
  0
BLOCK
  5
D7AD9
330
D7AD8
100
AcDbEntity
  8
0
 48
5.0
100
AcDbBlockBegin
  2
*D21
 70
     1
 10
0.0
 20
0.0
 30
0.0
  3
*D21
  1

  0
LINE
  5
D7C95
330
D7AD8
100
AcDbEntity
  8
标注
 48
5.0
370
    -2
100
AcDbLine
 10
102874.2050127904
 20
-168614.3314829017
 30
0.0
 11
102910.7878934069
 21
-168614.3314829017
 31
0.0
  0
LINE
  5
D7C96
330
D7AD8
100
AcDbEntity
  8
标注
 48
5.0
370
    -2
100
AcDbLine
 10
102874.2050127904
 20
-168596.3314829117
 30
0.0
 11
102910.7878934069
 21
-168596.3314829117
 31
0.0
  0
LINE
  5
D7C97
330
D7AD8
100
AcDbEntity
  8
标注
 48
5.0
370
    -2
100
AcDbLine
 10
102903.7878934069
 20
-168630.3314829017
 30
0.0
 11
102903.7878934069
 21
-168646.3314829017
 31
0.0
  0
LINE
  5
D7C98
330
D7AD8
100
AcDbEntity
  8
标注
 48
5.0
370
    -2
100
AcDbLine
 10
102903.7878934069
 20
-168580.3314829117
 30
0.0
 11
102903.7878934069
 21
-168564.3314829117
 31
0.0
  0
LINE
  5
D7C99
330
D7AD8
100
AcDbEntity
  8
标注
 48
5.0
370
    -2
100
AcDbLine
 10
102903.7878934069
 20
-168614.3314829017
 30
0.0
 11
102903.7878934069
 21
-168596.3314829117
 31
0.0
  0
SOLID
  5
D7C9A
330
D7AD8
100
AcDbEntity
  8
标注
 48
5.0
100
AcDbTrace
 10
102901.1212267402
 20
-168630.3314829017
 30
0.0
 11
102906.4545600736
 21
-168630.3314829017
 31
0.0
 12
102903.7878934069
 22
-168614.3314829017
 32
0.0
 13
102903.7878934069
 23
-168614.3314829017
 33
0.0
  0
SOLID
  5
D7C9B
330
D7AD8
100
AcDbEntity
  8
标注
 48
5.0
100
AcDbTrace
 10
102901.1212267402
 20
-168580.3314829117
 30
0.0
 11
102906.4545600736
 21
-168580.3314829117
 31
0.0
 12
102903.7878934069
 22
-168596.3314829117
 32
0.0
 13
102903.7878934069
 23
-168596.3314829117
 33
0.0
  0
MTEXT
  5
D7C9C
330
D7AD8
100
AcDbEntity
  8
标注
 48
5.0
100
AcDbMText
 10
102903.7878934069
 20
-168551.5537051339
 30
0.0
 40
20.0
 41
0.0
 71
     5
 72
     1
  1
\A1;18
 11
0.0000000000000001
 21
1.0
 31
0.0
 73
     1
 44
1.0
1001
ACAD
1000
MTEXTBEGIN
1070
    73
1070
     1
1070
    44
1040
1.0
1070
    74
1070
     0
1000
MTEXTEND
  0
POINT
  5
D7C9D
330
D7AD8
100
AcDbEntity
  8
Defpoints
 62
     0
 48
5.0
100
AcDbPoint
 10
102867.2050127904
 20
-168614.3314829017
 30
0.0
  0
POINT
  5
D7C9E
330
D7AD8
100
AcDbEntity
  8
Defpoints
 62
     0
 48
5.0
100
AcDbPoint
 10
102867.2050127904
 20
-168596.3314829117
 30
0.0
  0
POINT
  5
D7C9F
330
D7AD8
100
AcDbEntity
  8
Defpoints
 62
     0
 48
5.0
100
AcDbPoint
 10
102903.7878934069
 20
-168596.3314829117
 30
0.0
  0
ENDBLK
  5
D7ADA
330
D7AD8
100
AcDbEntity
  8
0
 48
5.0
100
AcDbBlockEnd
  0
BLOCK
  5
D7AF5
330
D7AF4
100
AcDbEntity
  8
0
 48
5.0
100
AcDbBlockBegin
  2
*D22
 70
     1
 10
0.0
 20
0.0
 30
0.0
  3
*D22
  1

  0
LINE
  5
D7CA0
330
D7AF4
100
AcDbEntity
  8
标注
 48
5.0
370
    -2
100
AcDbLine
 10
102874.2050127904
 20
-168614.3314829017
 30
0.0
 11
102955.1461670381
 21
-168614.3314829017
 31
0.0
  0
LINE
  5
D7CA1
330
D7AF4
100
AcDbEntity
  8
标注
 48
5.0
370
    -2
100
AcDbLine
 10
102874.2050127904
 20
-169007.3314829217
 30
0.0
 11
102955.1461670381
 21
-169007.3314829217
 31
0.0
  0
LINE
  5
D7CA2
330
D7AF4
100
AcDbEntity
  8
标注
 48
5.0
370
    -2
100
AcDbLine
 10
102948.1461670381
 20
-168630.3314829017
 30
0.0
 11
102948.1461670381
 21
-168689.6648162401
 31
0.0
  0
LINE
  5
D7CA3
330
D7AF4
100
AcDbEntity
  8
标注
 48
5.0
370
    -2
100
AcDbLine
 10
102948.1461670381
 20
-168991.3314829217
 30
0.0
 11
102948.1461670381
 21
-168730.8870384623
 31
0.0
  0
SOLID
  5
D7CA4
330
D7AF4
100
AcDbEntity
  8
标注
 48
5.0
100
AcDbTrace
 10
102945.4795003714
 20
-168630.3314829017
 30
0.0
 11
102950.8128337048
 21
-168630.3314829017
 31
0.0
 12
102948.1461670381
 22
-168614.3314829017
 32
0.0
 13
102948.1461670381
 23
-168614.3314829017
 33
0.0
  0
SOLID
  5
D7CA5
330
D7AF4
100
AcDbEntity
  8
标注
 48
5.0
100
AcDbTrace
 10
102945.4795003714
 20
-168991.3314829217
 30
0.0
 11
102950.8128337048
 21
-168991.3314829217
 31
0.0
 12
102948.1461670381
 22
-169007.3314829217
 32
0.0
 13
102948.1461670381
 23
-169007.3314829217
 33
0.0
  0
MTEXT
  5
D7CA6
330
D7AF4
100
AcDbEntity
  8
标注
 48
5.0
100
AcDbMText
 10
102948.1461670382
 20
-168710.2759273512
 30
0.0
 40
20.0
 41
0.0
 71
     5
 72
     1
  1
\A1;393
 11
0.0000000000000001
 21
1.0
 31
0.0
 73
     1
 44
1.0
1001
ACAD
1000
MTEXTBEGIN
1070
    73
1070
     1
1070
    44
1040
1.0
1070
    74
1070
     0
1000
MTEXTEND
  0
POINT
  5
D7CA7
330
D7AF4
100
AcDbEntity
  8
Defpoints
 62
     0
 48
5.0
100
AcDbPoint
 10
102867.2050127904
 20
-168614.3314829017
 30
0.0
  0
POINT
  5
D7CA8
330
D7AF4
100
AcDbEntity
  8
Defpoints
 62
     0
 48
5.0
100
AcDbPoint
 10
102867.2050127904
 20
-169007.3314829217
 30
0.0
  0
POINT
  5
D7CA9
330
D7AF4
100
AcDbEntity
  8
Defpoints
 62
     0
 48
5.0
100
AcDbPoint
 10
102948.1461670381
 20
-169007.3314829217
 30
0.0
  0
ENDBLK
  5
D7AF6
330
D7AF4
100
AcDbEntity
  8
0
 48
5.0
100
AcDbBlockEnd
  0
BLOCK
  5
D7B24
330
D7B23
100
AcDbEntity
  8
0
 48
5.0
100
AcDbBlockBegin
  2
*D23
 70
     1
 10
0.0
 20
0.0
 30
0.0
  3
*D23
  1

  0
LINE
  5
D7CAA
330
D7B23
100
AcDbEntity
  8
标注
 48
5.0
370
    -2
100
AcDbLine
 10
102874.2050127904
 20
-168810.8314829117
 30
0.0
 11
102910.7878934069
 21
-168810.8314829117
 31
0.0
  0
LINE
  5
D7CAB
330
D7B23
100
AcDbEntity
  8
标注
 48
5.0
370
    -2
100
AcDbLine
 10
102903.7878934069
 20
-168630.3314829017
 30
0.0
 11
102903.7878934069
 21
-168678.5259273512
 31
0.0
  0
LINE
  5
D7CAC
330
D7B23
100
AcDbEntity
  8
标注
 48
5.0
370
    -2
100
AcDbLine
 10
102903.7878934069
 20
-168794.8314829117
 30
0.0
 11
102903.7878934069
 21
-168746.6370384623
 31
0.0
  0
SOLID
  5
D7CAD
330
D7B23
100
AcDbEntity
  8
标注
 48
5.0
100
AcDbTrace
 10
102901.1212267402
 20
-168630.3314829017
 30
0.0
 11
102906.4545600736
 21
-168630.3314829017
 31
0.0
 12
102903.7878934069
 22
-168614.3314829017
 32
0.0
 13
102903.7878934069
 23
-168614.3314829017
 33
0.0
  0
SOLID
  5
D7CAE
330
D7B23
100
AcDbEntity
  8
标注
 48
5.0
100
AcDbTrace
 10
102901.1212267402
 20
-168794.8314829117
 30
0.0
 11
102906.4545600736
 21
-168794.8314829117
 31
0.0
 12
102903.7878934069
 22
-168810.8314829117
 32
0.0
 13
102903.7878934069
 23
-168810.8314829117
 33
0.0
  0
MTEXT
  5
D7CAF
330
D7B23
100
AcDbEntity
  8
标注
 48
5.0
100
AcDbMText
 10
102903.7878934069
 20
-168712.5814829067
 30
0.0
 40
20.0
 41
0.0
 71
     5
 72
     1
  1
\A1;196,5
 11
0.0000000000000001
 21
1.0
 31
0.0
 73
     1
 44
1.0
1001
ACAD
1000
MTEXTBEGIN
1070
    73
1070
     1
1070
    44
1040
1.0
1070
    74
1070
     0
1000
MTEXTEND
  0
POINT
  5
D7CB0
330
D7B23
100
AcDbEntity
  8
Defpoints
 62
     0
 48
5.0
100
AcDbPoint
 10
102903.7878934069
 20
-168614.3314829017
 30
0.0
  0
POINT
  5
D7CB1
330
D7B23
100
AcDbEntity
  8
Defpoints
 62
     0
 48
5.0
100
AcDbPoint
 10
102867.2050127904
 20
-168810.8314829117
 30
0.0
  0
POINT
  5
D7CB2
330
D7B23
100
AcDbEntity
  8
Defpoints
 62
     0
 48
5.0
100
AcDbPoint
 10
102903.7878934069
 20
-168810.8314829117
 30
0.0
  0
ENDBLK
  5
D7B25
330
D7B23
100
AcDbEntity
  8
0
 48
5.0
100
AcDbBlockEnd
  0
BLOCK
  5
D7CE7
330
D7CE6
100
AcDbEntity
  8
0
 48
5.0
100
AcDbBlockBegin
  2
*D24
 70
     1
 10
0.0
 20
0.0
 30
0.0
  3
*D24
  1

  0
LINE
  5
D7CFB
330
D7CE6
100
AcDbEntity
  8
标注
 48
5.0
370
    -2
100
AcDbLine
 10
102838.7267802712
 20
-168790.4847320018
 30
0.0
 11
102851.7454008514
 21
-168799.7861038464
 31
0.0
  0
LINE
  5
D7CFC
330
D7CE6
100
AcDbEntity
  8
标注
 48
5.0
370
    -2
100
AcDbLine
 10
102882.6646247293
 20
-168821.876861977
 30
0.0
 11
102895.6832453095
 21
-168831.1782338215
 31
0.0
  0
MTEXT
  5
D7CFD
102
{ACAD_XDICTIONARY
360
D7D73
102
}
330
D7CE6
100
AcDbEntity
  8
标注
 48
5.0
100
AcDbMText
 10
102810.7295953168
 20
-168770.4816735936
 30
0.0
 40
20.0
 41
0.0
 71
     5
 72
     1
  1
\A1;{\fGulim|b0|i0|c129|p34;5-\U+22056}
 11
0.8136637862609445
 21
-0.5813357402805233
 31
0.0
 73
     1
 44
1.0
1001
ACAD
1000
MTEXTBEGIN
1070
    73
1070
     1
1070
    44
1040
1.0
1070
    74
1070
     0
1000
MTEXTEND
  0
LINE
  5
D7CFE
330
D7CE6
100
AcDbEntity
  8
标注
 48
5.0
370
    -2
100
AcDbLine
 10
102869.6460041492
 20
-168812.5754901325
 30
0.0
 11
102864.7640214315
 21
-168809.0874756908
 31
0.0
  0
SOLID
  5
D7CFF
330
D7CE6
100
AcDbEntity
  8
标注
 48
5.0
100
AcDbTrace
 10
102884.2148533701
 20
-168819.7070918803
 30
0.0
 11
102881.1143960886
 21
-168824.0466320738
 31
0.0
 12
102869.6460041492
 22
-168812.5754901325
 32
0.0
 13
102869.6460041492
 23
-168812.5754901325
 33
0.0
  0
SOLID
  5
D7D00
330
D7CE6
100
AcDbEntity
  8
标注
 48
5.0
100
AcDbTrace
 10
102853.2956294921
 20
-168797.6163337497
 30
0.0
 11
102850.1951722106
 21
-168801.955873943
 31
0.0
 12
102864.7640214315
 22
-168809.0874756908
 32
0.0
 13
102864.7640214315
 23
-168809.0874756908
 33
0.0
  0
POINT
  5
D7D01
330
D7CE6
100
AcDbEntity
  8
Defpoints
 62
     0
 48
5.0
100
AcDbPoint
 10
102864.7640214315
 20
-168809.0874756908
 30
0.0
  0
POINT
  5
D7D02
330
D7CE6
100
AcDbEntity
  8
Defpoints
 62
     0
 48
5.0
100
AcDbPoint
 10
102869.6460041492
 20
-168812.5754901325
 30
0.0
  0
ENDBLK
  5
D7CE8
330
D7CE6
100
AcDbEntity
  8
0
 48
5.0
100
AcDbBlockEnd
  0
ENDSEC
  0
SECTION
  2
ENTITIES
  0
LWPOLYLINE
  5
D793E
102
{ACAD_REACTORS
330
D7974
330
D79B5
330
D79EC
330
D79FC
330
D7A0C
330
D7A1C
330
D7A2C
330
D7A3C
330
D7A4C
330
D7A5C
330
D7A6C
330
D7A7C
102
}
330
1F
100
AcDbEntity
  8
虚线
 48
5.0
100
AcDbPolyline
 90
       15
 70
     0
 43
0.0
 10
102685.2050127904
 20
-168600.3314829117
 42
0.0246308559025665
 10
102606.5295820111
 20
-168604.2095220341
 42
0.358074254825036
 10
102525.8027167065
 20
-168685.0664313724
 42
0.0242282114596659
 10
102519.7050127904
 20
-168810.8314829117
 42
0.0242282114596656
 10
102525.8027167065
 20
-168936.596534451
 42
0.3580742548250363
 10
102606.5295820112
 20
-169017.4534437894
 42
0.0246308559025665
 10
102685.2050127905
 20
-169021.3314829117
 10
103049.2050127904
 20
-169021.3314829117
 42
0.0246308559025662
 10
103127.8804435697
 20
-169017.4534437893
 42
0.3580742548250371
 10
103208.6073088743
 20
-168936.596534451
 42
0.0242282114596664
 10
103214.7050127904
 20
-168810.8314829117
 42
0.0242282114596663
 10
103208.6073088743
 20
-168685.0664313724
 42
0.3580742548250371
 10
103127.8804435696
 20
-168604.209522034
 42
0.0246308559025663
 10
103049.2050127905
 20
-168600.3314829118
 10
102685.2050127905
 20
-168600.3314829117
  0
LWPOLYLINE
  5
D794C
102
{ACAD_REACTORS
330
D798E
330
D7AF2
330
D79CF
102
}
330
1F
100
AcDbEntity
  8
粗实线
370
    25
100
AcDbPolyline
 90
       14
 70
     1
 43
0.0
 10
102685.2050127904
 20
-168596.3314829117
 42
0.0246308559025636
 10
102606.1362048572
 20
-168600.2289122297
 42
0.3580742548249841
 10
102521.8214788723
 20
-168684.679461983
 42
0.0242282114596684
 10
102515.7050127904
 20
-168810.8314829117
 42
0.0242282114596682
 10
102521.8214788723
 20
-168936.9835038404
 42
0.3580742548250243
 10
102606.1362048573
 20
-169021.4340535938
 42
0.0246308559025636
 10
102685.2050127905
 20
-169025.3314829117
 10
103049.2050127904
 20
-169025.3314829117
 42
0.0246308559025633
 10
103128.2738207235
 20
-169021.4340535937
 42
0.3580742548249851
 10
103212.5885467084
 20
-168936.9835038404
 42
0.024228211459669
 10
103218.7050127904
 20
-168810.8314829117
 42
0.0242282114596688
 10
103212.5885467084
 20
-168684.679461983
 42
0.358074254825025
 10
103128.2738207235
 20
-168600.2289122296
 42
0.0246308559025679
 10
103049.2050127905
 20
-168596.3314829117
  0
LINE
  5
D7952
330
1F
100
AcDbEntity
  8
虚线
 48
5.0
100
AcDbLine
 10
102536.7050127804
 20
-168810.8314829117
 30
0.0
 11
102864.2050127904
 21
-168810.8314829117
 31
0.0
  0
LINE
  5
D7953
330
1F
100
AcDbEntity
  8
虚线
 48
5.0
100
AcDbLine
 10
102867.2050127904
 20
-169004.3314829217
 30
0.0
 11
102867.2050127904
 21
-168813.8314829117
 31
0.0
  0
CIRCLE
  5
D7954
102
{ACAD_REACTORS
330
D7AF2
102
}
330
1F
100
AcDbEntity
  8
粗实线
370
    25
100
AcDbCircle
 10
102867.2050127904
 20
-168614.3314829017
 30
0.0
 40
3.0
  0
CIRCLE
  5
D7955
102
{ACAD_REACTORS
330
D7ACC
102
}
330
1F
100
AcDbEntity
  8
粗实线
370
    25
100
AcDbCircle
 10
103200.7050128004
 20
-168810.8314829117
 30
0.0
 40
3.0
  0
CIRCLE
  5
D7956
102
{ACAD_REACTORS
330
D7B0C
102
}
330
1F
100
AcDbEntity
  8
粗实线
370
    25
100
AcDbCircle
 10
102867.2050127904
 20
-169007.3314829217
 30
0.0
 40
3.0
  0
CIRCLE
  5
D7957
102
{ACAD_REACTORS
330
D7A98
102
}
330
1F
100
AcDbEntity
  8
粗实线
370
    25
100
AcDbCircle
 10
102533.7050127804
 20
-168810.8314829117
 30
0.0
 40
3.0
  0
CIRCLE
  5
D7958
102
{ACAD_REACTORS
330
D7AB2
330
D7CFA
102
}
330
1F
100
AcDbEntity
  8
粗实线
370
    25
100
AcDbCircle
 10
102867.2050127904
 20
-168810.8314829117
 30
0.0
 40
3.0
  0
LINE
  5
D7959
330
1F
100
AcDbEntity
  8
虚线
 48
5.0
100
AcDbLine
 10
102867.2050127904
 20
-168807.8314829117
 30
0.0
 11
102867.2050127904
 21
-168617.3314829017
 31
0.0
  0
LINE
  5
D795A
330
1F
100
AcDbEntity
  8
虚线
 48
5.0
100
AcDbLine
 10
102870.2050127904
 20
-168810.8314829117
 30
0.0
 11
103197.7050128004
 21
-168810.8314829117
 31
0.0
  0
DIMENSION
  5
D795B
102
{ACAD_XDICTIONARY
360
D7969
102
}
102
{ACAD_REACTORS
330
D7974
102
}
330
1F
100
AcDbEntity
  8
标注
 48
5.0
100
AcDbDimension
  2
*D2
 10
103214.7050127904
 20
-169066.6295167763
 30
0.0
 11
102867.2050127904
 21
-169066.6295167763
 31
0.0
 70
    32
 71
     5
 42
695.0
  3
副本Standard
100
AcDbAlignedDimension
 13
102519.7050127904
 23
-168810.8314829117
 33
0.0
 14
103214.7050127904
 24
-168810.8314829117
 34
0.0
100
AcDbRotatedDimension
  0
DIMENSION
  5
D7975
102
{ACAD_XDICTIONARY
360
D7983
102
}
102
{ACAD_REACTORS
330
D798E
102
}
330
1F
100
AcDbEntity
  8
标注
 48
5.0
100
AcDbDimension
  2
*D3
 10
103218.7050127904
 20
-169109.0178957573
 30
0.0
 11
102867.2050127904
 21
-169109.0178957573
 31
0.0
 70
    32
 71
     5
 42
703.0
  3
副本Standard
100
AcDbAlignedDimension
 13
102515.7050127904
 23
-168810.8314829117
 33
0.0
 14
103218.7050127904
 24
-168810.8314829117
 34
0.0
100
AcDbRotatedDimension
  0
DIMENSION
  5
D798F
330
1F
100
AcDbEntity
  8
标注
 48
5.0
100
AcDbDimension
  2
*D4
 10
103218.7050127904
 20
-169066.6295167763
 30
0.0
 11
103257.8161239015
 21
-169066.6295167763
 31
0.0
 70
    32
 71
     5
 42
4.0
  3
副本Standard
100
AcDbAlignedDimension
 13
103214.7050127904
 23
-169066.6295167763
 33
0.0
 14
103218.7050127904
 24
-169066.6295167763
 34
0.0
100
AcDbRotatedDimension
  0
DIMENSION
  5
D799C
102
{ACAD_XDICTIONARY
360
D79AA
102
}
102
{ACAD_REACTORS
330
D79B5
102
}
330
1F
100
AcDbEntity
  8
标注
 48
5.0
100
AcDbDimension
  2
*D5
 10
103257.6284016925
 20
-168600.3314829118
 30
0.0
 11
103257.6284016926
 21
-168810.8314829117
 31
0.0
 70
    32
 71
     5
 42
420.9999999999418
  3
副本Standard
100
AcDbAlignedDimension
 13
103049.2050127904
 23
-169021.3314829117
 33
0.0
 14
103049.2050127912
 24
-168600.3314829118
 34
0.0
 50
90.0
100
AcDbRotatedDimension
  0
DIMENSION
  5
D79B6
102
{ACAD_XDICTIONARY
360
D79C4
102
}
102
{ACAD_REACTORS
330
D79CF
102
}
330
1F
100
AcDbEntity
  8
标注
 48
5.0
100
AcDbDimension
  2
*D6
 10
103299.3352317085
 20
-168596.3314829117
 30
0.0
 11
103299.3352317085
 21
-168810.8314829117
 31
0.0
 70
    32
 71
     5
 42
428.9999999999707
  3
副本Standard
100
AcDbAlignedDimension
 13
103049.2050127902
 23
-169025.3314829117
 33
0.0
 14
103049.2050127905
 24
-168596.3314829117
 34
0.0
 50
90.0
100
AcDbRotatedDimension
  0
DIMENSION
  5
D79D0
330
1F
100
AcDbEntity
  8
标注
 48
5.0
100
AcDbDimension
  2
*D7
 10
103257.6284016925
 20
-168596.3314829117
 30
0.0
 11
103257.6284016926
 21
-168557.2203718006
 31
0.0
 70
    32
 71
     5
 42
4.0
  3
副本Standard
100
AcDbAlignedDimension
 13
103257.6284016925
 23
-168600.3314829118
 33
0.0
 14
103257.6284016925
 24
-168596.3314829117
 34
0.0
 50
90.0
100
AcDbRotatedDimension
  0
DIMENSION
  5
D79DD
102
{ACAD_XDICTIONARY
360
D79E6
102
}
102
{ACAD_REACTORS
330
D79EC
102
}
330
1F
100
AcDbEntity
  8
标注
 48
5.0
100
AcDbDimension
  2
*D8
 10
102685.2050127907
 20
-169400.3314829124
 30
0.0
 11
102657.4641173357
 21
-168661.1296100996
 31
0.0
 70
   164
 71
     5
 42
800.0000000009604
  3
副本Standard
100
AcDbRadialDimension
 15
102655.2035937481
 25
-168600.8942340574
 35
0.0
 40
0.0
1001
ACAD
1000
DSTYLE
1002
{
1070
   288
1070
     1
1002
}
1001
ACAD_DSTYLE_DIMRADIAL_EXTENSION
1070
   387
1070
     1
1070
   388
1040
1.570796326795205
1070
   390
1040
1.669299833622071
  0
DIMENSION
  5
D79ED
102
{ACAD_XDICTIONARY
360
D79F6
102
}
102
{ACAD_REACTORS
330
D79FC
102
}
330
1F
100
AcDbEntity
  8
标注
 48
5.0
100
AcDbDimension
  2
*D9
 10
102615.3805679738
 20
-168693.7732426328
 30
0.0
 11
102594.42657448
 21
-168663.4809234559
 31
0.0
 70
   164
 71
     5
 42
90.0000000001455
  3
副本Standard
100
AcDbRadialDimension
 15
102564.1807648669
 25
-168619.75581116
 35
0.0
 40
0.0
1001
ACAD
1000
DSTYLE
1002
{
1070
   288
1070
     1
1002
}
1001
ACAD_DSTYLE_DIMRADIAL_EXTENSION
1070
   387
1070
     1
1070
   388
1040
1.669299833621678
1070
   390
1040
3.044698763890038
  0
DIMENSION
  5
D79FD
102
{ACAD_XDICTIONARY
360
D7A06
102
}
102
{ACAD_REACTORS
330
D7A0C
102
}
330
1F
100
AcDbEntity
  8
标注
 48
5.0
100
AcDbDimension
  2
*D10
 10
103819.7050127905
 20
-168810.8314829117
 30
0.0
 11
102588.070268217
 21
-168761.7804157053
 31
0.0
 70
   164
 71
     5
 42
1300.000000000116
  3
副本Standard
100
AcDbRadialDimension
 15
102520.7347589022
 25
-168759.0987127026
 35
0.0
 40
0.0
1001
ACAD
1000
DSTYLE
1002
{
1070
   288
1070
     1
1002
}
1001
ACAD_DSTYLE_DIMRADIAL_EXTENSION
1070
   387
1070
     1
1070
   388
1040
3.044698763889928
1070
   390
1040
3.141592653589792
  0
DIMENSION
  5
D7A0D
102
{ACAD_XDICTIONARY
360
D7A16
102
}
102
{ACAD_REACTORS
330
D7A1C
102
}
330
1F
100
AcDbEntity
  8
标注
 48
5.0
100
AcDbDimension
  2
*D11
 10
102615.3805679738
 20
-168927.8897231905
 30
0.0
 11
102585.0250294781
 21
-168948.7520271643
 31
0.0
 70
   164
 71
     5
 42
90.00000000016006
  3
副本Standard
100
AcDbRadialDimension
 15
102541.2086639574
 25
-168978.8654885561
 35
0.0
 40
0.0
1001
ACAD
1000
DSTYLE
1002
{
1070
   288
1070
     1
1002
}
1001
ACAD_DSTYLE_DIMRADIAL_EXTENSION
1070
   387
1070
     1
1070
   388
1040
3.238486543290127
1070
   390
1040
4.613885473558164
  0
DIMENSION
  5
D7A1D
102
{ACAD_XDICTIONARY
360
D7A26
102
}
102
{ACAD_REACTORS
330
D7A2C
102
}
330
1F
100
AcDbEntity
  8
标注
 48
5.0
100
AcDbDimension
  2
*D12
 10
102685.2050127904
 20
-168221.3314829111
 30
0.0
 11
102638.5592307553
 21
-168959.5815334145
 31
0.0
 70
   164
 71
     5
 42
800.0000000004074
  3
副本Standard
100
AcDbRadialDimension
 15
102634.7582038302
 25
-169019.7393482697
 35
0.0
 40
0.0
1001
ACAD
1000
DSTYLE
1002
{
1070
   288
1070
     1
1002
}
1001
ACAD_DSTYLE_DIMRADIAL_EXTENSION
1070
   387
1070
     1
1070
   388
1040
4.613885473557898
1070
   390
1040
4.712388980384761
  0
DIMENSION
  5
D7A2D
102
{ACAD_XDICTIONARY
360
D7A36
102
}
102
{ACAD_REACTORS
330
D7A3C
102
}
330
1F
100
AcDbEntity
  8
标注
 48
5.0
100
AcDbDimension
  2
*D13
 10
103049.205012791
 20
-169400.3314829112
 30
0.0
 11
103080.9659174515
 21
-168661.2914224382
 31
0.0
 70
   164
 71
     5
 42
799.9999999995634
  3
副本Standard
100
AcDbRadialDimension
 15
103083.5540197088
 25
-168601.0692320053
 35
0.0
 40
0.0
1001
ACAD
1000
DSTYLE
1002
{
1070
   288
1070
     1
1002
}
1001
ACAD_DSTYLE_DIMRADIAL_EXTENSION
1070
   387
1070
     1
1070
   388
1040
1.47229281996876
1070
   390
1040
1.570796326795623
  0
DIMENSION
  5
D7A3D
102
{ACAD_XDICTIONARY
360
D7A46
102
}
102
{ACAD_REACTORS
330
D7A4C
102
}
330
1F
100
AcDbEntity
  8
标注
 48
5.0
100
AcDbDimension
  2
*D14
 10
103119.0294576069
 20
-168693.7732426329
 30
0.0
 11
103141.3870090138
 21
-168664.5015098598
 31
0.0
 70
   164
 71
     5
 42
90.0000000000873
  3
副本Standard
100
AcDbRadialDimension
 15
103173.6587687368
 25
-168622.2495516942
 35
0.0
 40
0.0
1001
ACAD
1000
DSTYLE
1002
{
1070
   288
1070
     1
1002
}
1001
ACAD_DSTYLE_DIMRADIAL_EXTENSION
1070
   387
1070
     1
1070
   388
1040
0.0968938897003355
1070
   390
1040
1.47229281996837
  0
DIMENSION
  5
D7A4D
102
{ACAD_XDICTIONARY
360
D7A56
102
}
102
{ACAD_REACTORS
330
D7A5C
102
}
330
1F
100
AcDbEntity
  8
标注
 48
5.0
100
AcDbDimension
  2
*D15
 10
101914.7050127903
 20
-168810.8314829117
 30
0.0
 11
103146.9460613734
 21
-168780.629671354
 31
0.0
 70
   164
 71
     5
 42
1299.999999999985
  3
副本Standard
100
AcDbRadialDimension
 15
103214.3147183316
 25
-168778.9784883451
 35
0.0
 40
0.0
1001
ACAD
1000
DSTYLE
1002
{
1070
   288
1070
     1
1002
}
1001
ACAD_DSTYLE_DIMRADIAL_EXTENSION
1070
   387
1070
     1
1070
   388
1040
0.0
1070
   390
1040
0.0968938896998644
  0
DIMENSION
  5
D7A5D
102
{ACAD_XDICTIONARY
360
D7A66
102
}
102
{ACAD_REACTORS
330
D7A6C
102
}
330
1F
100
AcDbEntity
  8
标注
 48
5.0
100
AcDbDimension
  2
*D16
 10
103119.029457607
 20
-168927.8897231906
 30
0.0
 11
103144.6742073123
 21
-168954.3291115535
 31
0.0
 70
   164
 71
     5
 42
90.0000000000873
  3
副本Standard
100
AcDbRadialDimension
 15
103181.6908369773
 25
-168992.4927535795
 35
0.0
 40
0.0
1001
ACAD
1000
DSTYLE
1002
{
1070
   288
1070
     1
1002
}
1001
ACAD_DSTYLE_DIMRADIAL_EXTENSION
1070
   387
1070
     1
1070
   388
1040
4.810892487211472
1070
   390
1040
6.18629141747983
  0
DIMENSION
  5
D7A6D
102
{ACAD_XDICTIONARY
360
D7A76
102
}
102
{ACAD_REACTORS
330
D7A7C
102
}
330
1F
100
AcDbEntity
  8
标注
 48
5.0
100
AcDbDimension
  2
*D17
 10
103049.2050127902
 20
-168221.331482911
 30
0.0
 11
103090.5307761641
 21
-168959.8984381235
 31
0.0
 70
   164
 71
     5
 42
800.0000000006693
  3
副本Standard
100
AcDbRadialDimension
 15
103093.8982904909
 25
-169020.0820766068
 35
0.0
 40
0.0
1001
ACAD
1000
DSTYLE
1002
{
1070
   288
1070
     1
1002
}
1001
ACAD_DSTYLE_DIMRADIAL_EXTENSION
1070
   387
1070
     1
1070
   388
1040
4.712388980384998
1070
   390
1040
4.810892487211865
  0
DIMENSION
  5
D7A7D
102
{ACAD_XDICTIONARY
360
D7A8C
102
}
102
{ACAD_REACTORS
330
D7A98
102
}
330
1F
100
AcDbEntity
  8
标注
 48
5.0
100
AcDbDimension
  2
*D18
 10
102515.7050127904
 20
-168840.079243985
 30
0.0
 11
102470.9272350126
 21
-168840.079243985
 31
0.0
 70
    32
 71
     5
 42
17.99999999000283
  3
副本Standard
100
AcDbAlignedDimension
 13
102533.7050127804
 23
-168810.8314829117
 33
0.0
 14
102515.7050127904
 24
-168810.8314829117
 34
0.0
100
AcDbRotatedDimension
  0
DIMENSION
  5
D7A99
102
{ACAD_XDICTIONARY
360
D7AA7
102
}
102
{ACAD_REACTORS
330
D7AB2
102
}
330
1F
100
AcDbEntity
  8
标注
 48
5.0
100
AcDbDimension
  2
*D19
 10
102867.2050127904
 20
-168840.079243985
 30
0.0
 11
102700.4550127854
 21
-168840.079243985
 31
0.0
 70
    32
 71
     5
 42
333.5000000099971
  3
副本Standard
100
AcDbAlignedDimension
 13
102533.7050127804
 23
-168810.8314829117
 33
0.0
 14
102867.2050127904
 24
-168810.8314829117
 34
0.0
100
AcDbRotatedDimension
  0
DIMENSION
  5
D7AB3
102
{ACAD_XDICTIONARY
360
D7AC1
102
}
102
{ACAD_REACTORS
330
D7ACC
102
}
330
1F
100
AcDbEntity
  8
标注
 48
5.0
100
AcDbDimension
  2
*D20
 10
103200.7050128004
 20
-168882.6673402131
 30
0.0
 11
102698.0383461187
 21
-168882.6673402131
 31
0.0
 70
   160
 71
     5
 42
667.0000000199943
  3
副本Standard
100
AcDbAlignedDimension
 13
102533.7050127804
 23
-168810.8314829117
 33
0.0
 14
103200.7050128004
 24
-168810.8314829117
 34
0.0
100
AcDbRotatedDimension
  0
DIMENSION
  5
D7AD7
102
{ACAD_XDICTIONARY
360
D7AE6
102
}
102
{ACAD_REACTORS
330
D7AF2
102
}
330
1F
100
AcDbEntity
  8
标注
 48
5.0
100
AcDbDimension
  2
*D21
 10
102903.7878934069
 20
-168596.3314829117
 30
0.0
 11
102903.7878934069
 21
-168551.5537051339
 31
0.0
 70
    32
 71
     5
 42
17.99999998998828
  3
副本Standard
100
AcDbAlignedDimension
 13
102867.2050127904
 23
-168614.3314829017
 33
0.0
 14
102867.2050127904
 24
-168596.3314829117
 34
0.0
 50
90.0
100
AcDbRotatedDimension
  0
DIMENSION
  5
D7AF3
102
{ACAD_XDICTIONARY
360
D7B01
102
}
102
{ACAD_REACTORS
330
D7B0C
102
}
330
1F
100
AcDbEntity
  8
标注
 48
5.0
100
AcDbDimension
  2
*D22
 10
102948.1461670381
 20
-169007.3314829217
 30
0.0
 11
102948.1461670382
 21
-168710.2759273512
 31
0.0
 70
   160
 71
     5
 42
393.0000000199943
  3
副本Standard
100
AcDbAlignedDimension
 13
102867.2050127904
 23
-168614.3314829017
 33
0.0
 14
102867.2050127904
 24
-169007.3314829217
 34
0.0
 50
90.0
100
AcDbRotatedDimension
  0
DIMENSION
  5
D7B22
330
1F
100
AcDbEntity
  8
标注
 48
5.0
100
AcDbDimension
  2
*D23
 10
102903.7878934069
 20
-168810.8314829117
 30
0.0
 11
102903.7878934069
 21
-168712.5814829067
 31
0.0
 70
    32
 71
     5
 42
196.5000000099826
  3
副本Standard
100
AcDbAlignedDimension
 13
102903.7878934069
 23
-168614.3314829017
 33
0.0
 14
102867.2050127904
 24
-168810.8314829117
 34
0.0
 50
90.0
100
AcDbRotatedDimension
  0
DIMENSION
  5
D7CE5
102
{ACAD_XDICTIONARY
360
D7CF1
102
}
102
{ACAD_REACTORS
330
D7CFA
102
}
330
1F
100
AcDbEntity
  8
标注
 48
5.0
100
AcDbDimension
  2
*D24
 10
102869.6460041492
 20
-168812.5754901325
 30
0.0
 11
102810.7295953168
 21
-168770.4816735936
 31
0.0
 70
    35
  1
{\fGulim|b0|i0|c129|p34;5-<>}
 71
     5
 42
6.000000000058207
  3
副本Standard
100
AcDbDiametricDimension
 15
102864.7640214315
 25
-168809.0874756908
 35
0.0
 40
0.0
1001
ACAD
1000
DSTYLE
1002
{
1070
   288
1070
     1
1002
}
1001
ACAD_DSTYLE_DIMRADIAL_EXTENSION
1070
   387
1070
     1
1070
   388
1040
0.0
1070
   390
1040
0.0
  0
ENDSEC
  0
SECTION
  2
OBJECTS
  0
DICTIONARY
  5
C
330
0
100
AcDbDictionary
281
     1
  3
ACAD_2007HEADERVARS_RT
350
D7D64
  3
ACAD_COLOR
350
6C
  3
ACAD_GROUP
350
D
  3
ACAD_LAYOUT
350
1A
  3
ACAD_MATERIAL
350
6B
  3
ACAD_MLEADERSTYLE
350
CEDBA
  3
ACAD_MLINESTYLE
350
17
  3
ACAD_PLOTSETTINGS
350
19
  3
ACAD_PLOTSTYLENAME
350
E
  3
ACAD_SCALELIST
350
CED98
  3
ACAD_TABLESTYLE
350
FAF
  3
ACAD_VISUALSTYLE
350
CED87
  3
AcadDim
350
100FD
  3
ACDB_RECOMPOSE_DATA
350
D0C4C
  3
AcDbVariableDictionary
350
59
  3
ASE_INDEX_DICTIONARY
350
C2668
  3
DWGPROPS
350
D7D63
  3
lxx_dict
350
A9D16
  0
DICTIONARY
  5
AB
330
2
100
AcDbDictionary
280
     1
281
     1
  3
ACAD_LAYERFILTERS
360
D5CEC
  3
ACAD_LAYERSTATES
360
AC
  3
ACLYDICTIONARY
360
D5CEB
  0
DICTIONARY
  5
CF251
330
10
100
AcDbDictionary
280
     1
281
     1
  3
ADSK_XREC_LAYER_RECONCILED
360
CF252
  0
DICTIONARY
  5
CF259
330
9D
100
AcDbDictionary
280
     1
281
     1
  3
ADSK_XREC_LAYER_RECONCILED
360
CF25A
  0
DICTIONARY
  5
CF25D
330
16DF9
100
AcDbDictionary
280
     1
281
     1
  3
ADSK_XREC_LAYER_RECONCILED
360
CF25E
  0
DICTIONARY
  5
118B
330
1F
100
AcDbDictionary
280
     1
281
     1
  3
ACAD_SORTENTS
360
118C
  0
DICTIONARY
  5
D7D73
330
D7CFD
100
AcDbDictionary
280
     1
281
     1
  3
ACAD_MTEXT_RT
360
D7D74
  0
DICTIONARY
  5
D7969
330
D795B
100
AcDbDictionary
280
     1
281
     1
  3
ACAD_DIMASSOC
360
D7974
  0
DICTIONARY
  5
D7983
330
D7975
100
AcDbDictionary
280
     1
281
     1
  3
ACAD_DIMASSOC
360
D798E
  0
DICTIONARY
  5
D79AA
330
D799C
100
AcDbDictionary
280
     1
281
     1
  3
ACAD_DIMASSOC
360
D79B5
  0
DICTIONARY
  5
D79C4
330
D79B6
100
AcDbDictionary
280
     1
281
     1
  3
ACAD_DIMASSOC
360
D79CF
  0
DICTIONARY
  5
D79E6
330
D79DD
100
AcDbDictionary
280
     1
281
     1
  3
ACAD_DIMASSOC
360
D79EC
  0
DICTIONARY
  5
D79F6
330
D79ED
100
AcDbDictionary
280
     1
281
     1
  3
ACAD_DIMASSOC
360
D79FC
  0
DICTIONARY
  5
D7A06
330
D79FD
100
AcDbDictionary
280
     1
281
     1
  3
ACAD_DIMASSOC
360
D7A0C
  0
DICTIONARY
  5
D7A16
330
D7A0D
100
AcDbDictionary
280
     1
281
     1
  3
ACAD_DIMASSOC
360
D7A1C
  0
DICTIONARY
  5
D7A26
330
D7A1D
100
AcDbDictionary
280
     1
281
     1
  3
ACAD_DIMASSOC
360
D7A2C
  0
DICTIONARY
  5
D7A36
330
D7A2D
100
AcDbDictionary
280
     1
281
     1
  3
ACAD_DIMASSOC
360
D7A3C
  0
DICTIONARY
  5
D7A46
330
D7A3D
100
AcDbDictionary
280
     1
281
     1
  3
ACAD_DIMASSOC
360
D7A4C
  0
DICTIONARY
  5
D7A56
330
D7A4D
100
AcDbDictionary
280
     1
281
     1
  3
ACAD_DIMASSOC
360
D7A5C
  0
DICTIONARY
  5
D7A66
330
D7A5D
100
AcDbDictionary
280
     1
281
     1
  3
ACAD_DIMASSOC
360
D7A6C
  0
DICTIONARY
  5
D7A76
330
D7A6D
100
AcDbDictionary
280
     1
281
     1
  3
ACAD_DIMASSOC
360
D7A7C
  0
DICTIONARY
  5
D7A8C
330
D7A7D
100
AcDbDictionary
280
     1
281
     1
  3
ACAD_DIMASSOC
360
D7A98
  0
DICTIONARY
  5
D7AA7
330
D7A99
100
AcDbDictionary
280
     1
281
     1
  3
ACAD_DIMASSOC
360
D7AB2
  0
DICTIONARY
  5
D7AC1
330
D7AB3
100
AcDbDictionary
280
     1
281
     1
  3
ACAD_DIMASSOC
360
D7ACC
  0
DICTIONARY
  5
D7AE6
330
D7AD7
100
AcDbDictionary
280
     1
281
     1
  3
ACAD_DIMASSOC
360
D7AF2
  0
DICTIONARY
  5
D7B01
330
D7AF3
100
AcDbDictionary
280
     1
281
     1
  3
ACAD_DIMASSOC
360
D7B0C
  0
DICTIONARY
  5
D7CF1
330
D7CE5
100
AcDbDictionary
280
     1
281
     1
  3
ACAD_DIMASSOC
360
D7CFA
  0
DICTIONARY
  5
D7D64
102
{ACAD_REACTORS
330
C
102
}
330
C
100
AcDbDictionary
281
     1
  3
DIMARCSYM
350
D7D67
  3
DIMFXL
350
D7D66
  3
DIMFXLON
350
D7D65
  3
DIMJOGANG
350
D7D68
  3
DIMLTEX1
350
D7D6A
  3
DIMLTEX2
350
D7D6B
  3
DIMLTYPE
350
D7D69
  0
DICTIONARY
  5
6C
102
{ACAD_REACTORS
330
C
102
}
330
C
100
AcDbDictionary
281
     1
  0
DICTIONARY
  5
D
102
{ACAD_REACTORS
330
C
102
}
330
C
100
AcDbDictionary
281
     1
  0
DICTIONARY
  5
1A
102
{ACAD_REACTORS
330
C
102
}
330
C
100
AcDbDictionary
281
     1
  3
Model
350
22
  3
布局1
350
74
  3
布局2
350
79
  0
DICTIONARY
  5
6B
102
{ACAD_REACTORS
330
C
102
}
330
C
100
AcDbDictionary
281
     1
  3
ByBlock
350
CED77
  3
ByLayer
350
CED6F
  3
Global
350
CED7F
  0
DICTIONARY
  5
CEDBA
102
{ACAD_REACTORS
330
C
102
}
330
C
100
AcDbDictionary
281
     1
  3
Standard
350
CEDBB
  0
DICTIONARY
  5
17
102
{ACAD_REACTORS
330
C
102
}
330
C
100
AcDbDictionary
281
     1
  3
Standard
350
18
  0
DICTIONARY
  5
19
102
{ACAD_REACTORS
330
C
102
}
330
C
100
AcDbDictionary
281
     1
  0
ACDBDICTIONARYWDFLT
  5
E
102
{ACAD_REACTORS
330
C
102
}
330
C
100
AcDbDictionary
281
     1
  3
Normal
350
F
100
AcDbDictionaryWithDefault
340
F
  0
DICTIONARY
  5
CED98
102
{ACAD_REACTORS
330
C
102
}
330
C
100
AcDbDictionary
281
     1
  3
A0
350
CED99
  3
A1
350
CED9A
  3
A2
350
CED9B
  3
A3
350
CED9C
  3
A4
350
CED9D
  3
A5
350
CED9E
  3
A6
350
CED9F
  3
A7
350
CEDA0
  3
A8
350
CEDA1
  3
A9
350
CEDA2
  3
B0
350
CEDA3
  3
B1
350
CEDA4
  3
B2
350
CEDA5
  3
B3
350
CEDA6
  3
B4
350
CEDA7
  3
B5
350
CEDA8
  3
B6
350
CEDA9
  3
B7
350
CEDAA
  3
B8
350
CEDAB
  3
B9
350
CEDAC
  3
C0
350
CEDAD
  3
C1
350
CEDAE
  3
C2
350
CEDAF
  3
C3
350
CEDB0
  3
C4
350
CEDB1
  3
C5
350
CEDB2
  3
C6
350
CEDB3
  3
C7
350
CEDB4
  3
C8
350
CEDB5
  3
C9
350
CEDB6
  3
D0
350
CEDB7
  3
D1
350
CEDB8
  3
D2
350
CEDB9
  0
DICTIONARY
  5
FAF
102
{ACAD_REACTORS
330
C
102
}
330
C
100
AcDbDictionary
281
     1
  3
Standard
350
FB0
  0
DICTIONARY
  5
CED87
102
{ACAD_REACTORS
330
C
102
}
330
C
100
AcDbDictionary
281
     1
  3
2dWireframe
350
CED8D
  3
3D Hidden
350
CED8F
  3
3dWireframe
350
CED8E
  3
Basic
350
CED8C
  3
Brighten
350
CED93
  3
ColorChange
350
CED97
  3
Conceptual
350
CED90
  3
Dim
350
CED92
  3
Facepattern
350
CED96
  3
Flat
350
CED88
  3
FlatWithEdges
350
CED89
  3
Gouraud
350
CED8A
  3
GouraudWithEdges
350
CED8B
  3
Linepattern
350
CED95
  3
Realistic
350
CED91
  3
Thicken
350
CED94
  0
XRECORD
  5
100FD
102
{ACAD_REACTORS
330
C
102
}
330
C
100
AcDbXrecord
280
     1
 90
   990106
  3

 60
     0
 61
     0
 62
     1
 63
     3
 64
     0
 65
     0
 66
     0
 67
     3
 68
     1
 69
     0
 70
     0
 71
     0
 72
     0
 40
0.0
170
     0
  0
XRECORD
  5
D0C4C
102
{ACAD_REACTORS
330
C
102
}
330
C
100
AcDbXrecord
280
     1
 90
        1
330
FB0
  0
DICTIONARY
  5
59
102
{ACAD_REACTORS
330
C
102
}
330
C
100
AcDbDictionary
281
     1
  3
CANNOSCALE
350
D0C4F
  3
CMLEADERSTYLE
350
D0C4D
  3
CTABLESTYLE
350
100D
  3
DIMASSOC
350
5A
  3
HIDETEXT
350
5E
  3
INDEXCTL
350
D7D35
  3
LIGHTINGUNITS
350
D0C50
  3
MSLTSCALE
350
D0C4E
  3
SORTENTS
350
D7D34
  0
DICTIONARY
  5
C2668
102
{ACAD_REACTORS
330
C
102
}
330
C
100
AcDbDictionary
281
     1
  3
ASEBlockHierarchyIndexRecord
350
C2669
1001
DCO15
1040
1779131318.625
  0
XRECORD
  5
D7D63
102
{ACAD_REACTORS
330
C
102
}
330
C
100
AcDbXrecord
280
     1
  1
DWGPROPS COOKIE
  2

  3

  4

  6

  7

  8
Administrator
  9

300
=
301
=
302
=
303
=
304
=
305
=
306
=
307
=
308
=
309
=
 40
8.799380416666666
 41
2454355.343801713
 42
2457938.594265289
  1

 90
        0
  0
DICTIONARY
  5
A9D16
102
{ACAD_REACTORS
330
C
102
}
330
C
100
AcDbDictionary
281
     1
  3
lxx_dimth
350
A9D17
  0
DICTIONARY
  5
D5CEC
102
{ACAD_REACTORS
330
AB
102
}
330
AB
100
AcDbDictionary
281
     1
  0
DICTIONARY
  5
AC
102
{ACAD_REACTORS
330
AB
102
}
330
AB
100
AcDbDictionary
281
     1
  0
DICTIONARY
  5
D5CEB
102
{ACAD_REACTORS
330
AB
102
}
330
AB
100
AcDbDictionary
281
     1
1001
ACAD
1000
<All
  0
XRECORD
  5
CF252
102
{ACAD_REACTORS
330
CF251
102
}
330
CF251
100
AcDbXrecord
280
     1
290
     1
  0
XRECORD
  5
CF25A
102
{ACAD_REACTORS
330
CF259
102
}
330
CF259
100
AcDbXrecord
280
     1
290
     1
  0
XRECORD
  5
CF25E
102
{ACAD_REACTORS
330
CF25D
102
}
330
CF25D
100
AcDbXrecord
280
     1
290
     1
  0
SORTENTSTABLE
  5
118C
102
{ACAD_REACTORS
330
118B
102
}
330
118B
100
AcDbSortentsTable
330
1F
331
D794C
  5
D794C
331
D7954
  5
D7956
331
D7955
  5
D7957
331
D793E
  5
D794B
331
D7956
  5
D7958
331
D7957
  5
D7959
331
D7958
  5
D795A
331
D7952
  5
D7952
331
D7959
  5
D7955
331
D7953
  5
D7954
331
D795A
  5
D7953
  0
XRECORD
  5
D7D74
102
{ACAD_REACTORS
330
D7D73
102
}
330
D7D73
100
AcDbXrecord
280
     1
 40
57865.0
  1
\A1;{\fGulim|b0|i0|c129|p34;5-\U+22056}
  0
DIMASSOC
  5
D7974
102
{ACAD_REACTORS
330
D7969
102
}
330
D7969
100
AcDbDimAssoc
330
D795B
 90
        3
 70
     0
 71
     0
  1
AcDbOsnapPointRef
 72
     1
331
D793E
 73
     2
 91
        3
 40
3.141592653589792
 10
0.0
 20
0.0
 30
2.000000000000000E+50
 75
     0
  1
AcDbOsnapPointRef
 72
     1
331
D793E
 73
     2
 91
       10
 40
6.283185307179585
 10
0.0
 20
0.0
 30
2.000000000000000E+50
 75
     0
  0
DIMASSOC
  5
D798E
102
{ACAD_REACTORS
330
D7983
102
}
330
D7983
100
AcDbDimAssoc
330
D7975
 90
        3
 70
     0
 71
     0
  1
AcDbOsnapPointRef
 72
     1
331
D794C
 73
     2
 91
        3
 40
3.141592653589792
 10
0.0
 20
0.0
 30
2.000000000000000E+50
 75
     0
  1
AcDbOsnapPointRef
 72
     1
331
D794C
 73
     2
 91
       10
 40
6.283185307179585
 10
0.0
 20
0.0
 30
2.000000000000000E+50
 75
     0
  0
DIMASSOC
  5
D79B5
102
{ACAD_REACTORS
330
D79AA
102
}
330
D79AA
100
AcDbDimAssoc
330
D799C
 90
        3
 70
     0
 71
     0
  1
AcDbOsnapPointRef
 72
     1
331
D793E
 73
     2
 91
        7
 40
1.0
 10
0.0
 20
0.0
 30
2.000000000000000E+50
 75
     0
  1
AcDbOsnapPointRef
 72
     8
331
D793E
 73
     2
 91
       13
 40
1.570796326794732
 10
0.0
 20
0.0
 30
0.0
 75
     1
  1
AcDbOsnapPointRef
 72
     1
331
D793E
 73
     2
 91
        7
 40
1.0
 10
0.0
 20
0.0
 30
2.000000000000000E+50
 75
     0
  0
DIMASSOC
  5
D79CF
102
{ACAD_REACTORS
330
D79C4
102
}
330
D79C4
100
AcDbDimAssoc
330
D79B6
 90
        2
 70
     0
 71
     0
  1
AcDbOsnapPointRef
 72
     8
331
D794C
 73
     2
 91
       14
 40
0.0
 10
0.0
 20
0.0
 30
0.0
 75
     1
  1
AcDbOsnapPointRef
 72
     6
331
D794C
 73
     2
 91
        7
 40
0.9999999999994402
 10
0.0
 20
0.0
 30
0.0
332
D794C
 74
     2
 92
        8
 75
     0
  0
DIMASSOC
  5
D79EC
102
{ACAD_REACTORS
330
D79E6
102
}
330
D79E6
100
AcDbDimAssoc
330
D79DD
 90
        2
 70
     0
 71
     0
  1
AcDbOsnapPointRef
 72
     3
331
D793E
 73
     2
 91
        1
 40
0.0
 10
0.0
 20
0.0
 30
0.0
 75
     0
  0
DIMASSOC
  5
D79FC
102
{ACAD_REACTORS
330
D79F6
102
}
330
D79F6
100
AcDbDimAssoc
330
D79ED
 90
        2
 70
     0
 71
     0
  1
AcDbOsnapPointRef
 72
     3
331
D793E
 73
     2
 91
        2
 40
0.0
 10
0.0
 20
0.0
 30
0.0
 75
     0
  0
DIMASSOC
  5
D7A0C
102
{ACAD_REACTORS
330
D7A06
102
}
330
D7A06
100
AcDbDimAssoc
330
D79FD
 90
        2
 70
     0
 71
     0
  1
AcDbOsnapPointRef
 72
     3
331
D793E
 73
     2
 91
        3
 40
0.0
 10
0.0
 20
0.0
 30
0.0
 75
     0
  0
DIMASSOC
  5
D7A1C
102
{ACAD_REACTORS
330
D7A16
102
}
330
D7A16
100
AcDbDimAssoc
330
D7A0D
 90
        2
 70
     0
 71
     0
  1
AcDbOsnapPointRef
 72
     3
331
D793E
 73
     2
 91
        5
 40
0.0
 10
0.0
 20
0.0
 30
0.0
 75
     0
  0
DIMASSOC
  5
D7A2C
102
{ACAD_REACTORS
330
D7A26
102
}
330
D7A26
100
AcDbDimAssoc
330
D7A1D
 90
        2
 70
     0
 71
     0
  1
AcDbOsnapPointRef
 72
     3
331
D793E
 73
     2
 91
        6
 40
0.0
 10
0.0
 20
0.0
 30
0.0
 75
     0
  0
DIMASSOC
  5
D7A3C
102
{ACAD_REACTORS
330
D7A36
102
}
330
D7A36
100
AcDbDimAssoc
330
D7A2D
 90
        2
 70
     0
 71
     0
  1
AcDbOsnapPointRef
 72
     3
331
D793E
 73
     2
 91
       13
 40
0.0
 10
0.0
 20
0.0
 30
0.0
 75
     0
  0
DIMASSOC
  5
D7A4C
102
{ACAD_REACTORS
330
D7A46
102
}
330
D7A46
100
AcDbDimAssoc
330
D7A3D
 90
        2
 70
     0
 71
     0
  1
AcDbOsnapPointRef
 72
     3
331
D793E
 73
     2
 91
       12
 40
0.0
 10
0.0
 20
0.0
 30
0.0
 75
     0
  0
DIMASSOC
  5
D7A5C
102
{ACAD_REACTORS
330
D7A56
102
}
330
D7A56
100
AcDbDimAssoc
330
D7A4D
 90
        2
 70
     0
 71
     0
  1
AcDbOsnapPointRef
 72
     3
331
D793E
 73
     2
 91
       11
 40
0.0
 10
0.0
 20
0.0
 30
0.0
 75
     0
  0
DIMASSOC
  5
D7A6C
102
{ACAD_REACTORS
330
D7A66
102
}
330
D7A66
100
AcDbDimAssoc
330
D7A5D
 90
        2
 70
     0
 71
     0
  1
AcDbOsnapPointRef
 72
     3
331
D793E
 73
     2
 91
        9
 40
0.0
 10
0.0
 20
0.0
 30
0.0
 75
     0
  0
DIMASSOC
  5
D7A7C
102
{ACAD_REACTORS
330
D7A76
102
}
330
D7A76
100
AcDbDimAssoc
330
D7A6D
 90
        2
 70
     0
 71
     0
  1
AcDbOsnapPointRef
 72
     3
331
D793E
 73
     2
 91
        8
 40
0.0
 10
0.0
 20
0.0
 30
0.0
 75
     0
  0
DIMASSOC
  5
D7A98
102
{ACAD_REACTORS
330
D7A8C
102
}
330
D7A8C
100
AcDbDimAssoc
330
D7A7D
 90
        1
 70
     0
 71
     0
  1
AcDbOsnapPointRef
 72
     3
331
D7957
 73
     2
 91
        0
 40
0.0
 10
0.0
 20
0.0
 30
0.0
 75
     0
  0
DIMASSOC
  5
D7AB2
102
{ACAD_REACTORS
330
D7AA7
102
}
330
D7AA7
100
AcDbDimAssoc
330
D7A99
 90
        2
 70
     0
 71
     0
  1
AcDbOsnapPointRef
 72
     3
331
D7958
 73
     2
 91
        0
 40
0.0
 10
0.0
 20
0.0
 30
0.0
 75
     0
  0
DIMASSOC
  5
D7ACC
102
{ACAD_REACTORS
330
D7AC1
102
}
330
D7AC1
100
AcDbDimAssoc
330
D7AB3
 90
        2
 70
     0
 71
     0
  1
AcDbOsnapPointRef
 72
     3
331
D7955
 73
     2
 91
        0
 40
0.0
 10
0.0
 20
0.0
 30
0.0
 75
     0
  0
DIMASSOC
  5
D7AF2
102
{ACAD_REACTORS
330
D7AE6
102
}
330
D7AE6
100
AcDbDimAssoc
330
D7AD7
 90
        3
 70
     0
 71
     0
  1
AcDbOsnapPointRef
 72
     3
331
D7954
 73
     2
 91
        0
 40
0.0
 10
0.0
 20
0.0
 30
0.0
 75
     0
  1
AcDbOsnapPointRef
 72
     2
331
D794C
 73
     2
 91
       14
 40
0.5
 10
0.0
 20
0.0
 30
0.0
 75
     0
  0
DIMASSOC
  5
D7B0C
102
{ACAD_REACTORS
330
D7B01
102
}
330
D7B01
100
AcDbDimAssoc
330
D7AF3
 90
        2
 70
     0
 71
     0
  1
AcDbOsnapPointRef
 72
     3
331
D7956
 73
     2
 91
        0
 40
0.0
 10
0.0
 20
0.0
 30
0.0
 75
     0
  0
DIMASSOC
  5
D7CFA
102
{ACAD_REACTORS
330
D7CF1
102
}
330
D7CF1
100
AcDbDimAssoc
330
D7CE5
 90
        2
 70
     0
 71
     0
  1
AcDbOsnapPointRef
 72
     3
331
D7958
 73
     2
 91
        0
 40
0.0
 10
0.0
 20
0.0
 30
0.0
 75
     0
  0
XRECORD
  5
D7D67
102
{ACAD_REACTORS
330
D7D64
102
}
330
D7D64
100
AcDbXrecord
280
     1
 70
     1
  0
XRECORD
  5
D7D66
102
{ACAD_REACTORS
330
D7D64
102
}
330
D7D64
100
AcDbXrecord
280
     1
 40
1.25
  0
XRECORD
  5
D7D65
102
{ACAD_REACTORS
330
D7D64
102
}
330
D7D64
100
AcDbXrecord
280
     1
290
     1
  0
XRECORD
  5
D7D68
102
{ACAD_REACTORS
330
D7D64
102
}
330
D7D64
100
AcDbXrecord
280
     1
 40
1.570796326794896
  0
XRECORD
  5
D7D6A
102
{ACAD_REACTORS
330
D7D64
102
}
330
D7D64
100
AcDbXrecord
280
     1
340
16
  0
XRECORD
  5
D7D6B
102
{ACAD_REACTORS
330
D7D64
102
}
330
D7D64
100
AcDbXrecord
280
     1
340
16
  0
XRECORD
  5
D7D69
102
{ACAD_REACTORS
330
D7D64
102
}
330
D7D64
100
AcDbXrecord
280
     1
340
16
  0
LAYOUT
  5
22
102
{ACAD_XDICTIONARY
360
D7D6C
102
}
102
{ACAD_REACTORS
330
1A
102
}
330
1A
100
AcDbPlotSettings
  1

  2
\\PC-201204061032\Canon LBP2900
  4
A4
  6

 40
5.873749732971191
 41
6.805091857910156
 42
5.873748779296875
 43
4.857757568359375
 44
209.9733276367186
 45
296.9259948730469
 46
-5.889999999999998
 47
-5.87
 48
85766.02374884076
 49
-163980.7810393121
140
88736.02374884079
141
-161880.7810393122
142
1.0
143
10.0
 70
 11940
 72
     1
 73
     1
 74
     4
  7
monochrome.ctb
 75
     0
147
0.1
148
-85766.02374884076
149
163980.7810393121
100
AcDbLayout
  1
Model
 70
     1
 71
     0
 10
0.0
 20
0.0
 11
12.0
 21
9.0
 12
0.0
 22
0.0
 32
0.0
 14
0.0
 24
0.0
 34
0.0
 15
0.0
 25
0.0
 35
0.0
146
0.0
 13
0.0
 23
0.0
 33
0.0
 16
1.0
 26
0.0
 36
0.0
 17
0.0
 27
1.0
 37
0.0
 76
     0
330
1F
331
CED6D
  0
LAYOUT
  5
74
102
{ACAD_XDICTIONARY
360
D7D6E
102
}
102
{ACAD_REACTORS
330
1A
102
}
330
1A
100
AcDbPlotSettings
  1

  2
\\ADSCCNDC1\hq601xrx1
  4

  6

 40
0.0
 41
0.0
 42
0.0
 43
0.0
 44
0.0
 45
0.0
 46
0.0
 47
0.0
 48
0.0
 49
0.0
140
0.0
141
0.0
142
1.0
143
1.0
 70
   688
 72
     0
 73
     0
 74
     5
  7
monochrome.ctb
 75
    16
147
1.0
148
0.0
149
0.0
100
AcDbLayout
  1
布局1
 70
     1
 71
     1
 10
0.0
 20
0.0
 11
12.0
 21
9.0
 12
0.0
 22
0.0
 32
0.0
 14
0.0
 24
0.0
 34
0.0
 15
0.0
 25
0.0
 35
0.0
146
0.0
 13
0.0
 23
0.0
 33
0.0
 16
1.0
 26
0.0
 36
0.0
 17
0.0
 27
1.0
 37
0.0
 76
     0
330
73
  0
LAYOUT
  5
79
102
{ACAD_XDICTIONARY
360
D7D70
102
}
102
{ACAD_REACTORS
330
1A
102
}
330
1A
100
AcDbPlotSettings
  1

  2
\\ADSCCNDC1\hq601xrx1
  4

  6

 40
0.0
 41
0.0
 42
0.0
 43
0.0
 44
0.0
 45
0.0
 46
0.0
 47
0.0
 48
0.0
 49
0.0
140
0.0
141
0.0
142
1.0
143
1.0
 70
   688
 72
     0
 73
     0
 74
     5
  7
monochrome.ctb
 75
    16
147
1.0
148
0.0
149
0.0
100
AcDbLayout
  1
布局2
 70
     1
 71
     2
 10
0.0
 20
0.0
 11
12.0
 21
9.0
 12
0.0
 22
0.0
 32
0.0
 14
0.0
 24
0.0
 34
0.0
 15
0.0
 25
0.0
 35
0.0
146
0.0
 13
0.0
 23
0.0
 33
0.0
 16
1.0
 26
0.0
 36
0.0
 17
0.0
 27
1.0
 37
0.0
 76
     0
330
78
  0
MATERIAL
  5
CED77
102
{ACAD_XDICTIONARY
360
CED78
102
}
102
{ACAD_REACTORS
330
6B
102
}
330
6B
100
AcDbMaterial
  1
ByBlock
 72
     0
 43
0.0208333333333333
 43
0.0
 43
0.0
 43
0.0
 43
0.0
 43
0.0208333333333333
 43
0.0
 43
0.0
 43
0.0
 43
0.0
 43
1.0
 43
0.0
 43
0.0
 43
0.0
 43
0.0
 43
1.0
 77
     0
 47
0.0208333333333333
 47
0.0
 47
0.0
 47
0.0
 47
0.0
 47
0.0208333333333333
 47
0.0
 47
0.0
 47
0.0
 47
0.0
 47
1.0
 47
0.0
 47
0.0
 47
0.0
 47
0.0
 47
1.0
171
     0
 49
0.0208333333333333
 49
0.0
 49
0.0
 49
0.0
 49
0.0
 49
0.0208333333333333
 49
0.0
 49
0.0
 49
0.0
 49
0.0
 49
1.0
 49
0.0
 49
0.0
 49
0.0
 49
0.0
 49
1.0
175
     0
142
0.0208333333333333
142
0.0
142
0.0
142
0.0
142
0.0
142
0.0208333333333333
142
0.0
142
0.0
142
0.0
142
0.0
142
1.0
142
0.0
142
0.0
142
0.0
142
0.0
142
1.0
179
     0
144
0.0208333333333333
144
0.0
144
0.0
144
0.0
144
0.0
144
0.0208333333333333
144
0.0
144
0.0
144
0.0
144
0.0
144
1.0
144
0.0
144
0.0
144
0.0
144
0.0
144
1.0
147
0.0208333333333333
147
0.0
147
0.0
147
0.0
147
0.0
147
0.0208333333333333
147
0.0
147
0.0
147
0.0
147
0.0
147
1.0
147
0.0
147
0.0
147
0.0
147
0.0
147
1.0
  0
MATERIAL
  5
CED6F
102
{ACAD_XDICTIONARY
360
CED70
102
}
102
{ACAD_REACTORS
330
6B
102
}
330
6B
100
AcDbMaterial
  1
ByLayer
 72
     0
 43
0.0208333333333333
 43
0.0
 43
0.0
 43
0.0
 43
0.0
 43
0.0208333333333333
 43
0.0
 43
0.0
 43
0.0
 43
0.0
 43
1.0
 43
0.0
 43
0.0
 43
0.0
 43
0.0
 43
1.0
 77
     0
 47
0.0208333333333333
 47
0.0
 47
0.0
 47
0.0
 47
0.0
 47
0.0208333333333333
 47
0.0
 47
0.0
 47
0.0
 47
0.0
 47
1.0
 47
0.0
 47
0.0
 47
0.0
 47
0.0
 47
1.0
171
     0
 49
0.0208333333333333
 49
0.0
 49
0.0
 49
0.0
 49
0.0
 49
0.0208333333333333
 49
0.0
 49
0.0
 49
0.0
 49
0.0
 49
1.0
 49
0.0
 49
0.0
 49
0.0
 49
0.0
 49
1.0
175
     0
142
0.0208333333333333
142
0.0
142
0.0
142
0.0
142
0.0
142
0.0208333333333333
142
0.0
142
0.0
142
0.0
142
0.0
142
1.0
142
0.0
142
0.0
142
0.0
142
0.0
142
1.0
179
     0
144
0.0208333333333333
144
0.0
144
0.0
144
0.0
144
0.0
144
0.0208333333333333
144
0.0
144
0.0
144
0.0
144
0.0
144
1.0
144
0.0
144
0.0
144
0.0
144
0.0
144
1.0
147
0.0208333333333333
147
0.0
147
0.0
147
0.0
147
0.0
147
0.0208333333333333
147
0.0
147
0.0
147
0.0
147
0.0
147
1.0
147
0.0
147
0.0
147
0.0
147
0.0
147
1.0
  0
MATERIAL
  5
CED7F
102
{ACAD_XDICTIONARY
360
CED80
102
}
102
{ACAD_REACTORS
330
6B
102
}
330
6B
100
AcDbMaterial
  1
Global
 72
     0
 43
0.0208333333333333
 43
0.0
 43
0.0
 43
0.0
 43
0.0
 43
0.0208333333333333
 43
0.0
 43
0.0
 43
0.0
 43
0.0
 43
1.0
 43
0.0
 43
0.0
 43
0.0
 43
0.0
 43
1.0
 77
     0
 47
0.0208333333333333
 47
0.0
 47
0.0
 47
0.0
 47
0.0
 47
0.0208333333333333
 47
0.0
 47
0.0
 47
0.0
 47
0.0
 47
1.0
 47
0.0
 47
0.0
 47
0.0
 47
0.0
 47
1.0
171
     0
 49
0.0208333333333333
 49
0.0
 49
0.0
 49
0.0
 49
0.0
 49
0.0208333333333333
 49
0.0
 49
0.0
 49
0.0
 49
0.0
 49
1.0
 49
0.0
 49
0.0
 49
0.0
 49
0.0
 49
1.0
175
     0
142
0.0208333333333333
142
0.0
142
0.0
142
0.0
142
0.0
142
0.0208333333333333
142
0.0
142
0.0
142
0.0
142
0.0
142
1.0
142
0.0
142
0.0
142
0.0
142
0.0
142
1.0
179
     0
144
0.0208333333333333
144
0.0
144
0.0
144
0.0
144
0.0
144
0.0208333333333333
144
0.0
144
0.0
144
0.0
144
0.0
144
1.0
144
0.0
144
0.0
144
0.0
144
0.0
144
1.0
147
0.0208333333333333
147
0.0
147
0.0
147
0.0
147
0.0
147
0.0208333333333333
147
0.0
147
0.0
147
0.0
147
0.0
147
1.0
147
0.0
147
0.0
147
0.0
147
0.0
147
1.0
  0
MLEADERSTYLE
  5
CEDBB
102
{ACAD_REACTORS
330
CEDBA
102
}
330
CEDBA
100
AcDbMLeaderStyle
170
     2
171
     1
172
     0
 90
        2
 40
0.0
 41
0.0
173
     1
 91
-1056964608
340
14
 92
       -2
290
     1
 42
0.09
291
     1
 43
0.36
  3
Standard
 44
0.18
300

342
11
174
     1
178
     6
175
     1
176
     0
 93
-1056964608
 45
0.18
292
     0
297
     0
 46
0.18
 94
-1056964608
 47
1.0
 49
1.0
140
1.0
293
     1
141
0.0
294
     1
177
     0
142
1.0
295
     0
296
     0
143
0.125
1001
ACAD_MLEADERVER
1070
     2
  0
MLINESTYLE
  5
18
102
{ACAD_REACTORS
330
17
102
}
330
17
100
AcDbMlineStyle
  2
STANDARD
 70
     0
  3

 62
   256
 51
90.0
 52
90.0
 71
     2
 49
0.5
 62
   256
  6
BYLAYER
 49
-0.5
 62
   256
  6
BYLAYER
  0
ACDBPLACEHOLDER
  5
F
102
{ACAD_REACTORS
330
E
102
}
330
E
  0
SCALE
  5
CED99
102
{ACAD_REACTORS
330
CED98
102
}
330
CED98
100
AcDbScale
 70
     0
300
1:1
140
1.0
141
1.0
290
     1
  0
SCALE
  5
CED9A
102
{ACAD_REACTORS
330
CED98
102
}
330
CED98
100
AcDbScale
 70
     0
300
1:2
140
1.0
141
2.0
290
     0
  0
SCALE
  5
CED9B
102
{ACAD_REACTORS
330
CED98
102
}
330
CED98
100
AcDbScale
 70
     0
300
1:4
140
1.0
141
4.0
290
     0
  0
SCALE
  5
CED9C
102
{ACAD_REACTORS
330
CED98
102
}
330
CED98
100
AcDbScale
 70
     0
300
1:5
140
1.0
141
5.0
290
     0
  0
SCALE
  5
CED9D
102
{ACAD_REACTORS
330
CED98
102
}
330
CED98
100
AcDbScale
 70
     0
300
1:8
140
1.0
141
8.0
290
     0
  0
SCALE
  5
CED9E
102
{ACAD_REACTORS
330
CED98
102
}
330
CED98
100
AcDbScale
 70
     0
300
1:10
140
1.0
141
10.0
290
     0
  0
SCALE
  5
CED9F
102
{ACAD_REACTORS
330
CED98
102
}
330
CED98
100
AcDbScale
 70
     0
300
1:16
140
1.0
141
16.0
290
     0
  0
SCALE
  5
CEDA0
102
{ACAD_REACTORS
330
CED98
102
}
330
CED98
100
AcDbScale
 70
     0
300
1:20
140
1.0
141
20.0
290
     0
  0
SCALE
  5
CEDA1
102
{ACAD_REACTORS
330
CED98
102
}
330
CED98
100
AcDbScale
 70
     0
300
1:30
140
1.0
141
30.0
290
     0
  0
SCALE
  5
CEDA2
102
{ACAD_REACTORS
330
CED98
102
}
330
CED98
100
AcDbScale
 70
     0
300
1:40
140
1.0
141
40.0
290
     0
  0
SCALE
  5
CEDA3
102
{ACAD_REACTORS
330
CED98
102
}
330
CED98
100
AcDbScale
 70
     0
300
1:50
140
1.0
141
50.0
290
     0
  0
SCALE
  5
CEDA4
102
{ACAD_REACTORS
330
CED98
102
}
330
CED98
100
AcDbScale
 70
     0
300
1:100
140
1.0
141
100.0
290
     0
  0
SCALE
  5
CEDA5
102
{ACAD_REACTORS
330
CED98
102
}
330
CED98
100
AcDbScale
 70
     0
300
2:1
140
2.0
141
1.0
290
     0
  0
SCALE
  5
CEDA6
102
{ACAD_REACTORS
330
CED98
102
}
330
CED98
100
AcDbScale
 70
     0
300
4:1
140
4.0
141
1.0
290
     0
  0
SCALE
  5
CEDA7
102
{ACAD_REACTORS
330
CED98
102
}
330
CED98
100
AcDbScale
 70
     0
300
8:1
140
8.0
141
1.0
290
     0
  0
SCALE
  5
CEDA8
102
{ACAD_REACTORS
330
CED98
102
}
330
CED98
100
AcDbScale
 70
     0
300
10:1
140
10.0
141
1.0
290
     0
  0
SCALE
  5
CEDA9
102
{ACAD_REACTORS
330
CED98
102
}
330
CED98
100
AcDbScale
 70
     0
300
100:1
140
100.0
141
1.0
290
     0
  0
SCALE
  5
CEDAA
102
{ACAD_REACTORS
330
CED98
102
}
330
CED98
100
AcDbScale
 70
     0
300
1/128" = 1'-0"
140
0.0078125
141
12.0
290
     0
  0
SCALE
  5
CEDAB
102
{ACAD_REACTORS
330
CED98
102
}
330
CED98
100
AcDbScale
 70
     0
300
1/64" = 1'-0"
140
0.015625
141
12.0
290
     0
  0
SCALE
  5
CEDAC
102
{ACAD_REACTORS
330
CED98
102
}
330
CED98
100
AcDbScale
 70
     0
300
1/32" = 1'-0"
140
0.03125
141
12.0
290
     0
  0
SCALE
  5
CEDAD
102
{ACAD_REACTORS
330
CED98
102
}
330
CED98
100
AcDbScale
 70
     0
300
1/16" = 1'-0"
140
0.0625
141
12.0
290
     0
  0
SCALE
  5
CEDAE
102
{ACAD_REACTORS
330
CED98
102
}
330
CED98
100
AcDbScale
 70
     0
300
3/32" = 1'-0"
140
0.09375
141
12.0
290
     0
  0
SCALE
  5
CEDAF
102
{ACAD_REACTORS
330
CED98
102
}
330
CED98
100
AcDbScale
 70
     0
300
1/8" = 1'-0"
140
0.125
141
12.0
290
     0
  0
SCALE
  5
CEDB0
102
{ACAD_REACTORS
330
CED98
102
}
330
CED98
100
AcDbScale
 70
     0
300
3/16" = 1'-0"
140
0.1875
141
12.0
290
     0
  0
SCALE
  5
CEDB1
102
{ACAD_REACTORS
330
CED98
102
}
330
CED98
100
AcDbScale
 70
     0
300
1/4" = 1'-0"
140
0.25
141
12.0
290
     0
  0
SCALE
  5
CEDB2
102
{ACAD_REACTORS
330
CED98
102
}
330
CED98
100
AcDbScale
 70
     0
300
3/8" = 1'-0"
140
0.375
141
12.0
290
     0
  0
SCALE
  5
CEDB3
102
{ACAD_REACTORS
330
CED98
102
}
330
CED98
100
AcDbScale
 70
     0
300
1/2" = 1'-0"
140
0.5
141
12.0
290
     0
  0
SCALE
  5
CEDB4
102
{ACAD_REACTORS
330
CED98
102
}
330
CED98
100
AcDbScale
 70
     0
300
3/4" = 1'-0"
140
0.75
141
12.0
290
     0
  0
SCALE
  5
CEDB5
102
{ACAD_REACTORS
330
CED98
102
}
330
CED98
100
AcDbScale
 70
     0
300
1" = 1'-0"
140
1.0
141
12.0
290
     0
  0
SCALE
  5
CEDB6
102
{ACAD_REACTORS
330
CED98
102
}
330
CED98
100
AcDbScale
 70
     0
300
1-1/2" = 1'-0"
140
1.5
141
12.0
290
     0
  0
SCALE
  5
CEDB7
102
{ACAD_REACTORS
330
CED98
102
}
330
CED98
100
AcDbScale
 70
     0
300
3" = 1'-0"
140
3.0
141
12.0
290
     0
  0
SCALE
  5
CEDB8
102
{ACAD_REACTORS
330
CED98
102
}
330
CED98
100
AcDbScale
 70
     0
300
6" = 1'-0"
140
6.0
141
12.0
290
     0
  0
SCALE
  5
CEDB9
102
{ACAD_REACTORS
330
CED98
102
}
330
CED98
100
AcDbScale
 70
     0
300
1'-0" = 1'-0"
140
12.0
141
12.0
290
     0
  0
TABLESTYLE
  5
FB0
102
{ACAD_XDICTIONARY
360
D0C45
102
}
102
{ACAD_REACTORS
330
FAF
102
}
330
FAF
100
AcDbTableStyle
  3
Standard
 70
     0
 71
     0
 40
0.06
 41
0.06
280
     0
281
     0
  7
Standard
140
0.18
170
     2
 62
     0
 63
     7
283
     0
274
    -2
284
     1
 64
     0
275
    -2
285
     1
 65
     0
276
    -2
286
     1
 66
     0
277
    -2
287
     1
 67
     0
278
    -2
288
     1
 68
     0
279
    -2
289
     1
 69
     0
  7
Standard
140
0.25
170
     5
 62
     0
 63
     7
283
     0
274
    -2
284
     1
 64
     0
275
    -2
285
     1
 65
     0
276
    -2
286
     1
 66
     0
277
    -2
287
     1
 67
     0
278
    -2
288
     1
 68
     0
279
    -2
289
     1
 69
     0
  7
Standard
140
0.18
170
     5
 62
     0
 63
     7
283
     0
274
    -2
284
     1
 64
     0
275
    -2
285
     1
 65
     0
276
    -2
286
     1
 66
     0
277
    -2
287
     1
 67
     0
278
    -2
288
     1
 68
     0
279
    -2
289
     1
 69
     0
  0
VISUALSTYLE
  5
CED8D
102
{ACAD_REACTORS
330
CED87
102
}
330
CED87
100
AcDbVisualStyle
  2
2dWireframe
 70
     4
 71
     0
 72
     2
 73
     0
 90
        0
 40
-0.6
 41
-30.0
 62
     5
 63
     7
 74
     1
 91
        4
 64
     7
 65
   257
 75
     1
175
     1
 42
1.0
 92
        0
 66
   257
 43
1.0
 76
     1
 77
     6
 78
     2
 67
     7
 79
     5
170
     0
171
     0
290
     0
174
     0
 93
        1
 44
0.0
173
     0
291
     0
 45
0.0
1001
ACAD
1000
AcDbSavedByObjectVersion
1070
     0
1000
AcDbSavedByObjectVersion
1070
     0
  0
VISUALSTYLE
  5
CED8F
102
{ACAD_REACTORS
330
CED87
102
}
330
CED87
100
AcDbVisualStyle
  2
3D Hidden
 70
     6
 71
     1
 72
     2
 73
     2
 90
        0
 40
-0.6
 41
-30.0
 62
     5
 63
     7
 74
     2
 91
        2
 64
     7
 65
   257
 75
     2
175
     1
 42
40.0
 92
        0
 66
   257
 43
1.0
 76
     1
 77
     6
 78
     2
 67
     7
 79
     3
170
     0
171
     0
290
     0
174
     0
 93
        1
 44
0.0
173
     0
291
     0
 45
0.0
1001
ACAD
1000
AcDbSavedByObjectVersion
1070
     0
1000
AcDbSavedByObjectVersion
1070
     0
  0
VISUALSTYLE
  5
CED8E
102
{ACAD_REACTORS
330
CED87
102
}
330
CED87
100
AcDbVisualStyle
  2
3dWireframe
 70
     5
 71
     0
 72
     2
 73
     0
 90
        0
 40
-0.6
 41
-30.0
 62
     5
 63
     7
 74
     1
 91
        4
 64
     7
 65
   257
 75
     1
175
     1
 42
1.0
 92
        0
 66
   257
 43
1.0
 76
     1
 77
     6
 78
     2
 67
     7
 79
     5
170
     0
171
     0
290
     0
174
     0
 93
        1
 44
0.0
173
     0
291
     0
 45
0.0
1001
ACAD
1000
AcDbSavedByObjectVersion
1070
     0
1000
AcDbSavedByObjectVersion
1070
     0
  0
VISUALSTYLE
  5
CED8C
102
{ACAD_REACTORS
330
CED87
102
}
330
CED87
100
AcDbVisualStyle
  2
Basic
 70
     7
 71
     1
 72
     0
 73
     1
 90
        0
 40
-0.6
 41
-30.0
 62
     5
 63
     7
 74
     0
 91
        4
 64
     7
 65
   257
 75
     1
175
     1
 42
1.0
 92
        8
 66
     7
 43
1.0
 76
     1
 77
     6
 78
     2
 67
     7
 79
     5
170
     0
171
     0
290
     0
174
     0
 93
        1
 44
0.0
173
     0
291
     1
 45
0.0
1001
ACAD
1000
AcDbSavedByObjectVersion
1070
     0
1000
AcDbSavedByObjectVersion
1070
     0
  0
VISUALSTYLE
  5
CED93
102
{ACAD_REACTORS
330
CED87
102
}
330
CED87
100
AcDbVisualStyle
  2
Brighten
 70
    12
 71
     2
 72
     2
 73
     0
 90
        0
 40
-0.6
 41
-30.0
 62
     5
 63
     7
 74
     1
 91
        4
 64
     7
 65
   257
 75
     1
175
     1
 42
1.0
 92
        8
 66
     7
 43
1.0
 76
     1
 77
     6
 78
     2
 67
     7
 79
     5
170
     0
171
     0
290
     0
174
     0
 93
        1
 44
50.0
173
     0
291
     1
 45
0.0
1001
ACAD
1000
AcDbSavedByObjectVersion
1070
     0
1000
AcDbSavedByObjectVersion
1070
     0
  0
VISUALSTYLE
  5
CED97
102
{ACAD_REACTORS
330
CED87
102
}
330
CED87
100
AcDbVisualStyle
  2
ColorChange
 70
    16
 71
     2
 72
     2
 73
     3
 90
        0
 40
-0.6
 41
-30.0
 62
     5
 63
     8
 74
     1
 91
        4
 64
     7
 65
   257
 75
     1
175
     1
 42
1.0
 92
        8
 66
     8
 43
1.0
 76
     1
 77
     6
 78
     2
 67
     7
 79
     5
170
     0
171
     0
290
     0
174
     0
 93
        1
 44
0.0
173
     0
291
     1
 45
0.0
1001
ACAD
1000
AcDbSavedByObjectVersion
1070
     0
1000
AcDbSavedByObjectVersion
1070
     0
  0
VISUALSTYLE
  5
CED90
102
{ACAD_REACTORS
330
CED87
102
}
330
CED87
100
AcDbVisualStyle
  2
Conceptual
 70
     9
 71
     3
 72
     2
 73
     0
 90
        0
 40
-0.6
 41
-30.0
 62
     5
 63
     7
 74
     2
 91
        2
 64
     7
 65
   257
 75
     1
175
     1
 42
40.0
 92
        8
 66
     7
 43
1.0
 76
     1
 77
     6
 78
     2
 67
     7
 79
     3
170
     0
171
     0
290
     0
174
     0
 93
        1
 44
0.0
173
     0
291
     0
 45
0.0
1001
ACAD
1000
AcDbSavedByObjectVersion
1070
     0
1000
AcDbSavedByObjectVersion
1070
     0
  0
VISUALSTYLE
  5
CED92
102
{ACAD_REACTORS
330
CED87
102
}
330
CED87
100
AcDbVisualStyle
  2
Dim
 70
    11
 71
     2
 72
     2
 73
     0
 90
        0
 40
-0.6
 41
-30.0
 62
     5
 63
     7
 74
     1
 91
        4
 64
     7
 65
   257
 75
     1
175
     1
 42
1.0
 92
        8
 66
     7
 43
1.0
 76
     1
 77
     6
 78
     2
 67
     7
 79
     5
170
     0
171
     0
290
     0
174
     0
 93
        1
 44
-50.0
173
     0
291
     1
 45
0.0
1001
ACAD
1000
AcDbSavedByObjectVersion
1070
     0
1000
AcDbSavedByObjectVersion
1070
     0
  0
VISUALSTYLE
  5
CED96
102
{ACAD_REACTORS
330
CED87
102
}
330
CED87
100
AcDbVisualStyle
  2
Facepattern
 70
    15
 71
     2
 72
     2
 73
     0
 90
        0
 40
-0.6
 41
-30.0
 62
     5
 63
     7
 74
     1
 91
        4
 64
     7
 65
   257
 75
     1
175
     1
 42
1.0
 92
        8
 66
     7
 43
1.0
 76
     1
 77
     6
 78
     2
 67
     7
 79
     5
170
     0
171
     0
290
     0
174
     0
 93
        1
 44
0.0
173
     0
291
     1
 45
0.0
1001
ACAD
1000
AcDbSavedByObjectVersion
1070
     0
1000
AcDbSavedByObjectVersion
1070
     0
  0
VISUALSTYLE
  5
CED88
102
{ACAD_REACTORS
330
CED87
102
}
330
CED87
100
AcDbVisualStyle
  2
Flat
 70
     0
 71
     2
 72
     1
 73
     1
 90
        2
 40
-0.6
 41
30.0
 62
     5
 63
     7
 74
     0
 91
        4
 64
     7
 65
   257
 75
     1
175
     1
 42
1.0
 92
        8
 66
     7
 43
1.0
 76
     1
 77
     6
 78
     2
 67
     7
 79
     5
170
     0
171
     0
290
     0
174
     0
 93
       13
 44
0.0
173
     0
291
     1
 45
0.0
1001
ACAD
1000
AcDbSavedByObjectVersion
1070
     0
1000
AcDbSavedByObjectVersion
1070
     0
  0
VISUALSTYLE
  5
CED89
102
{ACAD_REACTORS
330
CED87
102
}
330
CED87
100
AcDbVisualStyle
  2
FlatWithEdges
 70
     1
 71
     2
 72
     1
 73
     1
 90
        2
 40
-0.6
 41
30.0
 62
     5
 63
     7
 74
     1
 91
        4
 64
     7
 65
   257
 75
     1
175
     1
 42
1.0
 92
        0
 66
   257
 43
1.0
 76
     1
 77
     6
 78
     2
 67
     7
 79
     5
170
     0
171
     0
290
     0
174
     0
 93
       13
 44
0.0
173
     0
291
     1
 45
0.0
1001
ACAD
1000
AcDbSavedByObjectVersion
1070
     0
1000
AcDbSavedByObjectVersion
1070
     0
  0
VISUALSTYLE
  5
CED8A
102
{ACAD_REACTORS
330
CED87
102
}
330
CED87
100
AcDbVisualStyle
  2
Gouraud
 70
     2
 71
     2
 72
     2
 73
     1
 90
        2
 40
-0.6
 41
30.0
 62
     5
 63
     7
 74
     0
 91
        4
 64
     7
 65
   257
 75
     1
175
     1
 42
1.0
 92
        0
 66
     7
 43
1.0
 76
     1
 77
     6
 78
     2
 67
     7
 79
     5
170
     0
171
     0
290
     0
174
     0
 93
       13
 44
0.0
173
     0
291
     1
 45
0.0
1001
ACAD
1000
AcDbSavedByObjectVersion
1070
     0
1000
AcDbSavedByObjectVersion
1070
     0
  0
VISUALSTYLE
  5
CED8B
102
{ACAD_REACTORS
330
CED87
102
}
330
CED87
100
AcDbVisualStyle
  2
GouraudWithEdges
 70
     3
 71
     2
 72
     2
 73
     1
 90
        2
 40
-0.6
 41
30.0
 62
     5
 63
     7
 74
     1
 91
        4
 64
     7
 65
   257
 75
     1
175
     1
 42
1.0
 92
        0
 66
   257
 43
1.0
 76
     1
 77
     6
 78
     2
 67
     7
 79
     5
170
     0
171
     0
290
     0
174
     0
 93
       13
 44
0.0
173
     0
291
     1
 45
0.0
1001
ACAD
1000
AcDbSavedByObjectVersion
1070
     0
1000
AcDbSavedByObjectVersion
1070
     0
  0
VISUALSTYLE
  5
CED95
102
{ACAD_REACTORS
330
CED87
102
}
330
CED87
100
AcDbVisualStyle
  2
Linepattern
 70
    14
 71
     2
 72
     2
 73
     0
 90
        0
 40
-0.6
 41
-30.0
 62
     5
 63
     7
 74
     1
 91
        4
 64
     7
 65
   257
 75
     7
175
     7
 42
1.0
 92
        8
 66
     7
 43
1.0
 76
     1
 77
     6
 78
     2
 67
     7
 79
     5
170
     0
171
     0
290
     0
174
     0
 93
        1
 44
0.0
173
     0
291
     1
 45
0.0
1001
ACAD
1000
AcDbSavedByObjectVersion
1070
     0
1000
AcDbSavedByObjectVersion
1070
     0
  0
VISUALSTYLE
  5
CED91
102
{ACAD_REACTORS
330
CED87
102
}
330
CED87
100
AcDbVisualStyle
  2
Realistic
 70
     8
 71
     2
 72
     2
 73
     0
 90
        0
 40
-0.6
 41
-30.0
 62
     5
 63
     7
 74
     1
 91
        0
 64
     7
 65
   257
 75
     1
175
     1
 42
1.0
 92
        8
 66
     8
 43
1.0
 76
     1
 77
     6
 78
     2
 67
     7
 79
     5
170
     0
171
     0
290
     0
174
     0
 93
       13
 44
0.0
173
     0
291
     0
 45
0.0
1001
ACAD
1000
AcDbSavedByObjectVersion
1070
     0
1000
AcDbSavedByObjectVersion
1070
     0
  0
VISUALSTYLE
  5
CED94
102
{ACAD_REACTORS
330
CED87
102
}
330
CED87
100
AcDbVisualStyle
  2
Thicken
 70
    13
 71
     2
 72
     2
 73
     0
 90
        0
 40
-0.6
 41
-30.0
 62
     5
 63
     7
 74
     1
 91
        4
 64
     7
 65
   257
 75
     1
175
     1
 42
1.0
 92
       12
 66
     7
 43
1.0
 76
     1
 77
     6
 78
     2
 67
     7
 79
     5
170
     0
171
     0
290
     0
174
     0
 93
        1
 44
0.0
173
     0
291
     1
 45
0.0
1001
ACAD
1000
AcDbSavedByObjectVersion
1070
     0
1000
AcDbSavedByObjectVersion
1070
     0
  0
DICTIONARYVAR
  5
D0C4F
102
{ACAD_REACTORS
330
59
102
}
330
59
100
DictionaryVariables
280
     0
  1
1:1
  0
DICTIONARYVAR
  5
D0C4D
102
{ACAD_REACTORS
330
59
102
}
330
59
100
DictionaryVariables
280
     0
  1
STANDARD
  0
DICTIONARYVAR
  5
100D
102
{ACAD_REACTORS
330
59
102
}
330
59
100
DictionaryVariables
280
     0
  1
STANDARD
  0
DICTIONARYVAR
  5
5A
102
{ACAD_REACTORS
330
59
102
}
330
59
100
DictionaryVariables
280
     0
  1
2
  0
DICTIONARYVAR
  5
5E
102
{ACAD_REACTORS
330
59
102
}
330
59
100
DictionaryVariables
280
     0
  1
1
  0
DICTIONARYVAR
  5
D7D35
102
{ACAD_REACTORS
330
59
102
}
330
59
100
DictionaryVariables
280
     0
  1
0
  0
DICTIONARYVAR
  5
D0C50
102
{ACAD_REACTORS
330
59
102
}
330
59
100
DictionaryVariables
280
     0
  1
0
  0
DICTIONARYVAR
  5
D0C4E
102
{ACAD_REACTORS
330
59
102
}
330
59
100
DictionaryVariables
280
     0
  1
0
  0
DICTIONARYVAR
  5
D7D34
102
{ACAD_REACTORS
330
59
102
}
330
59
100
DictionaryVariables
280
     0
  1
127
  0
XRECORD
  5
C2669
102
{ACAD_REACTORS
330
C2668
102
}
330
C2668
100
AcDbXrecord
280
     1
330
0
330
0
330
0
330
0
330
0
330
0
330
0
330
0
330
0
330
0
330
0
330
0
330
0
330
0
330
0
330
0
330
0
330
0
330
0
330
0
330
0
330
0
330
0
330
0
330
0
330
0
330
0
330
0
330
0
330
0
330
0
330
0
330
0
  0
VLO-VL
  5
A9D17
102
{ACAD_REACTORS
330
A9D16
102
}
330
A9D16
100
vlo_VL
 90
   -64512
 91
       12
 92
        1
 40
2.5
300
(&VLO-R . 0)
  0
DICTIONARY
  5
D7D6C
330
22
100
AcDbDictionary
280
     1
281
     1
  3
ACAD_XREC_ROUNDTRIP
360
D7D6D
  0
DICTIONARY
  5
D7D6E
330
74
100
AcDbDictionary
280
     1
281
     1
  3
ACAD_XREC_ROUNDTRIP
360
D7D6F
  0
DICTIONARY
  5
D7D70
330
79
100
AcDbDictionary
280
     1
281
     1
  3
ACAD_XREC_ROUNDTRIP
360
D7D71
  0
DICTIONARY
  5
CED78
330
CED77
100
AcDbDictionary
280
     1
281
     1
  3
ACAD_XREC_ROUNDTRIP
360
D7D50
  3
BUMPTILE
360
CED7A
  3
DIFFUSETILE
360
CED79
  3
OPACITYTILE
360
CED7D
  3
REFLECTIONTILE
360
CED7C
  3
REFRACTIONTILE
360
CED7E
  3
SPECULARTILE
360
CED7B
  0
DICTIONARY
  5
CED70
330
CED6F
100
AcDbDictionary
280
     1
281
     1
  3
ACAD_XREC_ROUNDTRIP
360
D7D4F
  3
BUMPTILE
360
CED72
  3
DIFFUSETILE
360
CED71
  3
OPACITYTILE
360
CED75
  3
REFLECTIONTILE
360
CED74
  3
REFRACTIONTILE
360
CED76
  3
SPECULARTILE
360
CED73
  0
DICTIONARY
  5
CED80
330
CED7F
100
AcDbDictionary
280
     1
281
     1
  3
ACAD_XREC_ROUNDTRIP
360
D7D51
  3
BUMPTILE
360
CED82
  3
DIFFUSETILE
360
CED81
  3
OPACITYTILE
360
CED85
  3
REFLECTIONTILE
360
CED84
  3
REFRACTIONTILE
360
CED86
  3
SPECULARTILE
360
CED83
  0
DICTIONARY
  5
D0C45
330
FB0
100
AcDbDictionary
280
     1
281
     1
  3
ACAD_ROUNDTRIP_2008_TABLESTYLE_CELLSTYLEMAP
360
D7D62
  3
ACAD_XREC_ROUNDTRIP
360
D7D72
  0
XRECORD
  5
D7D6D
102
{ACAD_REACTORS
330
D7D6C
102
}
330
D7D6C
100
AcDbXrecord
280
     1
102
SHADEPLOT
 70
     0
102
SHADEPLOTRESLEVEL
 70
     2
102
SHADEPLOTCUSTOMDPI
 70
   300
  0
XRECORD
  5
D7D6F
102
{ACAD_REACTORS
330
D7D6E
102
}
330
D7D6E
100
AcDbXrecord
280
     1
102
SHADEPLOT
 70
     0
102
SHADEPLOTRESLEVEL
 70
     2
102
SHADEPLOTCUSTOMDPI
 70
   300
  0
XRECORD
  5
D7D71
102
{ACAD_REACTORS
330
D7D70
102
}
330
D7D70
100
AcDbXrecord
280
     1
102
SHADEPLOT
 70
     0
102
SHADEPLOTRESLEVEL
 70
     2
102
SHADEPLOTCUSTOMDPI
 70
   300
  0
XRECORD
  5
D7D50
102
{ACAD_REACTORS
330
CED78
102
}
330
CED78
100
AcDbXrecord
280
     1
102
MATERIAL
148
0.0
149
0.0
149
0.0
 93
        0
 94
      127
282
     0
 72
     0
 77
     0
171
     0
175
     0
179
     0
273
     0
  0
XRECORD
  5
CED7A
102
{ACAD_REACTORS
330
CED78
102
}
330
CED78
100
AcDbXrecord
280
     1
270
     1
271
     1
  0
XRECORD
  5
CED79
102
{ACAD_REACTORS
330
CED78
102
}
330
CED78
100
AcDbXrecord
280
     1
270
     1
271
     1
  0
XRECORD
  5
CED7D
102
{ACAD_REACTORS
330
CED78
102
}
330
CED78
100
AcDbXrecord
280
     1
270
     1
271
     1
  0
XRECORD
  5
CED7C
102
{ACAD_REACTORS
330
CED78
102
}
330
CED78
100
AcDbXrecord
280
     1
270
     1
271
     1
  0
XRECORD
  5
CED7E
102
{ACAD_REACTORS
330
CED78
102
}
330
CED78
100
AcDbXrecord
280
     1
270
     1
271
     1
  0
XRECORD
  5
CED7B
102
{ACAD_REACTORS
330
CED78
102
}
330
CED78
100
AcDbXrecord
280
     1
270
     1
271
     1
  0
XRECORD
  5
D7D4F
102
{ACAD_REACTORS
330
CED70
102
}
330
CED70
100
AcDbXrecord
280
     1
102
MATERIAL
148
0.0
149
0.0
149
0.0
 93
        0
 94
      127
282
     0
 72
     0
 77
     0
171
     0
175
     0
179
     0
273
     0
  0
XRECORD
  5
CED72
102
{ACAD_REACTORS
330
CED70
102
}
330
CED70
100
AcDbXrecord
280
     1
270
     1
271
     1
  0
XRECORD
  5
CED71
102
{ACAD_REACTORS
330
CED70
102
}
330
CED70
100
AcDbXrecord
280
     1
270
     1
271
     1
  0
XRECORD
  5
CED75
102
{ACAD_REACTORS
330
CED70
102
}
330
CED70
100
AcDbXrecord
280
     1
270
     1
271
     1
  0
XRECORD
  5
CED74
102
{ACAD_REACTORS
330
CED70
102
}
330
CED70
100
AcDbXrecord
280
     1
270
     1
271
     1
  0
XRECORD
  5
CED76
102
{ACAD_REACTORS
330
CED70
102
}
330
CED70
100
AcDbXrecord
280
     1
270
     1
271
     1
  0
XRECORD
  5
CED73
102
{ACAD_REACTORS
330
CED70
102
}
330
CED70
100
AcDbXrecord
280
     1
270
     1
271
     1
  0
XRECORD
  5
D7D51
102
{ACAD_REACTORS
330
CED80
102
}
330
CED80
100
AcDbXrecord
280
     1
102
MATERIAL
148
0.0
149
0.0
149
0.0
 93
        0
 94
      127
282
     0
 72
     0
 77
     0
171
     0
175
     0
179
     0
273
     0
  0
XRECORD
  5
CED82
102
{ACAD_REACTORS
330
CED80
102
}
330
CED80
100
AcDbXrecord
280
     1
270
     1
271
     1
  0
XRECORD
  5
CED81
102
{ACAD_REACTORS
330
CED80
102
}
330
CED80
100
AcDbXrecord
280
     1
270
     1
271
     1
  0
XRECORD
  5
CED85
102
{ACAD_REACTORS
330
CED80
102
}
330
CED80
100
AcDbXrecord
280
     1
270
     1
271
     1
  0
XRECORD
  5
CED84
102
{ACAD_REACTORS
330
CED80
102
}
330
CED80
100
AcDbXrecord
280
     1
270
     1
271
     1
  0
XRECORD
  5
CED86
102
{ACAD_REACTORS
330
CED80
102
}
330
CED80
100
AcDbXrecord
280
     1
270
     1
271
     1
  0
XRECORD
  5
CED83
102
{ACAD_REACTORS
330
CED80
102
}
330
CED80
100
AcDbXrecord
280
     1
270
     1
271
     1
  0
CELLSTYLEMAP
  5
D7D62
102
{ACAD_REACTORS
330
D0C45
102
}
330
D0C45
100
AcDbCellStyleMap
 90
        3
300
CELLSTYLE
  1
TABLEFORMAT_BEGIN
 90
        5
170
     1
 91
        0
 92
    32768
 62
   257
 93
        1
300
CONTENTFORMAT
  1
CONTENTFORMAT_BEGIN
 90
        0
 91
        0
 92
        4
 93
        0
300

 40
0.0
140
1.0
 94
        5
 62
     0
340
11
144
0.25
309
CONTENTFORMAT_END
171
     1
301
MARGIN
  1
CELLMARGIN_BEGIN
 40
0.06
 40
0.06
 40
0.06
 40
0.06
 40
0.18
 40
0.18
309
CELLMARGIN_END
 94
        6
 95
        1
302
GRIDFORMAT
  1
GRIDFORMAT_BEGIN
 90
        0
 91
        1
 62
     0
 92
       -2
340
0
 93
        0
 40
0.045
309
GRIDFORMAT_END
 95
        2
302
GRIDFORMAT
  1
GRIDFORMAT_BEGIN
 90
        0
 91
        1
 62
     0
 92
       -2
340
0
 93
        0
 40
0.045
309
GRIDFORMAT_END
 95
        4
302
GRIDFORMAT
  1
GRIDFORMAT_BEGIN
 90
        0
 91
        1
 62
     0
 92
       -2
340
0
 93
        0
 40
0.045
309
GRIDFORMAT_END
 95
        8
302
GRIDFORMAT
  1
GRIDFORMAT_BEGIN
 90
        0
 91
        1
 62
     0
 92
       -2
340
0
 93
        0
 40
0.045
309
GRIDFORMAT_END
 95
       16
302
GRIDFORMAT
  1
GRIDFORMAT_BEGIN
 90
        0
 91
        1
 62
     0
 92
       -2
340
0
 93
        0
 40
0.045
309
GRIDFORMAT_END
 95
       32
302
GRIDFORMAT
  1
GRIDFORMAT_BEGIN
 90
        0
 91
        1
 62
     0
 92
       -2
340
0
 93
        0
 40
0.045
309
GRIDFORMAT_END
309
TABLEFORMAT_END
  1
CELLSTYLE_BEGIN
 90
        1
 91
        1
300
_TITLE
309
CELLSTYLE_END
300
CELLSTYLE
  1
TABLEFORMAT_BEGIN
 90
        5
170
     1
 91
        0
 92
        0
 62
   257
 93
        1
300
CONTENTFORMAT
  1
CONTENTFORMAT_BEGIN
 90
        0
 91
        0
 92
        4
 93
        0
300

 40
0.0
140
1.0
 94
        5
 62
     0
340
11
144
0.18
309
CONTENTFORMAT_END
171
     1
301
MARGIN
  1
CELLMARGIN_BEGIN
 40
0.06
 40
0.06
 40
0.06
 40
0.06
 40
0.18
 40
0.18
309
CELLMARGIN_END
 94
        6
 95
        1
302
GRIDFORMAT
  1
GRIDFORMAT_BEGIN
 90
        0
 91
        1
 62
     0
 92
       -2
340
0
 93
        0
 40
0.045
309
GRIDFORMAT_END
 95
        2
302
GRIDFORMAT
  1
GRIDFORMAT_BEGIN
 90
        0
 91
        1
 62
     0
 92
       -2
340
0
 93
        0
 40
0.045
309
GRIDFORMAT_END
 95
        4
302
GRIDFORMAT
  1
GRIDFORMAT_BEGIN
 90
        0
 91
        1
 62
     0
 92
       -2
340
0
 93
        0
 40
0.045
309
GRIDFORMAT_END
 95
        8
302
GRIDFORMAT
  1
GRIDFORMAT_BEGIN
 90
        0
 91
        1
 62
     0
 92
       -2
340
0
 93
        0
 40
0.045
309
GRIDFORMAT_END
 95
       16
302
GRIDFORMAT
  1
GRIDFORMAT_BEGIN
 90
        0
 91
        1
 62
     0
 92
       -2
340
0
 93
        0
 40
0.045
309
GRIDFORMAT_END
 95
       32
302
GRIDFORMAT
  1
GRIDFORMAT_BEGIN
 90
        0
 91
        1
 62
     0
 92
       -2
340
0
 93
        0
 40
0.045
309
GRIDFORMAT_END
309
TABLEFORMAT_END
  1
CELLSTYLE_BEGIN
 90
        2
 91
        1
300
_HEADER
309
CELLSTYLE_END
300
CELLSTYLE
  1
TABLEFORMAT_BEGIN
 90
        5
170
     1
 91
        0
 92
        0
 62
   257
 93
        1
300
CONTENTFORMAT
  1
CONTENTFORMAT_BEGIN
 90
        0
 91
        0
 92
        4
 93
        0
300

 40
0.0
140
1.0
 94
        2
 62
     0
340
11
144
0.18
309
CONTENTFORMAT_END
171
     1
301
MARGIN
  1
CELLMARGIN_BEGIN
 40
0.06
 40
0.06
 40
0.06
 40
0.06
 40
0.18
 40
0.18
309
CELLMARGIN_END
 94
        6
 95
        1
302
GRIDFORMAT
  1
GRIDFORMAT_BEGIN
 90
        0
 91
        1
 62
     0
 92
       -2
340
0
 93
        0
 40
0.045
309
GRIDFORMAT_END
 95
        2
302
GRIDFORMAT
  1
GRIDFORMAT_BEGIN
 90
        0
 91
        1
 62
     0
 92
       -2
340
0
 93
        0
 40
0.045
309
GRIDFORMAT_END
 95
        4
302
GRIDFORMAT
  1
GRIDFORMAT_BEGIN
 90
        0
 91
        1
 62
     0
 92
       -2
340
0
 93
        0
 40
0.045
309
GRIDFORMAT_END
 95
        8
302
GRIDFORMAT
  1
GRIDFORMAT_BEGIN
 90
        0
 91
        1
 62
     0
 92
       -2
340
0
 93
        0
 40
0.045
309
GRIDFORMAT_END
 95
       16
302
GRIDFORMAT
  1
GRIDFORMAT_BEGIN
 90
        0
 91
        1
 62
     0
 92
       -2
340
0
 93
        0
 40
0.045
309
GRIDFORMAT_END
 95
       32
302
GRIDFORMAT
  1
GRIDFORMAT_BEGIN
 90
        0
 91
        1
 62
     0
 92
       -2
340
0
 93
        0
 40
0.045
309
GRIDFORMAT_END
309
TABLEFORMAT_END
  1
CELLSTYLE_BEGIN
 90
        3
 91
        2
300
_DATA
309
CELLSTYLE_END
  0
XRECORD
  5
D7D72
102
{ACAD_REACTORS
330
D0C45
102
}
330
D0C45
100
AcDbXrecord
280
     1
102
ACAD_ROUNDTRIP_PRE2007_TABLESTYLE
 90
        4
 91
        0
  1

 92
        4
 93
        0
  2

 94
        4
 95
        0
  3

  0
ENDSEC
  0
EOF
